#TITLE:You Need Me, I Don't Need You;
#SUBTITLE:;
#ARTIST:Ed Sheeran;
#TITLETRANSLIT:;
#SUBTITLETRANSLIT:;
#ARTISTTRANSLIT:;
#CREDIT:;
#BANNER:You Need Me, I Don't Need You-bn.png;
#BACKGROUND:You Need Me, I Don't Need You-bg.png;
#LYRICSPATH:;
#CDTITLE:;
#MUSIC:You Need Me, I Don't Need You.mp3;
#OFFSET:2.180;
#SAMPLESTART:85.920;
#SAMPLELENGTH:15.520;
#SELECTABLE:YES;
#BPMS:0.000=103.460,54.000=104.300,56.000=103.580,77.000=103.500,80.000=103.420,116.000=103.640,120.000=103.460,147.000=103.040,148.000=103.300,151.000=102.540,152.000=103.400;
#STOPS:;
#DISPLAYBPM:103.00;
#BGCHANGES:-0.600=You Need Me I Don't Need You.avi=1.000=1=1=0,
99999=-nosongbg-=1.000=0=0=0 // don't automatically add -songbackground-
;

//---------------dance-single - ----------------
#NOTES:
     dance-single:
     :
     Beginner:
     1:
     0.091,0.128,0.047,0.009,0.000:
0000
0000
0000
0000
,
0000
0000
0000
0000
,
1000
0000
0000
0000
,
1000
0000
0000
0000
,
1000
0000
0000
0000
,
1000
0000
0000
0000
,
1001
0000
0000
0000
,
1001
0000
0000
0000
,
1001
0000
0000
0000
,
1001
0000
0000
0000
,
0010
0000
0000
0000
,
0100
0000
0000
0000
,
0010
0000
0000
0000
,
0001
0001
0001
0000
,
0100
0000
0000
0000
,
0010
0000
0000
0000
,
1000
0000
0000
0000
,
0100
0000
0100
0000
,
0100
0000
0000
0000
,
0010
0000
0000
0000
,
0001
0000
0000
0000
,
1000
0000
1000
0000
,
1000
0000
0000
0001
,
0001
0000
0000
0100
,
0100
0000
0000
0010
,
0010
0000
0000
1000
,
1000
0000
0000
0001
,
0001
0000
0000
1000
,
1000
0000
0000
0100
,
0200
0000
0300
0000
,
0110
0000
0000
0000
,
0001
0000
0000
0000
,
1000
0000
0000
0000
,
0100
0000
0000
0000
,
0100
0000
0000
0000
,
0010
0000
0000
0000
,
1000
0000
0000
0000
,
0001
0000
0000
0000
,
0000
0000
0000
0100
,
0100
0000
0000
0010
,
0010
0000
0000
1000
,
1000
0000
0000
0001
,
0001
0000
0000
1000
,
1000
0000
0000
0100
,
0100
0000
0000
0010
,
0010
0000
0010
0000
;

//---------------dance-single - ----------------
#NOTES:
     dance-single:
     :
     Medium:
     5:
     0.300,0.298,0.178,0.150,0.000:
0000
0000
0000
0000
,
0000
0000
0000
0000
,
0010
0000
1000
0100
1000
0000
1100
0000
,
0010
0000
1000
0001
1000
0000
1001
0000
,
0010
0000
0001
0100
0001
0000
0101
0000
,
0010
0000
0100
0010
0100
0000
0110
0000
,
1001
0000
0000
0000
,
0101
0000
0000
0000
,
1010
0000
0000
0000
,
1100
0110
0011
1001
,
0010
0000
1000
0000
0100
0100
0000
0000
,
1000
0000
0010
0000
0100
0100
0000
0000
,
0010
0000
1000
0000
0001
0001
0000
0000
,
1001
0101
1100
0000
,
0010
0000
1000
0000
0100
1000
0100
0000
,
1000
0000
0010
0000
1000
0001
1000
0000
,
0001
0000
0010
0000
0001
0100
0001
0000
,
0100
0000
0100
0000
0010
0100
0010
0000
,
1000
0000
0100
0000
1000
0100
1000
0100
,
0010
0000
0001
0000
0010
0001
0010
0001
,
0100
0000
0010
0000
0100
0010
0100
0010
,
0200
0000
0301
0000
,
2000
0000
0010
0000
3100
0000
0010
0100
,
0020
0000
0100
0000
1030
0000
0001
1000
,
0002
0000
0010
0000
0103
0000
0010
1000
,
0020
0000
1000
0000
0130
0000
0100
0010
,
2000
0000
0100
0000
3010
0000
0100
1000
,
0002
0000
0100
0000
0013
0000
0100
0001
,
0200
0000
0010
0000
0301
0000
0010
1000
,
0002
0000
1003
0000
,
1100
0000
0000
0000
,
0010
1000
0001
0100
,
0001
0100
0001
0000
1000
1000
1000
0000
,
1000
0100
1000
0000
0001
0001
0001
0000
,
0100
0010
2000
3100
,
0010
1000
0002
0103
,
0010
0000
0100
0000
0001
1000
0001
0000
,
2000
0000
0000
0000
0100
0100
3100
0000
,
2001
0000
0001
0000
3001
0000
0010
0100
,
0010
0100
0001
1000
,
2010
0000
0010
0000
3010
0000
0100
0001
,
0100
0001
1000
0001
,
0021
0000
0001
0000
0031
0000
0100
0010
,
0100
0001
1000
0100
,
2010
0000
0010
0000
3010
0000
1000
0100
,
1000
0000
0001
1000
0001
0000
0000
0000
;

//---------------dance-single - ----------------
#NOTES:
     dance-single:
     :
     Hard:
     7:
     0.452,0.448,0.253,0.019,0.393: // measure 1
0000
0000
0000
0000
,  // measure 2
0000
0000
0000
0000
,  // measure 3
0010
0000
1000
0000
0100
0000
1000
0000
0001
0100
0001
0000
0000
0000
1000
0001
,  // measure 4
1000
0000
0100
0000
0010
0000
0001
0100
0001
0000
0100
0000
0000
0000
1001
0000
,  // measure 5
1000
0000
0100
0000
1000
0000
0001
0010
0000
0010
0001
0000
0000
0001
0100
0000
,  // measure 6
0100
0000
0010
0000
1000
0000
0001
0100
0001
0000
1000
0000
0100
0000
1000
0000
,  // measure 7
1001
0000
0000
0000
,  // measure 8
0101
0000
0000
0000
,  // measure 9
1010
0000
0000
0000
,  // measure 10
1001
0110
0101
1100
,  // measure 11
0010
1000
0001
1000
0100
0010
0000
0001
,  // measure 12
1000
0001
0100
0010
0100
0001
1000
0100
,  // measure 13
1100
0000
0000
0010
0100
0010
0100
0001
,  // measure 14
0101
0000
0000
0000
1100
0000
0000
0000
0011
0000
0100
0000
0000
1000
0000
0000
,  // measure 15
0001
0000
0100
0000
0000
0010
0000
0000
1000
0000
0100
0000
1000
0000
0001
0000
,  // measure 16
0100
0000
0010
0000
0000
0100
0000
0000
0001
0000
0010
0000
0100
0000
1000
0000
,  // measure 17
0001
0000
1000
0000
0000
0100
0000
0000
1000
0000
0010
0000
0100
0000
0001
0000
,  // measure 18
0100
0000
0010
0000
1000
0001
1000
0000
0001
0010
0001
0000
0100
0000
0010
0000
,  // measure 19
1000
0000
0100
0000
0000
1000
0000
0000
0010
0000
1000
0000
0100
0000
0010
0000
,  // measure 20
0001
0000
0100
0000
0000
0001
0000
0000
0010
0000
0100
0000
0010
0000
0001
0000
,  // measure 21
1000
0000
0010
0000
0100
0000
0010
0000
1000
0100
1000
0100
0010
0000
0001
0000
,  // measure 22
0100
0000
0010
0000
0100
0000
0001
0000
1000
0001
1000
0000
1100
0000
0000
0000
,  // measure 23
0110
0000
0000
0000
1000
0001
0000
1000
0000
0010
0000
0000
0100
0000
0001
0000
,  // measure 24
0100
0000
0000
0000
0010
1000
0000
0100
0000
1000
0000
0000
0001
0000
1000
0000
,  // measure 25
0001
0000
0000
0000
0010
0001
0000
0100
0000
0001
0000
0000
0100
0000
0010
0000
,  // measure 26
0100
0000
0000
0000
0001
0100
0000
0001
0000
1000
0000
0010
1000
0000
0100
0000
,  // measure 27
0010
0000
0000
0000
0001
0010
0000
0001
0000
1000
0000
0000
0010
0000
1000
0000
,  // measure 28
0001
0000
0000
0000
0100
0010
0000
0100
0000
0001
0000
0000
0010
0000
0100
0000
,  // measure 29
1000
0000
0000
0000
0010
1000
0000
0001
0000
0100
0000
0010
0100
0000
0001
0000
,  // measure 30
0020
0000
0200
0330
,  // measure 31
0101
0000
0000
0000
0000
0000
0000
0000
0000
0000
0000
0000
0010
1000
0000
0000
,  // measure 32
0100
0000
1000
0000
0010
0000
0100
0001
0000
1000
0100
0000
1000
0000
0001
0000
,  // measure 33
0100
0000
0010
0000
1000
0100
1000
0000
0001
0000
1000
0000
0010
0100
0000
0000
,  // measure 34
0001
0000
0010
0000
0100
0000
1000
0100
1000
0000
0001
0000
0100
0010
0000
0000
,  // measure 35
0000
0000
0101
0000
0000
1001
0000
0000
0010
0000
1000
0000
0100
0000
1000
0000
,  // measure 36
0001
0100
0001
0000
0010
0000
0001
1000
0001
0000
1000
0000
0001
0000
0100
0000
,  // measure 37
0010
1000
0100
0001
0100
1000
0010
0100
,  // measure 38
0000
0001
1000
0000
0001
0000
0100
0010
0100
0010
0100
0010
1000
0000
0100
0000
,  // measure 39
1100
0000
0000
0000
0001
1000
0000
0001
0000
0100
0000
0010
1000
0000
0100
0000
,  // measure 40
0010
0000
0000
0000
0001
0100
0000
0001
0000
1000
0000
0010
1000
0000
0100
0000
,  // measure 41
0010
0000
0000
0000
0001
0010
0000
0001
0000
1000
0000
0100
0010
0000
0001
0000
,  // measure 42
0100
0010
0100
0000
0001
0100
0000
0010
0000
1000
0000
0100
1000
0000
0001
0000
,  // measure 43
0100
0000
0000
0000
0010
1000
0000
0001
0000
0100
0000
0000
0101
0000
0101
0000
,  // measure 44
1001
0000
0000
0000
0100
1000
0000
0010
0000
0100
0000
0000
0110
0000
0110
0000
,  // measure 45
1010
0000
0000
0000
1000
0100
0000
1000
0000
0001
0000
0000
0011
0000
0011
0000
,  // measure 46
1001
0000
0000
0000
0010
0100
0000
0001
0000
1000
0000
0000
0000
0000
0000
0000
;

//---------------dance-single - ----------------
#NOTES:
     dance-single:
     :
     Easy:
     3:
     0.169,0.170,0.103,0.019,0.000:
0000
0000
0000
0000
,
0000
0000
0000
0000
,
0010
0010
0010
0000
,
1000
1000
1000
0000
,
0100
0100
0100
0000
,
1000
1000
1000
0000
,
1001
0000
0000
0000
,
0110
0000
0000
0000
,
1001
0000
0000
0000
,
0110
0000
0110
0000
,
0001
0100
0001
0000
,
1000
0100
1000
0000
,
0010
0100
0010
0000
,
1001
0000
1001
0000
,
0010
0100
0010
0000
,
1000
0100
1000
0000
,
0001
0100
0001
0000
,
0100
0000
0100
0000
,
0010
0100
0010
0000
,
1000
0001
1000
0000
,
0001
0010
0001
0000
,
0110
0000
1001
0000
,
0000
0010
0010
0100
,
0100
0000
0001
0001
,
1000
0000
0100
0100
,
1000
0000
0010
0010
,
0100
0000
0001
0001
,
0010
0000
0100
0100
,
1000
0000
1000
1000
,
0002
0000
0103
0000
,
1001
0000
0000
0000
,
0010
0000
1000
0000
,
0100
0000
1000
1000
,
1000
0000
0001
0001
,
0001
0000
0010
0000
,
0001
0000
0100
0000
,
0010
0010
0010
0000
,
0200
0000
0000
0000
,
0300
0010
0010
1000
,
1000
0000
0100
0100
,
0010
0000
0001
0001
,
1000
0000
1000
1000
,
0010
0000
0100
0100
,
0001
0000
0010
0010
,
0100
0000
0100
0100
,
1000
0000
1001
0000
;
