#TITLE:Wonderful Life;
#SUBTITLE:;
#ARTIST:Hurts;
#TITLETRANSLIT:;
#SUBTITLETRANSLIT:;
#ARTISTTRANSLIT:;
#CREDIT:;
#BANNER:Wonderful Life-bn.png;
#BACKGROUND:Wonderful Life-bg.png;
#LYRICSPATH:;
#CDTITLE:;
#MUSIC:Wonderful Life.mp3;
#OFFSET:-0.060;
#SAMPLESTART:40.020;
#SAMPLELENGTH:15.000;
#SELECTABLE:YES;
#BPMS:0.000=120.000;
#STOPS:78.000=0.500
,109.000=-0.010
;
#BGCHANGES:-0.600=Wonderful Life.avi=1.000=1=1=0,
210.000=Wonderful Life-bg.png=1.000=1=0=1,
99999=-nosongbg-=1.000=0=0=0 // don't automatically add -songbackground-
;

//---------------dance-single - ----------------
#NOTES:
     dance-single:
     :
     Beginner:
     2:
     0.139,0.171,0.047,0.132,0.000: // measure 1
0000
0000
0000
0000
,  // measure 2
0000
0000
0000
0000
,  // measure 3
0000
0000
0000
0000
,  // measure 4
0000
0000
0000
0000
,  // measure 5
0010
0000
0010
0000
,  // measure 6
0010
0000
0000
0000
,  // measure 7
1000
1000
1000
0000
,  // measure 8
0001
0000
0001
0000
,  // measure 9
0100
0000
0000
0000
,  // measure 10
0100
0100
0100
0000
,  // measure 11
0010
0000
0010
0000
,  // measure 12
0010
0000
0000
0000
,  // measure 13
1000
1000
1000
0000
,  // measure 14
1000
1000
1000
0000
,  // measure 15
0001
0001
0001
0000
,  // measure 16
0001
0001
0001
0000
,  // measure 17
0100
0000
0000
0000
,  // measure 18
0100
0000
0000
0000
,  // measure 19
1001
0000
0000
0000
,  // measure 20
0000
0000
0000
1000
,  // measure 21
1000
1000
1000
2000
,  // measure 22
0000
3000
0000
0010
,  // measure 23
0000
0000
0000
0100
,  // measure 24
0000
0000
0000
0001
,  // measure 25
0001
0001
0001
0002
,  // measure 26
0000
0003
0000
0100
,  // measure 27
0000
0000
0000
0100
,  // measure 28
0000
0000
0000
0010
,  // measure 29
0000
0010
0000
0010
,  // measure 30
0000
0010
0000
1000
,  // measure 31
0000
1000
0000
1000
,  // measure 32
0000
1000
0000
0100
,  // measure 33
0000
0100
0000
0100
,  // measure 34
0000
0100
0000
0001
,  // measure 35
0000
0001
0000
0001
,  // measure 36
0000
0001
0000
0100
,  // measure 37
0100
0100
0000
0100
,  // measure 38
0000
0000
0000
0010
,  // measure 39
0010
0010
0000
0010
,  // measure 40
0000
0000
0000
1000
,  // measure 41
1000
1000
0000
1000
,  // measure 42
0000
0000
0000
0001
,  // measure 43
0001
0001
0000
0001
,  // measure 44
0000
0000
0000
2002
,  // measure 45
0000
0000
3003
0220
,  // measure 46
0000
0000
0330
0002
,  // measure 47
0000
0003
0000
2000
,  // measure 48
0000
3000
0000
0220
,  // measure 49
0000
0330
0000
2002
,  // measure 50
0000
3003
0000
0200
,  // measure 51
0000
0000
0000
0002
,  // measure 52
0000
0000
0000
0303
;

//---------------dance-single - ----------------
#NOTES:
     dance-single:
     :
     Medium:
     4:
     0.256,0.292,0.217,0.217,0.000:
0000
0000
0000
0000
,
0000
0000
0000
0000
,
0000
0000
0000
0000
,
0000
0000
0000
0000
,
0001
0100
0010
0100
,
0002
0000
0000
2003
0000
0000
0000
0000
,
3100
1000
0010
0100
,
0020
0000
0000
0230
0000
0000
0000
0000
,
0301
0010
0001
1000
,
0200
0000
0000
2300
0000
0000
0000
0000
,
3010
1000
0100
0001
,
2000
0000
0000
3020
0000
0000
0000
0000
,
1030
0000
0100
1000
0100
0000
0000
0000
,
0010
0001
0100
0000
,
0010
0100
0010
0000
0100
0000
0001
0000
,
2000
0000
0000
3020
0000
0000
0000
0000
,
0130
0000
0000
0100
0000
0000
0000
0000
,
0001
0000
0000
0001
0000
0000
0000
0000
,
1001
0000
0000
0000
,
0110
0000
0000
0101
,
0000
1001
0000
0000
1100
0000
0000
0000
,
0010
1000
0001
0100
,
0100
0000
0010
0000
0100
0001
0100
0000
,
0101
1100
0000
1010
,
0000
0101
0000
0000
0110
0000
0000
0000
,
0100
0001
1000
0010
,
1000
0000
0100
1000
0100
0000
1100
0000
,
1001
0101
0000
0020
,
0100
0130
0000
0002
,
0100
0103
0000
2000
,
3100
0020
0031
0200
,
0010
0000
0310
0000
0000
0000
0001
0100
,
0001
0000
0101
0000
0000
0000
1000
0100
,
1000
0000
1100
0000
0000
0000
0010
1000
,
0010
0000
1000
0100
1000
0000
0001
0100
,
0001
0101
0000
2020
,
0000
0000
0030
0000
3100
0000
0001
1000
,
0001
0100
0001
1000
0001
0000
0100
0000
,
0010
0100
0000
0001
,
0010
0000
0001
0000
0000
0000
1000
0100
,
1000
0100
0000
0000
2000
0002
0000
0000
,
0000
0000
0000
0000
3003
0000
0100
0010
,
0100
0001
0000
0000
0100
0000
0010
0000
,
1000
0000
0100
0100
1000
0000
1010
0000
,
0000
1001
0000
0000
0101
0000
0000
0000
,
0000
0000
0000
0020
,
0000
0000
0030
0200
,
0000
0000
0300
0110
,
0000
1001
0000
0000
1100
0000
0000
0000
,
0000
0000
0000
0020
,
0000
0000
0030
2000
,
0000
0000
3000
0000
;

//---------------dance-single - ----------------
#NOTES:
     dance-single:
     :
     Hard:
     7:
     0.410,0.415,0.283,0.057,0.104:
0000
0000
0000
0000
,
0000
0000
0000
0000
,
0000
0000
0000
0000
,
0000
0000
0000
0000
,
1010
0000
1000
0100
1000
0001
0100
0010
,
0100
0000
0001
0100
0001
1000
0001
0000
,
1100
0000
1000
0010
0100
0010
1000
0100
,
0010
0000
0001
0010
0001
1000
0100
0000
,
0101
0000
1100
0000
1000
0001
0100
0000
,
0010
0100
1000
0100
0010
1000
0100
0000
,
1100
0000
0011
0000
1000
0001
1000
0001
,
0100
0000
0010
0100
0001
0100
0010
1000
,
0000
0001
1000
0001
0100
0000
0010
1000
,
0100
0000
1000
0000
0010
0000
0100
0000
0001
0000
0000
1000
0000
0000
0010
0000
,
1000
0000
0100
0000
1000
0000
0001
0000
0100
0000
0000
0010
0000
0000
1000
0000
,
0100
0100
0000
0100
0000
0000
1000
0100
,
0010
0010
0001
0100
0000
0000
0000
0000
,
0010
0010
1000
0100
0000
0000
0000
0000
,
1000
0100
0010
0001
0000
0000
0000
0000
,
0001
0000
0010
0000
0100
0000
1000
0000
0000
0000
0000
0000
0010
1000
0010
0000
,
0000
0000
0100
0001
0100
0000
0000
0000
0001
1000
0001
0000
0000
0000
1000
0000
,
0100
1000
0001
0100
0001
0000
1000
0001
,
1000
0010
0100
0001
1000
0000
1001
0000
,
0101
0000
0000
0000
1010
0000
0000
0000
0000
0000
0000
0000
0010
0100
0010
0000
,
0000
0000
0100
0001
0100
0000
0000
0000
0010
1000
0010
0000
0000
0000
1000
0000
,
0100
1000
0001
0100
0010
0000
1000
0100
,
0001
0100
1000
0010
1000
0000
0110
0000
,
0101
0000
0000
0000
1100
0000
0000
0000
0000
0000
0000
0000
0001
1000
0001
0000
,
1000
0000
0000
0000
0100
0000
0000
0000
1100
0000
0000
0000
0010
1000
0010
0000
,
1000
0000
0000
0000
0001
0000
0000
0000
0101
0000
0000
0000
0010
0100
0010
0000
,
0100
0000
0000
0000
0001
1000
0001
0000
1000
0000
0000
0000
0100
1000
0100
0000
,
1000
0000
0000
0000
0010
0000
0000
0000
1010
0000
0000
0000
0001
0100
0001
0000
,
0100
0000
0010
0000
1000
0000
0000
0000
1010
0000
0000
0000
0100
1000
0100
0000
,
1000
0000
0001
0000
0100
0000
0000
0000
0101
0000
0000
0000
0010
0100
0010
0000
,
0100
0000
0000
0000
0001
1000
0001
0000
1000
0000
0000
0000
0100
1000
0100
0000
,
1000
0000
0101
0000
1001
0000
0210
0010
,
0001
0010
0300
0000
0110
0000
0001
0100
,
1000
0100
0001
1000
0100
0000
2100
0100
,
0010
0100
3000
0000
1100
0000
0010
1000
,
0100
1000
0001
0100
1000
0000
0010
0100
,
0001
1000
0000
0000
1001
0000
0010
0100
,
0010
0100
0001
1000
0100
0000
1000
0100
,
0010
0001
0100
0001
1000
0010
0100
0010
,
1000
0100
0010
0001
0100
0000
0101
0000
,
0000
1100
0000
0000
0110
0000
0002
0000
,
0000
0000
0000
0000
0000
0000
0000
0000
0003
0000
0000
0000
1000
0000
0000
1000
,
0000
0000
1000
0000
0000
0000
0000
0000
0000
0000
0000
0000
0010
0000
0000
0010
,
0000
0010
0000
0000
0000
0000
1010
0000
,
0000
1100
0000
0000
0101
0000
0020
0000
,
0000
0000
0000
0000
0000
0000
0000
0000
0030
0000
0000
0000
0100
0000
0000
0100
,
0000
0000
0100
0000
0000
0000
0000
0000
0000
0000
0000
0000
0001
0000
0000
1000
,
0000
0200
0000
0000
0020
0000
0330
0000
;

//---------------dance-single - ----------------
#NOTES:
     dance-single:
     :
     Easy:
     3:
     0.174,0.220,0.047,0.057,0.000:
0000
0000
0000
0000
,
0000
0000
0000
0000
,
0000
0000
0000
0000
,
0000
0000
0000
0000
,
1000
0000
0010
0000
,
1000
0100
0100
0000
,
1000
0001
0100
0000
,
0001
0001
0001
0000
,
0010
0000
0001
0000
,
0010
0010
0100
0000
,
0010
0100
0010
0000
,
0100
0000
1000
0000
,
0010
1000
1000
0000
,
0010
0100
0100
0000
,
0002
0000
0203
0000
,
0310
1000
0100
0000
,
1100
0000
0000
0000
,
0101
0000
0000
0000
,
0110
0000
0000
0000
,
1001
0000
0000
1000
,
0000
1000
0000
0000
1000
0000
0000
0000
,
0000
0000
0000
0010
,
0100
0001
1000
0100
,
0010
0001
0000
0010
,
0000
0010
0000
0000
0010
0000
0000
0000
,
0000
0000
0000
0001
,
0100
0010
0100
0001
,
1000
0100
0000
1000
,
1000
1000
0000
0001
,
0001
0001
0000
0100
,
0100
0010
0010
0100
,
0100
0010
0000
1000
,
0100
1000
0000
0001
,
0100
0000
0001
0000
0000
0000
0100
0100
,
0100
0000
0100
0100
0100
0000
0100
0100
,
0100
0100
0000
0020
,
0000
0000
0030
1000
,
0100
1000
0000
0001
,
0100
0001
0000
0100
,
0010
0100
0000
0002
,
0000
0000
0003
1000
,
0100
1000
0000
0010
,
0010
0010
0000
1000
,
0100
0001
0000
0100
,
0000
0100
0000
0000
0100
0000
0000
0000
,
0000
0000
0000
0010
,
0000
1000
0000
0001
,
0000
1000
0000
0100
,
0000
0100
0000
0000
0100
0000
0000
0000
,
0000
0000
0000
1000
,
0000
0010
0000
2002
,
0000
0000
0000
3003
;
