#TITLE:Who's Your Daddy?;
#SUBTITLE:;
#ARTIST:Lordi;
#TITLETRANSLIT:;
#SUBTITLETRANSLIT:;
#ARTISTTRANSLIT:;
#CREDIT:;
#BANNER:Who's Your Daddy?-bn.png;
#BACKGROUND:Who's Your Daddy?-bg.png;
#LYRICSPATH:;
#CDTITLE:;
#MUSIC:Who's Your Daddy?.mp3;
#OFFSET:-0.180;
#SAMPLESTART:67.540;
#SAMPLELENGTH:15.000;
#SELECTABLE:YES;
#BPMS:0.000=135.000;
#STOPS:23.000=-0.010
,32.000=1.300
,148.000=0.000
;
#BGCHANGES:;

//---------------dance-single - ----------------
#NOTES:
     dance-single:
     :
     Easy:
     4:
     0.292,0.323,0.319,0.206,0.000:
0000
0000
0000
0000
,
0000
0000
0000
0000
,
0000
0000
0000
0000
,
0000
0000
0110
0110
,
1000
0100
1000
0010
,
0100
0000
1001
1001
,
0100
0010
0100
0001
,
1000
0000
1100
1100
,
0000
2002
0000
3003
,
1001
0001
0000
0100
,
0000
0010
1000
0010
,
0000
1000
0000
0100
,
0000
1000
0001
1000
,
0000
0010
0100
0010
,
0100
0001
1000
0001
,
1000
0100
0000
1000
,
0000
0010
0000
1000
,
0000
0000
0101
0000
0000
0101
0000
0000
,
0101
0000
0000
0101
0000
0000
0101
0000
,
0000
0000
1100
0000
0000
1100
0000
0000
,
1100
2002
0000
0000
,
3003
0000
0010
0000
0010
0000
0010
0010
,
0000
0100
0001
1000
,
0000
0100
1000
0010
,
0000
1000
0001
0100
,
0000
0000
0001
0000
0001
0000
0001
0001
,
0000
0010
0100
1000
,
0000
2020
3030
2020
,
3030
2020
3030
0000
,
0000
0000
0001
0001
0000
0001
0001
0000
,
0000
0000
1000
1000
0000
1000
1000
0000
,
0000
0000
0010
0010
0000
0010
0010
0000
,
0000
0110
0000
0110
,
0000
0000
0100
0100
0000
0100
0100
0000
,
0000
0000
0001
0001
0000
0001
0001
0000
,
0000
0000
1000
1000
0000
1000
1000
0000
,
0000
1100
0000
1100
,
0000
0000
0010
0000
0010
0000
0010
0010
,
0000
1000
0100
1000
,
0000
0010
0100
0001
,
0000
1000
0100
0010
,
0000
0000
0001
0000
0001
0000
0001
0001
,
0000
0100
0010
1000
,
0000
2020
3030
2020
,
3030
2020
3030
0000
,
0000
0000
1000
0000
1000
0000
1000
1000
,
0000
0100
0010
0001
,
0000
1000
0001
1000
,
0000
0010
0100
0001
,
0000
0000
0010
0000
0010
0000
0010
0010
,
0000
0001
0100
0010
,
0000
0202
0303
0202
,
0303
0202
0303
0000
,
0000
0010
0010
0010
,
1000
0100
0100
0100
,
0010
0001
0001
0001
,
0100
0101
0000
1100
,
0000
0000
0110
0110
0000
0000
0000
0000
;

//---------------dance-single - ----------------
#NOTES:
     dance-single:
     :
     Hard:
     8:
     0.571,0.511,0.824,0.084,0.028: // measure 1
0000
0000
0000
0000
,  // measure 2
0000
0000
0000
0000
,  // measure 3
1001
0100
0000
0100
0000
0100
1001
0000
,  // measure 4
0000
0000
0101
1010
,  // measure 5
0001
1000
0100
1000
0000
0001
1000
0100
,  // measure 6
1000
0100
0000
0001
1100
0000
0101
0000
,  // measure 7
1000
0001
0100
0001
0000
1000
0001
0100
,  // measure 8
0001
0100
0000
1000
1001
0000
1100
0000
,  // measure 9
0000
1000
1001
0000
0100
0110
0000
0001
,  // measure 10
0101
0000
0010
1000
1000
0001
0001
0010
,  // measure 11
0010
0000
0001
0100
0001
1000
0000
1001
,  // measure 12
0000
0101
0100
0010
0110
0000
0001
0100
,  // measure 13
0101
0000
1000
0100
1000
1010
0000
1001
,  // measure 14
0000
0101
0001
1000
0100
0010
0001
0100
,  // measure 15
0010
0000
0100
0001
0100
0010
1000
0100
,  // measure 16
1000
0000
0001
0100
0001
0101
0000
1100
,  // measure 17
0000
1001
1000
0001
0100
0101
0000
1100
,  // measure 18
0000
1010
0100
0001
1000
0100
1000
0001
,  // measure 19
0100
0001
1000
0100
1000
0001
0100
1000
,  // measure 20
0100
0001
1001
0000
0000
1010
0000
0000
,  // measure 21
0101
0000
1000
0100
1000
0001
0100
0001
,  // measure 22
1000
0000
1001
0000
1100
0000
0010
1000
,  // measure 23
0100
0010
0000
0011
0000
0010
0100
1000
,  // measure 24
0001
0000
1100
0000
0101
0000
1000
0001
,  // measure 25
1000
0010
0100
0001
0100
0000
0010
1000
,  // measure 26
0100
0000
1100
0000
0101
0000
1000
0001
,  // measure 27
1000
0010
0000
0110
0000
0100
0001
0100
,  // measure 28
0010
0000
2100
0100
3100
0000
0102
0100
,  // measure 29
0103
0000
2010
0010
3010
0000
1000
0001
,  // measure 30
1000
0000
0101
0110
0000
0101
0110
0000
,  // measure 31
0000
0000
1100
1001
0000
1100
1001
0000
,  // measure 32
0000
0000
0110
1100
0000
0110
1100
0000
,  // measure 33
0000
0000
0010
0100
0010
1000
0010
0001
,  // measure 34
0010
0000
1001
0101
0000
1001
0101
0000
,  // measure 35
0000
0000
1100
0110
0000
1100
0110
0000
,  // measure 36
0000
0000
0101
1100
0000
0101
1100
0000
,  // measure 37
0000
0000
0100
1000
1100
0000
0001
0100
,  // measure 38
0101
0000
0010
1000
0100
1000
0001
0100
,  // measure 39
0001
1000
0000
1001
0000
0010
1000
0100
,  // measure 40
0010
0000
0011
0000
1100
0000
0001
1000
,  // measure 41
0100
1000
0001
0100
0001
0010
1000
0010
,  // measure 42
0001
0000
0100
0001
0010
0001
1000
0010
,  // measure 43
1000
0001
0000
1001
0000
0100
0001
0010
,  // measure 44
0100
0000
0012
0010
0013
0000
2010
0010
,  // measure 45
3010
0000
0102
0100
0103
0000
1001
0000
,  // measure 46
1010
0000
1000
0100
0001
0100
0010
0001
,  // measure 47
0100
0010
0000
0110
0000
0100
0001
1000
,  // measure 48
0001
0000
1010
0000
0101
0000
0010
0100
,  // measure 49
0001
0100
0010
0001
0010
1000
0100
1000
,  // measure 50
0010
0000
0001
0010
1000
0010
0100
1000
,  // measure 51
0100
0010
0000
0110
0000
0001
0010
0100
,  // measure 52
1000
0000
1200
1000
1300
0000
0021
0001
,  // measure 53
0031
0000
1020
1000
1030
0000
0110
0000
,  // measure 54
1100
0000
0000
0000
0010
0000
0001
0000
0000
0000
1000
0000
0001
0000
0100
0010
,  // measure 55
0100
0010
0100
0000
0001
0000
1000
0000
0000
0000
0100
0000
0010
0000
0001
1000
,  // measure 56
0001
1000
0001
0000
1000
0000
0100
0000
0000
0000
0010
0000
0001
0000
0100
0001
,  // measure 57
0100
0001
0100
0000
1010
0000
1010
0000
0000
0000
0000
0000
0101
0000
0101
0000
,  // measure 58
0000
0000
0110
1001
0000
0000
0000
0000
;

//---------------dance-single - ----------------
#NOTES:
     dance-single:
     :
     Medium:
     5:
     0.414,0.403,0.450,0.272,0.000:
0000
0000
0000
0000
,
0000
0000
0000
0000
,
0000
0000
0000
0000
,
0000
0000
0101
1100
,
0001
0100
0001
0100
0000
0000
0001
0100
,
0001
0100
0000
0000
0101
0000
1100
0000
,
1000
0100
1000
0100
0000
0000
1000
0100
,
1000
0100
0000
0000
1100
0000
0101
0000
,
0000
0000
2000
0000
0000
3002
0000
0000
,
0203
0310
1000
0001
,
0100
0000
0001
0001
0000
1001
0000
0000
,
0020
1030
0100
0010
,
0001
0000
0100
0100
0000
0101
0000
0000
,
2000
0000
3010
0000
1000
0000
0100
1000
,
0100
0000
1000
0000
0010
0000
0100
0001
,
0100
0000
0001
0000
1000
0100
0000
1000
,
0000
0000
0001
0100
0000
0001
0000
0010
,
0000
0000
1001
0000
0000
1001
0000
0000
,
0110
0000
0000
0110
0000
0000
0001
0000
,
0100
0000
0101
0000
0000
0101
0000
0000
,
1100
0000
0001
1000
0001
0100
0010
1000
,
0001
0000
1001
0000
1001
0000
0001
1000
,
0000
0000
0010
0000
1000
0100
1000
0100
,
0000
0000
1000
0000
0001
0000
0100
0010
,
0100
0000
0001
0000
0100
0000
0010
1000
,
0010
0000
0101
0000
0101
0000
0001
0100
,
0000
0000
0010
0000
1000
0001
1000
0001
,
0000
0202
0303
2200
,
3300
0000
2002
0000
3003
0000
0010
0100
,
0010
0000
1000
0100
0000
0100
1000
0000
,
0000
0000
0001
0100
0000
0100
0001
0000
,
0000
0000
0010
1000
0000
0001
0010
0000
,
0000
1001
0110
1001
,
0110
0000
0001
0100
0000
1000
0100
0000
,
0000
0000
0001
0010
0000
1000
0010
0000
,
0000
0000
0010
0100
0000
0010
0100
0000
,
0000
0101
1100
0101
,
1100
0000
1001
0000
1001
0000
1000
0001
,
0000
0000
0100
0000
0001
0010
0001
0010
,
0000
0000
0001
0000
1000
0000
0010
0100
,
0010
0000
1000
0000
0010
0000
0100
0001
,
0100
0000
1010
0000
1010
0000
1000
0010
,
0000
0000
0100
0000
0001
1000
0001
1000
,
0000
2020
3030
0022
,
0033
0000
2002
0000
3003
0000
0100
0010
,
0100
0000
0101
0000
0101
0000
0001
0100
,
0001
0000
1000
0000
0010
0100
0010
0100
,
0010
2000
0100
0010
,
3100
0002
0100
0010
,
0103
0000
1010
0000
1010
0000
1000
0010
,
1000
0000
0001
0000
0100
0010
0100
0010
,
0100
2002
3003
2020
,
3030
0000
0202
0000
0303
0000
0010
0100
,
0010
0000
1000
0000
0001
0000
1000
0100
,
1000
0001
0100
0000
0001
0000
1000
0001
,
1000
0010
0100
0000
0010
0000
1000
0100
,
1000
0202
0303
2200
,
3300
0000
1001
1001
0000
0000
0000
0000
;

//---------------dance-single - ----------------
#NOTES:
     dance-single:
     :
     Beginner:
     1:
     0.099,0.105,0.056,0.009,0.000:
0000
0000
0000
0000
,
0000
0000
0000
0000
,
0000
0000
0000
0000
,
0000
0000
0000
0000
,
0100
0000
0000
0000
,
0010
0000
0000
0000
,
0001
0000
0000
0000
,
0100
0000
0000
0000
,
0020
0000
0030
0000
,
0000
1000
0000
1000
,
0000
1000
0000
0000
,
0000
0010
0000
0010
,
0000
0010
0000
0000
,
0000
0001
0000
0001
,
0000
0001
0000
0000
,
0000
0100
0000
0100
,
0000
0100
0000
0000
,
0000
1001
0000
0000
,
0000
0000
0000
0100
,
0100
0110
0000
0000
,
0000
0000
0000
0000
,
0000
0001
0001
0001
,
0000
0000
0000
0000
,
0000
1000
1000
1000
,
0000
0000
0000
0000
,
0000
0100
0100
0100
,
0000
0000
0000
0000
,
0000
0110
0000
0000
,
0000
0110
0000
0000
,
0000
0001
0000
0000
,
0000
0001
0000
0000
,
0000
1000
0000
0000
,
0000
1000
0000
0000
,
0000
0010
0000
0000
,
0000
0010
0000
0000
,
0000
0100
0000
0000
,
0000
0100
0000
0000
,
0000
0010
0010
0010
,
0000
0000
0000
0000
,
0000
1000
1000
1000
,
0000
0000
0000
0000
,
0000
0001
0001
0001
,
0000
0000
0000
0000
,
0000
0010
0000
0010
,
0000
0010
0000
0000
,
0000
0001
0001
0001
,
0000
0000
0000
0000
,
0000
1000
1000
1000
,
0000
0000
0000
0000
,
0000
0100
0100
0100
,
0000
0000
0000
0000
,
0000
1001
0000
0000
,
0000
1001
0000
0000
,
0000
0010
0000
0000
,
0000
0010
0000
0000
,
0000
0100
0000
0000
,
0000
0100
0000
0000
;
