#TITLE:What's Up? (Dougal & Gammer Hardcore Mix);
#SUBTITLE:;
#ARTIST:DJ DESTINY;
#TITLETRANSLIT:;
#SUBTITLETRANSLIT:;
#ARTISTTRANSLIT:;
#CREDIT:;
#BANNER:What's Up? (Dougal & Gammer Hardcore Remix)-bn.png;
#BACKGROUND:What's Up? (Dougal & Gammer Hardcore Remix)-bg.png;
#LYRICSPATH:;
#CDTITLE:;
#MUSIC:What's Up? (Dougal & Gammer Hardcore Remix).mp3;
#OFFSET:-0.080;
#SAMPLESTART:56.527;
#SAMPLELENGTH:14.840;
#SELECTABLE:YES;
#BPMS:0.000=170.000,128.000=85.000,144.000=170.000;
#STOPS:;
#BGCHANGES:;

//---------------dance-single - ----------------
#NOTES:
     dance-single:
     :
     Beginner:
     2:
     0.117,0.163,0.019,0.000,0.000:
0000
0000
0000
0000
,
0000
0000
0000
0000
,
0000
0000
0000
0000
,
0000
0000
0000
0000
,
1000
0000
0000
0000
,
0010
0000
0000
0000
,
1000
0000
0000
0000
,
0001
0000
0000
0000
,
0100
0000
0100
0000
,
0100
0000
0000
0000
,
0010
0000
0010
0000
,
0010
0000
0000
0000
,
1000
0000
1000
0000
,
1000
0000
0000
0000
,
0100
0000
0100
0000
,
0000
0000
0000
0000
,
1000
0000
0000
0000
,
0010
0000
0000
0000
,
1000
0000
0000
0000
,
0100
0000
0100
0000
,
0100
0000
0000
0000
,
1000
0000
0000
0000
,
0010
0000
0000
0000
,
0100
0000
0000
0000
,
0001
0000
0000
0000
,
0001
0000
0000
0000
,
1000
0000
0000
0000
,
1000
0000
0000
0000
,
0100
0000
0000
0000
,
0010
0000
0000
0000
,
0100
0000
0000
0000
,
1000
0000
0000
0000
,
1001
0000
0000
0000
,
0100
0000
0100
0000
,
0100
0000
0000
0000
,
0110
0000
0000
0000
,
0001
0000
0001
0000
,
0001
0000
0001
0000
,
0001
0000
0001
0000
,
0001
0000
0000
0000
,
1000
0000
0000
0000
,
0010
0000
0000
0000
,
1000
0000
0000
0000
,
0100
0000
0000
0000
,
1000
0000
1000
0000
,
1000
0000
1000
0000
,
1000
0000
1000
0000
,
1000
0000
0000
0000
,
0010
0000
0000
0000
,
1000
0000
0000
0000
,
0100
0000
0000
0000
,
0010
0000
0000
0000
,
0001
0000
0001
0000
,
0001
0000
0000
0000
,
0100
0000
0100
0000
,
0100
0000
0000
0000
,
0010
0000
0010
0000
,
0010
0000
0000
0000
,
1000
0000
1000
0000
,
1000
0000
0000
0000
,
0100
0000
0100
0000
,
0100
0000
0000
0000
,
1000
0000
1000
0000
,
1000
0000
0000
0000
,
0010
0000
0010
0000
,
0010
0000
0000
0000
,
0100
0000
0100
0000
,
0000
0000
0000
0000
,
0001
0000
0000
0000
;

//---------------dance-single - ----------------
#NOTES:
     dance-single:
     :
     Medium:
     6:
     0.377,0.457,0.058,0.134,0.000:
0000
0000
0000
0000
,
0000
0000
0000
0000
,
0000
0000
0000
0000
,
0000
0000
0000
0000
,
1000
0001
1000
0000
,
0010
0100
0010
0000
,
1000
0100
0010
0000
,
0001
1000
0010
0000
,
1000
0001
0100
0010
,
0100
0001
1000
0000
,
0010
1000
0100
0010
,
0001
1000
0010
0000
,
1000
0001
0100
0010
,
1000
1010
0000
1001
,
0100
0101
0000
1100
,
2002
0000
0000
3003
,
0100
0010
0100
0001
,
1000
0100
1000
0000
,
0010
1000
0010
0100
,
0001
1000
0100
1000
,
0010
0100
0010
0000
,
1000
0001
0100
0010
,
1000
0100
1000
0000
,
0010
1000
0001
0000
,
1000
0100
1000
0000
0010
0000
1000
0000
,
0010
0000
0100
0000
0001
1000
0001
0000
,
0100
0010
0100
0000
0001
0000
0100
0000
,
0010
1000
0001
0000
,
1000
0100
0010
0000
0001
0000
1000
0000
,
0010
0100
0001
1000
,
0001
0010
0100
0000
1000
0000
0010
0000
,
0100
0000
0000
0000
,
0010
1000
0100
0000
1000
1000
1000
0000
,
0100
0010
0001
1000
0001
0100
0010
0000
,
1000
0100
1000
0000
0010
0100
0100
0100
,
0100
0000
0000
0000
0000
0001
1000
0001
,
0200
0310
0002
0103
,
2000
3010
0100
0010
,
2000
3100
0002
0013
,
0200
0000
0301
0010
,
0001
1000
0100
0010
,
0001
1000
0010
0100
,
0010
1000
0100
0010
,
0001
1000
0001
0000
,
2000
3100
0020
0130
,
2000
3100
0010
0001
,
0200
0301
0020
0130
,
0002
0000
0103
0010
,
1000
0100
1000
0010
,
0100
0001
0010
0100
,
1000
0010
1000
0001
,
0100
0010
1000
0000
,
0001
0000
1000
0000
0010
0000
0100
0010
,
0000
0000
0100
0000
1000
0001
1000
0001
,
1000
0000
0100
0000
0010
0000
0001
1000
,
0000
0010
1000
0001
,
0100
0000
0010
0000
1000
0000
0100
0010
,
0000
0000
0001
0000
1000
0100
1000
0100
,
1000
0000
0010
0000
1000
0000
0001
0100
,
0000
0010
0100
0001
,
1000
0000
0100
0000
0010
0000
0001
1000
,
0000
0000
0010
0000
0100
0001
0100
0001
,
0100
0000
0010
0000
1000
0000
0001
1000
,
0000
0100
1000
0010
,
0100
0000
0001
0000
1000
0000
0100
0010
,
0000
0000
0001
0000
0100
0010
0100
0010
,
0100
0000
0001
0000
0010
0000
0100
1000
,
0000
0010
0000
0100
0000
0001
0000
0000
,
1001
0000
0000
0000
;

//---------------dance-single - ----------------
#NOTES:
     dance-single:
     :
     Hard:
     8:
     0.616,0.686,0.442,0.029,0.053: // measure 1
0000
0000
0000
0000
,  // measure 2
0000
0000
0000
0000
,  // measure 3
0000
0000
0000
0000
,  // measure 4
0000
0000
0000
0000
,  // measure 5
0000
0010
0000
1000
0000
0001
0000
1000
,  // measure 6
0000
0100
0000
0010
0000
0001
0000
1000
,  // measure 7
0001
1000
0000
0010
0000
1000
0000
0001
,  // measure 8
0000
0100
0000
0010
0000
0100
0000
0000
,  // measure 9
0001
1000
0100
0000
1000
0010
0100
0000
,  // measure 10
0010
1000
0100
0000
1000
0001
0010
0000
,  // measure 11
0001
0010
0100
0000
0010
0001
1000
0000
,  // measure 12
0010
1000
1010
0000
0100
0001
0101
0000
,  // measure 13
0010
0100
0001
0000
0010
0100
1000
0000
,  // measure 14
0001
1000
0100
0000
1000
0010
0100
0000
,  // measure 15
0001
1000
1001
0000
0100
0010
0110
0000
,  // measure 16
0002
0100
0000
0100
0000
0100
0003
0100
,  // measure 17
0010
0000
1000
0100
1000
0000
0010
1000
,  // measure 18
0001
0100
0010
0100
0001
0000
0010
0000
,  // measure 19
0001
1000
0010
0100
0001
1000
0100
0000
,  // measure 20
1100
0101
1001
1010
,  // measure 21
0010
1000
0100
0000
1000
0000
0001
0000
,  // measure 22
0100
0010
1000
0000
0001
1000
0100
1000
,  // measure 23
0001
0010
0100
0000
0010
0000
0001
0000
,  // measure 24
1000
0001
0100
0000
0010
0100
0001
0000
,  // measure 25
1000
0001
0100
1000
0100
0010
1000
0100
,  // measure 26
0010
0001
1000
0010
0100
0001
1000
0000
,  // measure 27
0001
0010
0100
0010
0001
1000
0010
0001
,  // measure 28
0010
1000
0100
0010
0001
1000
0100
0000
,  // measure 29
1000
0001
0100
0000
1010
0000
1001
0000
,  // measure 30
0100
0010
0100
0001
0010
0100
0010
0001
,  // measure 31
1000
0000
1100
0000
0001
0100
0010
1000
,  // measure 32
0000
1010
0000
1001
0000
0100
0010
0100
,  // measure 33
0001
0000
1000
0000
0100
0000
0010
0000
0001
0000
1000
0000
0010
0000
0100
0010
,  // measure 34
0100
0000
0001
0000
0010
0000
0100
0000
0010
0000
0001
0000
1000
0000
0100
0010
,  // measure 35
0100
0000
1000
0000
0010
0000
0100
0000
0001
0000
0010
0000
1000
0000
0010
0001
,  // measure 36
0010
0000
0100
0000
1000
0000
0010
0000
0100
0000
0001
1000
0001
1000
0001
0000
,  // measure 37
0101
0100
0010
0000
1100
1000
0001
0000
,  // measure 38
1010
1000
0001
1000
0010
0100
0001
0000
,  // measure 39
1100
0100
0010
0000
1001
1000
0010
0000
,  // measure 40
0102
0000
1003
0000
0100
1000
0001
0100
,  // measure 41
0101
0000
1001
0000
0100
1000
0010
0100
,  // measure 42
0010
1000
0100
0000
1000
0001
1000
0010
,  // measure 43
0100
0001
1000
0000
0100
1000
0001
0000
,  // measure 44
1000
0000
0010
0100
0001
1000
0010
0000
,  // measure 45
1100
1000
0001
0000
0110
0100
0001
0000
,  // measure 46
1100
1000
0001
0100
0010
1000
0001
0000
,  // measure 47
0101
0100
0010
0000
1100
1000
0001
0000
,  // measure 48
2001
0000
3100
0000
0010
1000
0100
1000
,  // measure 49
1001
0000
1010
0000
0001
1000
0100
0000
,  // measure 50
1000
0010
0100
0000
0010
1000
0100
1000
,  // measure 51
0001
0010
0100
0000
0010
0001
1000
0000
,  // measure 52
0001
0100
1000
0100
0001
0010
0100
0010
,  // measure 53
0001
0000
1000
0000
0010
0100
0010
1000
,  // measure 54
0000
0000
0100
0000
0000
0000
0100
0000
1000
0000
0001
1000
0000
0001
1000
0000
,  // measure 55
0010
0100
0001
0000
1000
0001
0100
0001
,  // measure 56
0000
1001
0000
0110
0000
1000
0100
0001
,  // measure 57
0010
0000
0001
0000
1000
0100
1000
0000
,  // measure 58
0010
0000
0100
0000
0010
0000
0000
0000
1000
0000
0010
1000
0000
0010
1000
0000
,  // measure 59
0001
0101
1000
1001
,  // measure 60
0010
0100
0010
1000
0100
1000
0001
0000
,  // measure 61
1001
0000
0110
0000
0001
1000
0010
0100
,  // measure 62
0000
0000
0001
0000
0100
0000
0010
0000
1100
0000
0000
1100
0000
0000
1100
0000
,  // measure 63
0010
0000
0001
1000
0001
0100
0010
1000
,  // measure 64
0000
1001
0000
0101
0000
1000
0100
0010
,  // measure 65
0001
0000
0101
0000
1000
0100
1000
0010
,  // measure 66
0000
0000
0110
0000
0000
0000
1001
0000
1100
0000
0000
1100
0000
0000
1100
0000
,  // measure 67
1000
0001
0100
0010
1000
0100
0001
0100
,  // measure 68
0000
1000
0001
0100
0000
0010
0010
0010
,  // measure 69
0100
0000
0000
0000
;

//---------------dance-single - ----------------
#NOTES:
     dance-single:
     :
     Easy:
     3:
     0.235,0.294,0.048,0.067,0.000:
0000
0000
0000
0000
,
0000
0000
0000
0000
,
0000
0000
0000
0000
,
0000
0000
0000
0000
,
1000
0000
0001
0000
,
0100
0000
0001
0000
,
1000
0000
0100
0000
,
1000
0000
0010
0000
,
1000
0001
0100
0000
,
0010
0100
0001
0000
,
0010
0100
1000
0000
,
0010
1000
0001
0000
,
1000
0100
0010
0000
,
0001
1000
0010
0000
,
0100
0001
1000
0100
,
0000
0000
0000
0000
,
1000
0000
0010
0000
,
1000
0000
0001
0000
,
0010
0000
0001
0000
,
1000
1000
1000
1000
,
1000
0000
0100
0000
,
1000
0000
0010
0000
,
1000
0000
0100
0000
,
0010
0000
0001
0000
,
0100
0001
1000
0000
,
0100
0100
0100
0000
,
1000
0010
0100
0010
,
1000
0100
1000
0000
,
0001
0000
1000
0000
,
0100
0000
0010
0000
,
0001
0000
1000
0000
,
0010
1000
0100
0000
,
2000
0000
3002
0000
,
0203
0000
0320
0000
,
0230
0000
0302
0000
,
2003
0000
0001
0001
,
3001
0000
1001
0000
,
0100
0000
0110
0000
,
0001
0100
1000
0010
,
0001
0000
0000
0000
,
1000
0000
0001
0000
,
1000
0000
0010
0010
,
0100
0000
0001
0000
,
1000
0000
0010
0000
,
1000
0000
1001
0000
,
0010
0000
0110
0000
,
1000
0010
0001
0100
,
1000
0000
0000
0000
,
0001
0000
1000
0000
,
0001
0000
0100
0100
,
0010
0000
1000
0000
,
0001
0000
0100
0000
,
0001
1000
0100
0000
,
1000
0000
0010
0000
,
1000
0001
0100
0000
,
0010
0000
1000
0000
,
0001
0010
0100
0000
,
0010
0000
0001
0000
,
1000
0100
0010
0000
,
0001
0000
1000
0000
,
0010
1000
0100
0000
,
1000
0010
1000
0000
,
0010
0100
0001
0000
,
0100
0001
0100
0000
,
0010
1000
0100
0000
,
1000
0001
0100
0000
,
0010
1000
0100
0010
,
0001
0000
0000
0000
,
1001
0000
0000
0000
;
