#TITLE:What Doesn't Kill You (Stronger);
#SUBTITLE:;
#ARTIST:Kelly Clarkson;
#TITLETRANSLIT:;
#SUBTITLETRANSLIT:;
#ARTISTTRANSLIT:;
#CREDIT:;
#BANNER:What Doesn't Kill You (Stronger)-bn.png;
#BACKGROUND:What Doesn't Kill You (Stronger)-bg.png;
#LYRICSPATH:;
#CDTITLE:;
#MUSIC:What Doesn't Kill You (Stronger).mp3;
#OFFSET:-0.320;
#SAMPLESTART:41.687;
#SAMPLELENGTH:16.500;
#SELECTABLE:YES;
#BPMS:0.000=116.000;
#STOPS:80.000=1.550
;
#BGCHANGES:-0.200=What Doesn't Kill You (Stronger).avi=1.000=1=1=0,
192.500=What Doesn't Kill You (Stronger)-bg.png=1.000=0=0=1,
99999=-nosongbg-=1.000=0=0=0 // don't automatically add -songbackground-
;

//---------------dance-single - ----------------
#NOTES:
     dance-single:
     :
     Beginner:
     1:
     0.076,0.086,0.010,0.000,0.000:
0000
0000
0000
0000
,
0000
0000
0000
0000
,
0000
0000
0000
0000
,
0000
0000
0000
0000
,
1000
0000
0000
0000
,
0001
0000
0000
0000
,
0100
0000
0000
0000
,
0010
0000
0000
0000
,
0100
0000
0000
0000
,
0001
0000
0000
0000
,
1000
0000
0000
0000
,
0100
0000
0000
0000
,
1000
0000
1000
0000
,
1000
0000
0000
0000
,
0010
0000
0010
0000
,
0010
0000
0000
0000
,
0100
0000
0100
0000
,
0100
0000
0000
0000
,
0001
0000
0001
0000
,
0001
0000
0000
0000
,
0000
0000
0000
0000
,
0000
0010
0010
0000
,
0000
0010
0000
0000
,
0000
1000
0000
0000
,
0000
0100
0100
0000
,
0000
0100
0100
0000
,
0000
0100
0100
0000
,
0000
0100
0000
0000
,
0000
0010
0000
0000
,
0000
0001
0000
0000
,
0000
1000
0000
0000
,
0000
0010
0000
0000
,
0000
1000
1000
0000
,
0000
1000
1000
0000
,
0000
1000
1000
0000
,
0000
1000
0000
0000
,
0000
0001
0000
0000
,
0000
0100
0000
0000
,
0000
0001
0000
0000
,
0000
0010
0000
0000
,
0000
0001
0001
0000
,
0000
0001
0001
0000
,
0000
0001
0001
0000
,
0000
0001
0000
0000
,
0000
1001
0000
0000
;

//---------------dance-single - ----------------
#NOTES:
     dance-single:
     :
     Medium:
     4:
     0.262,0.302,0.319,0.039,0.000:
0000
0000
0000
0000
,
0000
0000
0000
0000
,
0000
0000
0000
0000
,
0000
0000
0000
0000
,
0010
1000
0001
0000
,
1000
0010
1000
0000
,
0010
0100
0001
0010
,
0001
1000
0100
0000
,
1000
0010
0100
0000
,
0010
1000
0001
0000
,
0100
0010
0100
0001
,
1000
0100
1000
0000
,
0001
0100
0001
0000
0000
0000
0101
0000
,
1000
0001
1000
0000
0000
0000
1001
0000
,
0100
0010
0100
0000
0000
0000
0110
0000
,
0010
1000
0001
0010
,
0001
1000
0001
0000
0000
0000
1001
0000
,
1000
0010
1000
0000
0000
0000
1010
0000
,
0100
0010
1000
0001
,
1000
0100
1000
0000
0010
0100
0010
0000
,
1000
1001
1001
0100
,
0100
1001
1001
0100
,
0100
1001
1001
0010
,
0100
0001
1000
0001
,
0000
1001
1001
0010
,
0010
1001
1001
0010
,
0010
1001
1001
0100
,
0001
1000
0100
1000
,
0000
0000
1001
1001
,
0000
0000
0010
0000
0100
0000
0010
1000
,
0010
1000
0010
0000
0000
0000
1000
0000
,
0001
0100
0010
1000
,
0000
1001
1001
0100
,
0100
1001
1001
0100
,
0100
1001
1001
0010
,
1000
0001
1000
0100
,
0000
0000
0110
0110
,
0000
0000
1000
0010
1000
0010
1000
0000
,
0000
0010
1000
0001
,
0010
0001
1000
0001
,
0000
1001
1001
0100
,
0100
1001
1001
0100
,
0100
1001
1001
0010
,
1000
0001
0010
0001
,
0000
0200
0000
0000
,
0000
0320
0000
0000
,
0000
2030
0000
0000
,
0000
3002
0000
0000
,
0000
0003
0000
0000
0000
0000
0000
0000
;

//---------------dance-single - ----------------
#NOTES:
     dance-single:
     :
     Hard:
     6:
     0.309,0.349,0.116,0.116,0.000:
0000
0000
0000
0000
,
0000
0000
0000
0000
,
0000
0000
0000
0000
,
0000
0000
0000
0000
,
0010
0000
1000
0000
0001
0000
0100
0010
,
0100
0001
1000
0010
,
1000
0000
0010
0100
0010
1000
0001
0000
,
1000
0001
0010
0100
,
1000
0000
0010
0000
0100
0000
0001
1000
,
0001
1000
0010
0100
,
0001
0000
1000
0001
1000
0010
0100
0000
,
0010
1000
0001
0010
,
0001
0001
0100
0000
0001
0000
1000
0000
,
0010
0010
1000
0000
0001
0000
0010
0000
,
0100
1000
0100
0000
1000
0010
1000
0000
,
0001
1000
0001
0000
0100
0001
0100
0000
,
0010
0010
0100
0000
0001
0000
1000
0000
,
0100
0100
1000
0000
0010
0000
1000
0000
,
0001
1000
0001
0000
1000
0100
1000
0000
,
0010
1000
0010
0000
1000
0001
1000
0000
,
0010
0000
0102
0000
0103
0000
0001
1000
,
0001
0000
1020
0000
1030
0000
0100
1000
,
0100
1000
0010
0100
,
0001
1000
0001
0010
,
0100
0000
2100
0000
3100
0000
1000
0001
,
1000
0000
0210
0000
0310
0000
0001
0100
,
0001
1000
0001
0010
,
0001
1000
0010
0100
,
0010
0000
1010
0101
,
0001
1000
0001
1000
0001
0000
1000
0000
,
0010
0000
1000
0000
0001
0000
0010
0001
,
0100
0000
0010
0000
0100
0000
0001
1000
,
0001
0000
1002
0000
1003
0000
0100
1000
,
0100
0000
2010
0000
3010
0000
0100
0010
,
0100
0001
0100
0010
,
0100
0000
0001
0000
1000
0000
0100
1000
,
0100
0000
1010
0101
,
0001
1000
0001
1000
0001
0000
1000
0000
,
0010
0000
0100
0001
1000
0000
0010
0000
,
1000
0000
0001
0000
0100
0000
0001
1000
,
0001
0000
2001
0000
3001
0000
0100
0010
,
0100
0000
0201
0000
0301
0000
0010
1000
,
0010
1000
0001
0100
,
0010
0000
1000
0100
1000
0000
0010
0100
,
0001
2000
0000
0000
,
0000
3002
0000
0000
,
0000
0203
0000
0000
,
0000
0320
0000
0000
,
0000
0030
0000
0000
0000
0000
0000
0000
;

//---------------dance-single - ----------------
#NOTES:
     dance-single:
     :
     Easy:
     2:
     0.144,0.186,0.048,0.039,0.000:
0000
0000
0000
0000
,
0000
0000
0000
0000
,
0000
0000
0000
0000
,
0000
0000
0000
0000
,
0010
0000
0010
0000
,
1000
0000
1000
0000
,
0100
0000
0100
0000
,
1000
0000
1000
0000
,
0001
0000
0001
0000
,
0010
0000
0010
0000
,
0001
0000
0001
0000
,
0100
0000
0100
0000
,
0001
0001
0000
0000
,
1000
1000
0000
0000
,
0010
0010
0000
0000
,
0100
0100
0000
0000
,
0001
0100
0000
0000
,
0001
1000
0000
0000
,
0010
1000
0000
0000
,
0100
0010
0000
0000
,
1001
0100
0100
0000
,
0000
0010
0010
0000
,
0000
1000
0100
1000
,
0000
0001
0100
0001
,
0000
0010
0010
0000
,
0000
0001
0001
0000
,
0000
0100
0010
0100
,
0000
0001
1000
0001
,
0000
0000
1000
1000
,
0000
0001
0001
0000
,
0000
0100
0010
0100
,
0000
0001
0100
0001
,
0000
1000
1000
0000
,
0000
0010
0010
0000
,
0000
1000
0100
1000
,
0000
0010
0100
0010
,
0000
0000
0100
0100
,
0000
0001
0001
0000
,
0000
0010
1000
0010
,
0000
1000
0100
1000
,
0000
0010
0010
0000
,
0000
1000
1000
0000
,
0000
1001
1001
0000
,
0000
0110
0110
0000
,
0000
0002
0000
0000
,
0003
0200
0000
0000
,
0300
0020
0000
0000
,
0030
2000
0000
0000
,
3000
0000
0000
0000
;

//---------------dance-single - ----------------
#NOTES:
     dance-single:
     :
     Challenge:
     8:
     0.447,0.442,0.280,0.048,0.029: // measure 1
0000
0000
0000
0000
,  // measure 2
0000
0000
0000
0000
,  // measure 3
0000
0000
0000
0000
,  // measure 4
0000
0000
0000
0000
,  // measure 5
0001
1000
0001
1000
0010
0100
0010
0000
,  // measure 6
1000
0100
1000
0000
0001
1000
0001
0000
,  // measure 7
1000
0010
1000
0010
0100
0001
0100
0000
,  // measure 8
0010
0100
0010
0000
1000
0001
1000
0000
,  // measure 9
0001
0100
0001
0100
0001
1000
0001
0000
,  // measure 10
1000
0100
1000
0000
0010
0100
0010
0000
,  // measure 11
1000
0100
1000
0100
0010
0100
0010
0000
,  // measure 12
0001
1000
0001
0000
1000
0100
1000
0000
,  // measure 13
0101
0000
0010
0100
0010
0000
0100
0000
0001
0000
1000
0000
0100
0000
0000
0000
,  // measure 14
1000
0000
0001
1000
0001
0000
0010
0000
0100
0000
1000
0000
0001
0000
0000
0000
,  // measure 15
1000
0000
0010
0100
0010
0000
1000
0000
0100
0000
1000
0000
0001
0000
0000
0000
,  // measure 16
0010
0001
1000
0000
0010
1000
0001
0000
,  // measure 17
1000
0000
0010
0100
0010
0000
1000
0000
0001
0000
0010
0000
0100
0000
0000
0000
,  // measure 18
0010
0000
0001
1000
0001
0000
0100
0000
0010
0000
0100
0000
0001
0000
0000
0000
,  // measure 19
1000
0000
0100
1000
0100
0000
0010
0000
0001
0000
1000
0000
0010
0000
0100
0000
,  // measure 20
0001
1000
0001
0000
1000
0100
1000
0000
,  // measure 21
0020
0030
0000
0000
0101
0000
0001
0000
1001
0000
0000
0000
0010
0000
1000
0000
,  // measure 22
0001
0100
0110
0010
1010
0000
0100
0010
,  // measure 23
0100
0001
0101
1000
1100
1000
0001
0100
,  // measure 24
0010
0100
0001
1000
0100
1000
0010
0100
,  // measure 25
0010
1000
1010
1000
1001
0000
0010
0001
,  // measure 26
1000
0001
0101
0100
1001
0000
1000
0100
,  // measure 27
1000
0010
0110
0100
1010
1000
0001
0010
,  // measure 28
0100
0010
0001
1000
0010
0100
0001
0010
,  // measure 29
0100
1000
0001
0000
1010
0000
0101
0000
,  // measure 30
1000
0100
1000
0100
0010
0001
1000
0001
,  // measure 31
0100
0000
0010
0100
0001
0000
0010
0100
,  // measure 32
1000
0000
0001
1000
0100
1000
0010
0100
,  // measure 33
0010
1000
1010
1000
0101
0000
0010
0001
,  // measure 34
1000
0010
0110
0100
1010
0000
0001
1000
,  // measure 35
0010
0100
0110
0100
0101
1000
0100
0010
,  // measure 36
0001
1000
0010
0100
0001
0010
0100
1000
,  // measure 37
0001
0100
0001
0000
0110
0000
1010
0000
,  // measure 38
1000
0001
0100
0010
0100
0001
0010
1000
,  // measure 39
0010
0000
0001
0010
0100
0000
0010
0001
,  // measure 40
1000
0000
0010
0100
0010
1000
0100
1000
,  // measure 41
0001
1000
1001
0001
0011
0000
1000
0010
,  // measure 42
0100
0001
0101
0100
0110
0000
1000
0010
,  // measure 43
1000
0001
1001
1000
1100
0010
0001
1000
,  // measure 44
0010
0100
0010
1000
0001
0010
0100
1000
,  // measure 45
0010
0100
0020
0000
0000
0000
0000
0000
,  // measure 46
0000
2030
0000
0000
,  // measure 47
0000
3002
0000
0000
,  // measure 48
0000
2003
0000
0000
,  // measure 49
0000
3000
0000
0000
0000
0000
0000
0000
;
