#TITLE:Welcome To Your Wedding Day;
#SUBTITLE:;
#ARTIST:The Airborne Toxic Event;
#TITLETRANSLIT:;
#SUBTITLETRANSLIT:;
#ARTISTTRANSLIT:;
#CREDIT:;
#BANNER:Welcome To Your Wedding Day-bn.png;
#BACKGROUND:Welcome To Your Wedding Day-bg.png;
#LYRICSPATH:;
#CDTITLE:;
#MUSIC:Welcome To Your Wedding Day.mp3;
#OFFSET:-6.160;
#SAMPLESTART:86.780;
#SAMPLELENGTH:18.880;
#SELECTABLE:YES;
#BPMS:0.000=142.000;
#STOPS:112.000=-0.010
,184.000=-0.010
,191.000=-0.010
,194.000=-0.010
;
#BGCHANGES:;

//---------------dance-single - ----------------
#NOTES:
     dance-single:
     :
     Beginner:
     2:
     0.125,0.193,0.063,0.000,0.000:
0010
0010
0000
0000
,
0000
0000
0000
0000
,
1000
1000
0000
0000
,
0000
0000
0000
0000
,
0001
0001
0000
0000
,
0000
0000
0000
0000
,
0010
0000
0010
0000
,
0010
0000
0000
0000
,
0001
0000
0001
0000
,
0001
0000
0000
0000
,
1000
0000
0000
0000
,
0010
0000
0000
0000
,
0100
0000
0100
0000
,
0100
0000
0000
0000
,
0010
0000
0000
0000
,
1000
0000
0000
0000
,
0001
0000
0001
0000
,
0001
0000
0000
0000
,
0100
0100
0100
0000
,
0100
0000
0100
0000
,
0010
0010
0010
0000
,
0010
0000
0000
0000
,
1000
0000
1000
0000
,
1000
0000
1000
0000
,
1000
0000
0000
0000
,
0001
0000
0001
0000
,
0001
0000
0000
0000
,
0100
0100
0100
0100
,
0100
0000
0000
0000
,
0000
0000
0000
0000
,
0010
0000
0000
0000
,
1000
0000
0000
0000
,
0001
0001
0000
0000
,
0010
0000
0000
0000
,
0100
0100
0000
0000
,
1000
0000
0000
0000
,
0010
0010
0000
0000
,
1000
0000
0000
0000
,
0100
0100
0000
0000
,
1001
0000
0000
0000
,
1000
0000
1000
0000
,
1000
0000
0000
0000
,
0001
0000
0001
0000
,
0001
0000
0000
0000
,
0010
0000
0010
0000
,
0010
0000
0000
0000
,
0100
0000
0100
0000
,
0100
0000
0000
0000
,
1001
0000
0000
0000
,
0100
0000
0100
0000
,
0100
0000
0000
0000
,
0010
0000
0000
0000
,
1000
0000
0000
0000
,
0001
0000
0001
0000
,
0001
0000
0000
0000
,
1001
0000
1001
0000
,
1001
0000
0000
0000
,
1000
0000
1000
0000
,
1000
0000
0000
0000
,
0110
0000
0110
0000
,
0110
0000
0000
0000
,
0100
0100
0100
0100
,
0100
0000
0000
0000
,
0010
0000
0000
0000
,
0010
0000
0000
0000
,
1000
0000
0000
0000
,
0001
0000
0000
0000
,
0100
0000
0000
0000
,
0100
0000
0000
0000
,
0010
0010
0010
0000
;

//---------------dance-single - ----------------
#NOTES:
     dance-single:
     :
     Medium:
     6:
     0.412,0.527,0.333,0.381,0.202:
0010
0010
0000
0000
,
0000
0000
0010
1000
,
0100
0100
0000
0000
,
0000
0000
0010
0001
,
0100
0100
0000
0000
,
0000
0000
0000
1001
,
0010
1000
0100
0010
,
0001
0000
0010
0001
0000
0000
1000
0000
0001
1000
0000
0000
,
0010
1000
0100
0010
,
0001
0000
0100
0001
0000
0000
1000
0000
0100
1000
0000
0000
,
0010
1000
0001
0000
,
0010
0001
0100
0000
,
2020
3030
0202
0303
,
2002
3003
0010
1000
,
0100
1000
0001
0000
,
0010
0001
1000
0000
,
0220
0330
0202
0303
,
2200
0000
0000
3300
0000
0000
0010
0100
0010
0100
0010
0100
,
0010
1000
0001
0000
,
0010
0001
1000
0000
,
1010
1001
0101
0000
,
1001
0100
1000
0010
,
0100
0010
1000
1001
,
0001
0101
1000
1100
,
0020
0000
0100
0130
,
0100
0000
0000
0010
0000
0000
1000
0000
0100
1000
0000
0000
,
0001
0000
0000
0010
0000
0000
0001
0000
0100
0001
0000
0000
,
1000
0000
0001
1000
0000
0000
0010
0000
1000
0010
0000
0000
,
0220
0000
0000
0000
,
0000
0000
0000
0330
,
0001
0100
0001
1000
,
0100
0000
0000
0000
0000
1000
0001
0000
0000
1000
0000
0000
,
0100
0100
1000
0010
,
0100
0000
0000
0000
0000
0010
0100
0000
0000
0001
0000
0000
,
0010
0010
0001
1000
,
0100
0000
0000
0000
0000
1000
0010
0000
0000
1000
0000
0000
,
0010
0010
0100
0001
,
1000
0000
0000
0000
0000
0001
0010
0000
0000
0001
0000
0000
,
1000
1000
0100
0010
,
0002
0100
0100
0203
,
0310
1000
0001
0100
,
0010
0000
0000
1000
0000
0100
1000
0000
0000
1100
0000
0000
,
2001
3010
0100
0001
,
1000
0000
0000
0001
0000
0010
0001
0000
0000
0011
0000
0000
,
0102
0013
0100
0001
,
1000
0000
0000
0010
0000
0100
0010
0000
0000
0110
0000
0000
,
2010
3001
1001
0100
,
0010
0100
0010
0100
0000
0000
0001
1000
0001
1000
0000
0000
,
0100
1000
2100
0000
,
3010
0100
0210
0000
,
0301
0010
0012
0010
,
0103
0000
0100
0010
0000
0000
1000
0000
1000
0100
0000
0000
,
0010
0001
0011
1001
,
1100
0000
1010
0110
,
2002
0000
0000
3003
,
0010
0000
0010
0000
0010
0000
0100
0000
0100
0000
0100
0000
,
0100
0000
0110
0101
,
1100
0000
1010
1001
,
0202
0000
0000
0303
,
1000
0000
1000
0000
1000
0000
0001
0000
0001
0000
0001
0000
,
0001
0000
0110
0101
,
1100
0000
1010
1001
,
0020
0230
0302
2003
,
3100
1000
0100
2000
0000
0000
3001
0100
0001
0200
0000
0000
,
0320
2030
3002
0203
,
0310
0100
0010
0100
0010
0100
0020
0000
0000
0000
0000
0000
,
0230
0000
0000
0302
0000
0000
1003
0100
1000
0200
0000
0000
,
2300
3020
0230
0320
,
0130
0001
0100
0002
0000
0000
1003
0100
1000
0200
0000
0000
,
0310
0001
0010
0001
0010
0001
0020
0000
0000
0000
0000
0000
,
0030
0000
0000
0000
;

//---------------dance-single - ----------------
#NOTES:
     dance-single:
     :
     Hard:
     9:
     0.595,0.694,0.389,0.198,0.765: // measure 1
0101
1100
0000
0000
,  // measure 2
0000
0000
0000
0000
0000
0100
0020
0000
0000
0031
0000
0000
,  // measure 3
0011
0101
0000
0000
,  // measure 4
0000
0000
0000
0000
0000
0010
2000
0000
0000
3100
0000
0000
,  // measure 5
1100
0011
1000
0001
,  // measure 6
0100
0000
0010
1000
0000
0001
0100
0000
0000
0110
0000
0000
,  // measure 7
0001
0000
0001
0100
0000
0100
0010
0000
0010
1000
0000
1000
,  // measure 8
0100
0010
0100
0010
0000
0010
0001
0000
0000
0101
0000
0000
,  // measure 9
0110
0000
0010
1000
0000
1000
0001
0000
0001
0010
0000
0010
,  // measure 10
0001
0100
0001
0100
0000
0100
0010
0000
0000
0101
0000
0000
,  // measure 11
0001
0000
0001
0100
0000
0000
0010
0000
0000
0100
0000
0001
,  // measure 12
1000
0000
0000
0100
0000
1000
0010
0000
1000
0001
0000
0000
,  // measure 13
0120
0000
0000
1030
0000
0000
0101
0000
0000
1010
0000
1001
,  // measure 14
0000
0000
0000
0110
0000
0001
0100
0000
1000
0100
0000
0001
,  // measure 15
0100
0000
0000
0010
0000
1000
0001
0000
0000
1000
0000
0100
,  // measure 16
1000
0000
1000
0010
0000
0100
0001
0000
0001
0100
0000
0000
,  // measure 17
0210
0000
0000
0301
0000
0000
0101
0000
0000
1100
0000
1001
,  // measure 18
0000
0000
0000
0110
0000
0000
0001
0100
0001
1000
0100
1000
,  // measure 19
0001
0000
0100
0010
0000
0100
0001
0000
0000
1000
0000
0100
,  // measure 20
1000
0000
0001
0100
0000
0010
1000
0000
0000
0010
0000
1000
,  // measure 21
0100
0000
0000
0001
0000
0100
0010
0000
0000
1000
0000
0001
,  // measure 22
0100
0000
0000
0001
0000
0010
0100
0000
0100
1000
0000
1000
,  // measure 23
0010
0000
0000
1000
0000
0001
0100
0000
0100
0010
0000
0010
,  // measure 24
1000
0000
1000
0001
0000
0001
1000
0000
1000
0100
0000
0100
,  // measure 25
0020
0001
0100
1000
,  // measure 26
0001
1000
0130
0101
,  // measure 27
0010
0000
0010
0100
0000
0100
0001
0000
0001
1000
0000
1000
,  // measure 28
0100
0000
0100
0010
0000
0010
0001
0000
0000
0101
0000
0000
,  // measure 29
2002
0000
0000
0000
,  // measure 30
0000
0000
0000
3003
,  // measure 31
0010
0000
0000
1000
0000
0000
0001
0000
0000
0100
0010
0100
,  // measure 32
0010
0000
0000
0100
0000
0001
2000
0000
0000
3100
0000
0000
,  // measure 33
1100
0000
0000
0101
0000
0000
0010
0000
0000
1000
0001
1000
,  // measure 34
0001
0000
0000
0010
0000
0001
0200
0000
0000
0310
0000
0000
,  // measure 35
1010
0000
0000
0101
0000
0000
1000
0000
0000
0010
1000
0010
,  // measure 36
1000
0000
0000
0001
0000
0010
0002
0000
0000
0103
0000
0000
,  // measure 37
0101
0000
0000
0110
0000
0000
0010
0000
0000
1000
0001
1000
,  // measure 38
0001
0000
0000
1000
0000
0100
0020
0000
0000
0031
0000
0000
,  // measure 39
0011
0000
0000
1100
0000
0000
0010
0000
0000
1000
0001
1000
,  // measure 40
0002
0100
0100
0103
,  // measure 41
0010
0000
0000
1000
0001
1000
0100
0000
0000
0010
0000
1000
,  // measure 42
0100
0000
0100
1000
0000
0001
0200
0000
0000
0320
0000
0000
,  // measure 43
2030
0000
0000
3001
1000
0001
0100
0000
0000
0010
0000
0001
,  // measure 44
0100
0000
0100
0010
0000
0100
0002
0000
0000
2003
0000
0000
,  // measure 45
3200
0000
0000
0310
0001
1000
0100
0000
0000
0010
0000
0100
,  // measure 46
0001
0000
0001
0010
0000
0100
2000
0000
0000
3002
0000
0000
,  // measure 47
0103
0101
1000
1010
,  // measure 48
0001
0100
0001
0100
0000
1000
0100
1000
0100
1000
0010
0100
,  // measure 49
1000
0000
0100
0010
0000
0010
1000
0000
0000
0001
0000
0010
,  // measure 50
0001
0000
1000
0010
0000
0100
0001
0000
0000
0100
0001
0100
,  // measure 51
0010
0000
0000
1000
0010
1000
0100
0000
0000
0010
0001
1000
,  // measure 52
0010
0000
0000
1000
0000
0100
0010
0000
0010
0001
0000
0001
,  // measure 53
0100
0000
0000
0001
0000
1000
0010
0000
0010
0100
0000
0100
,  // measure 54
0001
0000
0001
1000
0000
1000
0001
0000
0001
0010
0000
0010
,  // measure 55
0200
1000
0010
0301
,  // measure 56
1010
0000
0101
0000
1010
0000
0110
0000
0011
0000
1010
0000
,  // measure 57
1001
0000
0100
0010
0000
0010
1000
0000
1000
0001
0000
0001
,  // measure 58
0010
0000
0010
0100
0000
0100
1000
0000
0000
1010
0000
0000
,  // measure 59
2002
3000
0000
0000
0000
0000
0000
0000
0000
0000
0000
0000
0000
0000
0000
0000
0000
0000
0000
0000
0000
0000
0000
0000
0000
0000
0000
0000
0000
0000
0000
0000
0000
0000
0000
0000
0000
0000
0000
0000
0000
0000
0000
0000
0000
0000
0000
0000
0100
0000
0000
0000
0000
0000
0000
0000
0000
0000
0000
0000
0000
0000
0000
0000
0000
0000
0000
0000
0000
0000
0000
0000
0000
0000
0000
0000
0000
0000
0000
0000
0000
0000
0000
0000
0000
0000
0000
0000
0000
0000
0000
0000
0000
0000
0000
0000
0010
0000
0000
0000
0000
0000
0000
0000
0000
0000
0000
0000
0000
0000
0000
0000
0000
0000
0000
0000
0000
0000
0000
0000
0000
0000
0000
0000
0000
0000
0000
0000
0000
0000
0000
0000
0000
0000
0000
0000
0000
0000
0000
0000
0000
0000
0000
0000
0100
0000
0000
0000
0000
0000
0000
0000
0000
0000
0000
0000
0000
0000
0000
0000
0003
0000
0000
0000
0000
0000
0000
0000
0000
0000
0000
0000
0000
0000
0000
0000
0000
0000
0000
0000
0000
0000
0000
0000
0000
0000
0000
0000
0000
0000
0000
0000
,  // measure 60
0110
0000
0101
0000
1100
0000
0011
0000
1010
0000
1001
0000
,  // measure 61
0110
0000
0100
0001
0000
1000
0100
0000
0000
0010
0000
0100
,  // measure 62
0001
0000
0010
0100
0000
0100
1000
0000
1000
0010
0000
0000
,  // measure 63
1000
0100
1000
0001
0100
0001
0010
0100
0010
0001
0010
0001
,  // measure 64
1000
0100
1000
0001
0100
0001
1000
0100
1000
0010
0100
0010
,  // measure 65
1000
0100
1000
0001
0100
0001
0010
0100
0010
0001
1000
0001
,  // measure 66
1000
0010
0100
0001
0010
0100
2000
0000
0000
0010
0000
0000
,  // measure 67
3010
0100
0010
1000
0100
1000
0001
0100
0001
1000
0010
1000
,  // measure 68
0001
0010
0001
0100
0010
0100
0001
0100
0001
1000
0100
1000
,  // measure 69
0001
0010
0001
1000
0010
1000
0001
0100
0001
1000
0100
1000
,  // measure 70
0001
0010
0100
1000
0010
0100
0002
0000
0000
0000
0000
0000
,  // measure 71
0003
0000
0000
0000
;

//---------------dance-single - ----------------
#NOTES:
     dance-single:
     :
     Easy:
     3:
     0.229,0.250,0.056,0.063,0.000:
0010
0010
0000
0000
,
0000
0000
0000
0000
,
0100
0100
0000
0000
,
0000
0000
0000
0000
,
0001
0001
0000
0000
,
0000
0000
0000
1000
,
0010
0000
1000
0000
,
0100
0100
0100
0000
,
1000
0000
0010
0000
,
0100
0100
0100
0000
,
0001
0000
0010
0000
,
0001
0000
1000
0000
,
1001
0000
1001
0000
,
0110
0000
0000
0000
,
0010
0000
1000
0000
,
0001
0000
1000
0000
,
1100
0000
1100
0000
,
0011
0000
0000
0000
,
0100
0010
1000
0100
,
1000
0001
0100
0000
,
0010
0100
0001
1000
,
0100
1000
0001
0000
,
0010
0001
0100
0010
,
0100
0001
1000
0100
,
0020
0000
0000
0000
,
0031
0001
1000
1000
,
0010
0000
1000
0001
,
0100
0010
1000
0001
,
0020
0000
0000
0000
,
0030
0000
0000
0000
,
0001
0000
0100
0000
,
0010
0000
1000
0100
,
1000
1000
0010
0000
,
1000
0000
0010
0100
,
0001
0001
0100
0000
,
0010
0000
0100
0001
,
1000
1000
0100
0000
,
1000
0000
0010
0100
,
0010
0010
1000
0000
,
0110
0000
0000
0000
,
0001
0000
0100
0000
,
1000
0100
0001
0100
,
1000
0000
0100
0000
,
0001
0100
1000
0100
,
0001
0000
0100
0000
,
1000
0100
0001
0100
,
2000
0000
0000
0000
,
3020
0000
0000
0000
,
0130
0000
0010
0000
,
1000
0100
1000
0000
,
0001
1000
0010
0100
,
0001
0000
0100
0100
,
0100
0000
0010
1000
,
0001
0010
0001
1000
,
0200
0000
0000
0000
,
0310
0010
0010
0010
,
0010
0000
0001
1000
,
0010
0100
0001
1000
,
0200
0000
0000
0000
,
0310
0010
0010
0010
,
0001
1000
0100
1000
,
0010
0100
0010
1000
,
0100
0100
1000
1000
,
0001
0001
0010
0010
,
0001
0001
0100
0100
,
0010
1000
0200
0000
,
0310
0010
0001
0001
,
1000
1000
0010
0010
,
1000
0100
0010
0001
,
0100
0001
2000
0000
,
3000
0000
0000
0000
;
