#TITLE:Vanilla;
#SUBTITLE:;
#ARTIST:Gackt;
#TITLETRANSLIT:;
#SUBTITLETRANSLIT:;
#ARTISTTRANSLIT:;
#CREDIT:;
#BANNER:Vanilla-bn.png;
#BACKGROUND:Vanilla-bg.png;
#LYRICSPATH:;
#CDTITLE:;
#MUSIC:Vanilla.mp3;
#OFFSET:-0.080;
#SAMPLESTART:54.007;
#SAMPLELENGTH:16.160;
#SELECTABLE:YES;
#BPMS:0.000=178.000;
#STOPS:;
#BGCHANGES:;

//---------------dance-single - ----------------
#NOTES:
     dance-single:
     :
     Beginner:
     2:
     0.134,0.176,0.061,0.000,0.000: // measure 1
0000
0000
0000
0000
,  // measure 2
0000
0000
0000
0000
,  // measure 3
0001
0000
0000
0000
,  // measure 4
0100
0000
0000
0000
,  // measure 5
0001
0000
0000
0000
,  // measure 6
1000
0000
0000
0000
,  // measure 7
0010
0000
0000
0000
,  // measure 8
1000
0000
0000
0000
,  // measure 9
0100
0000
0000
0000
,  // measure 10
0010
0000
0000
0000
,  // measure 11
0001
0001
0000
0000
,  // measure 12
0001
0000
0000
0000
,  // measure 13
0100
0100
0000
0000
,  // measure 14
0100
0000
0000
0000
,  // measure 15
0010
0010
0000
0000
,  // measure 16
0010
0000
0000
0000
,  // measure 17
0100
0100
0000
0000
,  // measure 18
0100
0000
0000
0000
,  // measure 19
1001
0000
0000
0000
,  // measure 20
0000
0000
0000
0000
,  // measure 21
0110
0000
0000
0000
,  // measure 22
0000
0000
0000
0000
,  // measure 23
1000
1000
0000
0000
,  // measure 24
1000
0000
0000
0000
,  // measure 25
0100
0100
0000
0000
,  // measure 26
0100
0000
0000
0000
,  // measure 27
1000
1000
0000
0000
,  // measure 28
1000
0000
0000
0000
,  // measure 29
0001
0001
0000
0000
,  // measure 30
0001
0000
0000
0000
,  // measure 31
1001
0000
0000
0000
,  // measure 32
0100
0000
0000
0000
,  // measure 33
0010
0000
0000
0000
,  // measure 34
1000
0000
0000
0000
,  // measure 35
0001
0000
0000
0000
,  // measure 36
1000
0000
0000
0000
,  // measure 37
0100
0000
0100
0000
,  // measure 38
0100
0000
0100
0000
,  // measure 39
0100
0000
0000
0000
,  // measure 40
1001
0000
0000
0000
,  // measure 41
0010
0010
0010
0000
,  // measure 42
0000
0000
0000
0000
,  // measure 43
0001
0001
0001
0000
,  // measure 44
0000
0000
0000
0000
,  // measure 45
1000
1000
1000
0000
,  // measure 46
0000
0000
0000
0000
,  // measure 47
0100
0100
0100
0000
,  // measure 48
0000
0000
0000
0000
,  // measure 49
0010
0010
0010
0000
,  // measure 50
0000
0000
0000
0000
,  // measure 51
1000
1000
1000
0000
,  // measure 52
0000
0000
0000
0000
,  // measure 53
0001
0001
0001
0000
,  // measure 54
0000
0000
0000
0000
,  // measure 55
0100
0100
0100
0000
,  // measure 56
0000
0000
0000
0000
,  // measure 57
1001
0000
0000
0000
,  // measure 58
0010
0000
0000
0000
,  // measure 59
0010
0000
0000
0000
,  // measure 60
1000
0000
0000
0000
,  // measure 61
1000
0000
0000
0000
,  // measure 62
0001
0000
0000
0000
,  // measure 63
0001
0000
0000
0000
,  // measure 64
0100
0000
0000
0000
,  // measure 65
0100
0000
0000
0000
,  // measure 66
0010
0010
0000
0000
,  // measure 67
0010
0000
0000
0000
,  // measure 68
1000
1000
0000
0000
,  // measure 69
1000
0000
0000
0000
,  // measure 70
0001
0001
0000
0000
,  // measure 71
0001
0000
0000
0000
,  // measure 72
0100
0100
0000
0000
,  // measure 73
0100
0000
0000
0000
,  // measure 74
0010
0000
0000
0000
,  // measure 75
1000
0000
0000
0000
,  // measure 76
0001
0000
0000
0000
,  // measure 77
1001
0000
0000
0000
,  // measure 78
0100
0000
0000
0000
,  // measure 79
0010
0000
0000
0000
,  // measure 80
1000
0000
1000
0000
,  // measure 81
1000
0000
0000
0000
,  // measure 82
1001
0000
0000
0000
;

//---------------dance-single - ----------------
#NOTES:
     dance-single:
     :
     Medium:
     6:
     0.419,0.460,0.078,0.173,0.009:
0000
0000
0000
0000
,
0000
0000
0000
0000
,
0010
1000
0100
1000
,
0010
0100
0010
0000
0100
0001
0000
1000
,
0100
0000
1000
0001
0000
0000
0000
0000
,
0100
0010
0100
0001
,
1000
0001
0100
0010
,
1000
0001
1000
0000
0010
0100
0000
0001
,
0100
0000
0010
1000
0000
0000
0000
0000
,
0001
0000
1000
0000
0010
0100
0010
0000
,
0000
1000
0000
0001
0000
0010
0000
0001
,
0000
0100
0000
0010
0000
1000
0000
0100
,
0000
1000
0000
1000
0000
0010
0000
0100
,
0000
0001
0000
0001
0000
1000
0000
0001
,
0000
0010
0000
0100
0000
1000
0000
0010
,
0000
0100
0000
0010
0000
1000
0000
0001
,
0000
0100
0000
0100
0000
0010
0000
1000
,
0000
0010
0000
0010
0000
1000
0000
0001
,
0200
0000
0000
0000
,
0000
0000
0000
0000
,
0310
1000
0001
0010
,
0001
0100
0001
0000
1000
0010
1000
0000
,
0000
0001
0000
1000
0000
0010
0000
0100
,
0000
0001
0000
0010
0000
0001
0000
1000
,
0000
0001
0000
0001
0000
1000
0000
1000
,
0000
0010
0000
0010
0000
1000
0000
1000
,
0000
0100
0000
1000
0000
0010
0000
0100
,
0000
0010
0000
1000
0000
0001
0000
0010
,
0000
0001
0000
0001
0000
1000
0000
1000
,
0020
0000
0230
0000
,
0302
0000
0100
0000
,
1003
0010
1000
0001
,
0010
0000
0001
0000
0100
0001
0100
0000
,
1000
0100
1000
0000
0010
1000
0010
0000
,
0100
0100
0010
0010
,
1000
0100
0010
0001
,
0100
0000
0010
0000
1000
0001
1000
0000
,
2002
3003
0220
0330
,
0000
0001
0100
0000
0010
1000
0000
1001
,
0000
0110
0000
0000
1001
0000
0000
0000
,
0010
0000
0010
1000
0000
1000
0100
0000
,
0010
0000
0010
0001
0000
0001
0100
0000
,
0010
1000
0100
0000
1000
0000
0010
0000
,
0100
0001
0010
0000
0100
0000
1000
0000
,
0010
0000
0010
1000
0000
1000
0001
0000
,
0010
0000
0010
0001
0000
0001
0100
0000
,
0010
1000
0100
0000
1000
0000
0001
0000
,
0010
0001
0100
0000
0010
0000
1000
0000
,
0100
0000
0100
1000
0000
1000
0001
0000
,
0010
0000
0010
0001
0000
0001
0100
0000
,
0010
0100
0001
0000
0100
0000
0010
0000
,
1000
0100
1000
0000
0001
0000
1000
0000
,
0010
0000
0010
1000
0000
1000
0001
0000
,
1000
0000
1000
0001
0000
0001
0010
0000
,
0001
0010
0001
0000
0100
0000
0010
0000
,
1000
0100
0010
0000
0001
0000
1000
0000
,
2002
0000
0000
0000
,
3003
0010
0100
0000
0001
0100
0000
0010
,
1000
0000
0100
1000
0000
0000
0000
0000
,
0010
1000
0001
0100
,
0202
0000
0000
0000
,
0303
0010
1000
0000
0100
0010
0000
0001
,
1000
0000
0010
0100
0000
0000
0000
0000
,
0000
0001
0100
0001
1000
0100
1000
0001
,
0000
0000
0000
0000
,
0000
0010
0000
1000
0000
0001
0000
0010
,
0000
0001
0000
1000
0000
0010
0000
0010
,
0000
1000
0000
1000
0000
0100
0000
0100
,
0000
1000
0000
0001
0000
0100
0000
0010
,
0000
0100
0000
0001
0000
1000
0000
0100
,
0000
0010
0000
0001
0000
0100
0000
0010
,
2000
0000
3002
0000
,
0203
0000
0000
0000
,
0310
0100
0001
1000
,
0020
0000
2030
0000
,
3002
0000
0203
0000
,
0302
0000
0000
0000
,
0003
0000
0000
0000
,
1000
0010
1000
0000
0001
0100
0001
0000
,
0000
0010
0100
0000
0001
1000
0000
0110
,
0000
0000
1000
0000
0000
0010
0000
0000
0001
0000
0000
1000
0000
0000
0010
0000
,
0000
0000
0000
0000
0000
0101
0000
0000
;

//---------------dance-single - ----------------
#NOTES:
     dance-single:
     :
     Hard:
     8:
     0.669,0.672,0.434,0.425,0.022:
0000
0000
0000
0000
,
0000
0000
0000
0000
,
0210
0010
0010
0010
,
0310
0100
0001
0000
1000
0010
0000
1000
,
0001
0010
1000
0010
0001
0100
0001
0000
,
0000
1000
0100
1000
0001
0010
0100
1000
,
2100
0100
0100
0100
,
3100
1000
0001
0000
0100
0010
0000
0100
,
0001
0100
0010
1000
0001
0010
0001
0000
,
0000
0100
0010
1000
0100
1000
0001
0100
,
0001
0010
0000
0001
0000
0100
0010
0100
,
0001
1000
0000
0001
0000
0100
0010
1000
,
0100
0010
0000
0001
0000
1000
0001
1000
,
0010
0100
0010
0010
0000
1000
0100
1000
,
0100
0010
0000
0001
0000
1000
0001
1000
,
0010
0000
0000
0100
0000
0000
0010
0000
0000
0000
1000
0000
0100
0000
0001
0000
,
0100
1000
0010
0100
0010
1000
0100
0010
,
0001
1000
0001
0100
0010
0100
0001
0000
,
2020
0000
0000
0000
,
0000
0000
0000
3030
,
0001
0100
0000
0220
0000
0000
0300
0000
,
0130
0001
0100
0000
0010
0000
0100
0000
0010
0000
1000
0000
0100
0000
0110
0000
,
0010
0001
0000
1000
0010
0100
0010
1000
,
0100
0010
0000
0001
0000
0100
0010
0100
,
0001
0100
0010
1000
0001
1000
0100
1000
,
0001
0100
0000
0010
0000
1000
0000
0001
,
0010
0001
0100
0000
0010
1000
0100
0001
,
0100
0010
0001
0100
0000
0010
1000
0001
,
0010
0001
0100
0001
1000
0100
0010
0000
,
0202
0303
2002
3003
,
2010
0000
0000
0010
0010
0000
3001
0000
,
0100
0010
0100
0001
0100
1000
0100
0010
,
0200
0301
0012
1003
,
2100
3010
0201
0310
,
0001
1000
0010
0100
0000
0000
0110
0000
,
1000
0100
1000
0001
0100
0001
1000
0010
,
0200
0000
0320
0000
1030
0100
1000
0100
,
1100
0101
1010
1001
,
0010
0100
0100
0010
1000
1000
0100
0010
,
0001
0100
0000
0000
2020
0000
3030
0000
,
2002
0000
3003
0110
0000
0101
0000
1010
,
0000
1001
0000
0100
0010
0100
0001
1000
,
2010
0000
0000
3001
0000
0010
0001
0100
,
0102
0000
0000
1003
0000
0110
0000
0110
,
0000
0100
0001
1000
0010
0100
0010
1000
,
0100
0020
0000
0000
0000
0030
0000
0000
,
0201
0000
0000
0310
0000
0100
0001
0010
,
0120
0000
0000
0031
0000
1000
0001
0100
,
0010
1000
0100
1000
0001
0100
0010
2000
,
0000
0002
0000
3003
0000
0100
0010
0100
,
0001
0100
0000
0202
0000
0303
0000
1000
,
0100
1000
0000
1100
0000
1001
0000
0011
,
0001
0100
0010
1000
0100
1000
0010
0100
,
0010
1000
0000
0001
0010
0001
0100
1000
,
0100
0001
0000
0022
0000
0033
0000
0001
,
0010
1000
0000
1020
0000
0130
0010
0100
,
2000
0100
0100
0100
,
3100
1000
0001
0000
0100
0010
0000
1000
,
0100
1000
0001
0100
0001
1000
0100
0000
,
0000
1000
0001
0100
0010
0100
0001
1000
,
0020
0100
0100
0100
,
0130
0001
1000
0000
0100
1000
0000
0010
,
1000
0001
0100
1000
0100
0010
1000
0000
,
0000
0010
0110
0000
0101
0000
1010
1001
,
0000
0000
0000
0000
0000
0000
0000
0000
0010
0000
0001
0100
0001
0000
0100
0000
,
0010
1000
0001
0100
0000
0010
1000
0010
,
0100
0001
1000
0100
0000
1000
0010
1000
,
0100
0001
0100
0010
0000
0000
0000
0001
,
0100
0010
1000
0100
1000
0001
0010
0001
,
0100
0010
1000
0100
0000
1000
0010
0100
,
0010
1000
0100
0010
0001
0100
1000
0100
,
0102
1003
0210
0301
,
0202
0000
0000
0000
0303
0000
0010
1000
,
0100
1000
0001
0010
0001
0100
0010
1000
,
0200
1300
0020
0130
,
0002
0013
2000
3100
,
2002
0000
0000
3003
,
0010
0100
0010
1000
0100
0010
0001
0100
,
0220
0330
2020
3030
,
0001
0100
0100
0010
1000
1000
0100
0010
,
0000
0000
0101
0000
0000
1001
0000
0000
1010
0000
0000
0101
0000
0000
0110
0000
,
0000
0000
0000
0000
0000
1001
0000
0000
;

//---------------dance-single - ----------------
#NOTES:
     dance-single:
     :
     Easy:
     4:
     0.348,0.496,0.095,0.598,0.000:
0000
0000
0000
0000
,
0000
0000
0000
0000
,
0010
0000
1000
0000
,
0001
0000
1000
0000
,
0100
0100
0100
0000
,
1000
0001
0100
0010
,
1000
0000
0001
0000
,
1000
0000
0100
0000
,
0010
0010
0010
0000
,
0001
0100
0001
1000
,
0020
0030
2000
3000
,
0002
0003
2000
3000
,
0200
0300
2000
3000
,
0002
0003
2000
3000
,
2002
3003
0020
0030
,
0200
0300
0002
0003
,
0020
0030
0002
0003
,
2000
3000
0220
0330
,
0001
0100
0001
1000
,
0100
0010
0001
1000
,
1001
0000
0000
0000
,
0010
1000
0100
0000
,
2000
3000
0002
0003
,
0020
0030
0002
0003
,
0200
0300
0020
0030
,
0220
0330
2002
3003
,
0200
0300
2000
3000
,
0002
0003
0020
0030
,
0002
0003
0200
0300
,
2020
3030
2002
3003
,
0202
0000
0000
0303
,
0010
1000
0001
0000
,
1000
0100
0010
0001
,
1000
0010
0100
0001
,
0002
0000
0000
0000
,
2003
0000
0000
0000
,
3200
0000
0000
0000
,
0320
0000
0000
0000
,
0032
0000
2003
0000
,
3001
0000
0110
0000
,
0001
1000
0001
0000
,
1000
0100
1000
0000
,
0010
0100
0010
1000
,
0100
0010
0001
0000
,
0100
0001
0100
0000
,
0010
1000
0010
0000
,
1000
0001
1000
0010
,
1000
0001
0100
0000
,
0010
0100
0001
0000
,
0010
0001
0100
0000
,
0010
1000
0100
1000
,
0001
0100
1000
0010
,
0010
0000
1000
0000
,
0001
1000
0100
0000
,
1000
0100
1000
0001
,
0010
0001
0100
0010
,
2000
0000
0000
0000
,
3001
1000
0010
0100
,
0001
0010
0100
0000
,
1000
0010
0100
0010
,
0200
0000
0000
0000
,
0301
0010
0001
1000
,
0010
0100
0001
0000
,
0010
0001
1000
0010
,
0000
0000
0000
0000
,
0200
0300
0002
0003
,
2000
3000
0200
0300
,
2000
3000
0020
0030
,
2002
3003
0202
0303
,
0020
0030
2000
3000
,
0002
0003
2000
3000
,
0200
0000
2300
0000
,
3020
0000
0000
0000
,
0130
0001
1000
0000
,
0100
1000
0001
1000
,
0010
0100
0001
0010
,
0200
0000
0000
0000
,
0310
0001
1000
0000
,
0001
1000
0010
0100
,
0002
0000
2003
0000
,
3020
0000
0000
0000
,
0000
0000
0000
0000
0000
0130
0000
0000
;
