#TITLE:Unhappy Refrain;
#SUBTITLE:;
#ARTIST:初音ミク;
#TITLETRANSLIT:;
#SUBTITLETRANSLIT:;
#ARTISTTRANSLIT:Hatsune Miku;
#CREDIT:;
#BANNER:Unhappy Refrain-bn.png;
#BACKGROUND:Unhappy Refrain-bg.png;
#LYRICSPATH:;
#CDTITLE:;
#MUSIC:Unhappy Refrain.mp3;
#OFFSET:-0.240;
#SAMPLESTART:93.987;
#SAMPLELENGTH:15.160;
#SELECTABLE:YES;
#BPMS:0.000=205.000,32.000=410.000,845.000=205.000;
#STOPS:95.000=0.120
,592.000=0.160
,593.000=0.160
,594.000=0.080
,594.500=0.140
,595.500=0.140
,596.500=0.080
,597.000=0.060
,597.500=0.080
,598.000=0.440
,727.000=0.080
,727.500=0.210
,728.000=0.080
,728.500=0.080
,729.000=0.210
,729.500=0.080
,730.000=0.080
,730.500=0.210
,731.000=0.080
,731.500=0.080
,732.000=0.290
;
#BGCHANGES:-1.100=Unhappy Refrain.avi=1.000=1=0=0,
99999=-nosongbg-=1.000=0=0=0 // don't automatically add -songbackground-
;

//---------------dance-single - ----------------
#NOTES:
     dance-single:
     :
     Beginner:
     3:
     0.129,0.308,0.050,0.000,0.000:
0000
0000
0000
0000
,
0000
0000
0000
0000
,
0000
0000
0000
0000
,
0000
0000
0000
0000
,
0010
0000
0000
0000
,
1000
0000
0000
0000
,
0001
0000
0000
0000
,
1000
0000
0000
0000
,
0100
0000
0000
0000
,
0000
0000
0000
0000
,
1000
0000
0000
0000
,
0000
0000
0000
0000
,
0010
0000
0000
0000
,
0000
0000
0000
0000
,
0100
0000
0000
0000
,
0000
0000
0000
0000
,
0001
0000
0000
0000
,
0000
0000
0000
0000
,
1000
0000
0000
0000
,
0000
0000
0000
0000
,
0010
0000
0000
0000
,
0000
0000
0000
0000
,
1000
0000
0000
0000
,
0000
0000
0000
0000
,
0000
0000
0000
0000
,
0000
0000
0000
0000
,
0010
0000
0000
0000
,
0000
0000
0000
0000
,
1000
0000
0000
0000
,
0000
0000
0000
0000
,
0100
0000
0000
0000
,
0000
0000
0000
0000
,
1000
0000
0000
0000
,
0000
0000
0000
0000
,
0001
0000
0000
0000
,
0000
0000
0000
0000
,
0010
0000
0000
0000
,
0000
0000
0000
0000
,
0001
0000
0000
0000
,
0000
0000
0000
0000
,
0100
0000
0000
0000
,
0100
0000
0000
0000
,
0100
0000
0000
0000
,
0000
0000
0000
0000
,
0010
0000
0000
0000
,
0010
0000
0000
0000
,
0010
0000
0000
0000
,
0000
0000
0000
0000
,
1000
0000
0000
0000
,
1000
0000
0000
0000
,
1000
0000
0000
0000
,
0000
0000
0000
0000
,
0001
0000
0000
0000
,
0001
0000
0000
0000
,
0001
0000
0000
0000
,
0000
0000
0000
0000
,
1000
0000
0000
0000
,
0000
0000
0000
0000
,
0100
0000
0000
0000
,
0000
0000
0000
0000
,
1000
0000
0000
0000
,
0000
0000
0000
0000
,
0010
0000
0000
0000
,
0010
0000
0000
0000
,
0010
0000
0000
0000
,
0000
0000
0000
0000
,
1000
0000
0000
0000
,
0000
0000
0000
0000
,
0010
0000
0000
0000
,
0000
0000
0000
0000
,
0100
0000
0000
0000
,
0100
0000
0000
0000
,
0100
0000
0000
0000
,
0000
0000
0000
0000
,
0001
0000
0000
0000
,
0000
0000
0000
0000
,
1000
0000
0000
0000
,
0000
0000
0000
0000
,
0010
0000
0000
0000
,
0000
0000
0000
0000
,
1000
0000
0000
0000
,
0000
0000
0000
0000
,
0100
0000
0000
0000
,
0000
0000
0000
0000
,
1000
0000
0000
0000
,
1000
0000
0000
0000
,
1000
0000
0000
0000
,
0000
0000
0000
0000
,
0010
0000
0000
0000
,
0000
0000
0000
0000
,
1000
0000
0000
0000
,
0000
0000
0000
0000
,
0001
0000
0000
0000
,
0000
0000
0000
0000
,
0010
0000
0000
0000
,
0010
0000
0000
0000
,
0010
0000
0000
0000
,
0000
0000
0000
0000
,
0001
0000
0000
0000
,
0000
0000
0000
0000
,
1000
0000
0000
0000
,
0000
0000
0000
0000
,
0010
0000
0000
0000
,
0010
0000
0000
0000
,
0010
0000
0000
0000
,
0000
0000
0000
0000
,
1000
0000
0000
0000
,
0000
0000
0000
0000
,
0100
0000
0000
0000
,
0000
0000
0000
0000
,
1000
0000
0000
0000
,
0000
0000
0000
0000
,
0001
0000
0000
0000
,
0000
0000
0000
0000
,
1000
0000
0000
0000
,
0000
0000
0000
0000
,
0010
0000
0000
0000
,
0010
0000
0000
0000
,
0010
0000
0000
0000
,
0000
0000
0000
0000
,
1001
0000
0000
0000
,
0000
0000
0000
0000
,
1001
0000
0000
0000
,
0000
0000
0000
0000
,
0100
0000
0000
0000
,
0100
0000
0000
0000
,
0100
0000
0000
0000
,
0000
0000
0000
0000
,
1001
0000
0000
0000
,
0000
0000
0000
0000
,
1001
0000
0000
0000
,
0000
0000
0000
0000
,
0010
0000
0000
0000
,
0010
0000
0000
0000
,
0010
0000
0000
0000
,
0000
0000
0000
0000
,
1000
0000
0000
0000
,
0000
0000
0000
0000
,
0001
0000
0000
0000
,
0000
0000
0000
0000
,
1000
0000
0000
0000
,
0000
0000
0000
0000
,
0010
0000
0000
0000
,
0000
0000
0000
0000
,
0100
0000
0000
0000
,
0000
0000
0000
0000
,
0001
0000
0000
0000
,
0000
0000
0000
0000
,
1001
0000
0000
0000
,
0000
0000
0000
0000
,
0000
0000
0000
0000
,
0000
0000
0000
0010
,
0000
0000
0000
0010
,
0000
0000
0000
0010
,
0000
0000
0000
0000
,
0000
0000
0000
0000
,
0000
0000
0000
0000
,
0000
0000
0000
1000
,
0000
0000
0000
0000
,
0000
0000
0000
1000
,
0000
0000
0000
0000
,
0000
0000
0000
1000
,
0000
0000
0000
0000
,
0000
0000
0000
0000
,
0000
0000
0000
0000
,
0000
0000
0000
0001
,
0000
0000
0000
0000
,
0000
0000
0000
0001
,
0000
0000
0000
0000
,
0000
0000
0000
0001
,
0000
0000
0000
0000
,
0000
0000
0000
0000
,
0000
0000
0000
0000
,
0000
0000
0000
0010
,
0000
0000
0000
0000
,
0000
0000
0000
0010
,
0000
0000
0000
0000
,
0000
0000
0000
0010
,
0000
0000
0000
0000
,
0000
0000
0000
0000
,
0000
0000
0000
0000
,
0000
0000
0000
1001
,
0000
0000
0000
0000
,
0000
0000
0000
0000
,
0000
0000
0000
0000
,
0000
1000
0000
0000
,
0000
0000
0000
0000
,
0000
1000
0000
0000
,
0000
0000
0000
0000
,
0000
0001
0000
0000
,
0000
0000
0000
0000
,
0000
1000
0000
0000
,
0000
0000
0000
0000
,
0000
0010
0000
0000
,
0000
0000
0000
0000
,
0000
0100
0000
0000
,
0000
0000
0000
0000
,
0000
0010
0000
0000
,
0000
0000
0000
0000
,
0000
1000
0000
0000
,
0000
0000
0000
0000
,
0000
0001
0000
0000
,
0000
0000
0000
0000
,
0000
1000
0000
0000
,
0000
0000
0000
0000
,
0000
0100
0000
0000
,
0000
0000
0000
0000
,
0000
0010
0000
0000
,
0000
0010
0000
0000
,
0000
0010
0000
0000
,
0000
0010
0000
0000
,
0000
0010
0000
0000
,
0000
0001
0000
0000
,
0000
1000
0000
0000
,
0000
0010
0000
0000
,
0000
1001
0000
0000
;

//---------------dance-single - ----------------
#NOTES:
     dance-single:
     :
     Medium:
     9:
     0.798,1.000,0.486,0.229,0.000:
0000
0000
0000
0000
,
0000
0000
0000
0000
,
0000
0000
0000
0000
,
0000
0000
0000
0000
,
1001
0000
1000
0100
0000
1000
0001
0000
,
0110
0000
0001
0100
0000
0010
1000
0000
,
0101
0000
1000
0100
0000
0010
0001
0000
,
1010
0000
0010
0100
0000
0001
1000
0000
,
0100
1000
0001
0100
,
0010
1000
0000
0000
,
0001
1000
0100
0010
,
0001
0100
0000
0000
,
0010
1000
0100
1000
,
0001
0010
0000
0000
,
0001
0100
0010
1000
,
0100
0010
0000
0000
,
0001
1000
0010
0100
,
0010
1000
0100
0000
,
1000
0100
0010
0001
,
1000
0001
0100
0000
,
0001
0010
1000
0010
,
0001
0100
0010
0000
,
1000
0100
0010
0100
,
1000
0001
0100
0010
,
1001
0000
1001
0000
,
0100
0001
0100
0000
,
1010
0000
1010
0000
,
1000
0100
1000
0000
,
0101
0000
0101
0000
,
1000
0010
1000
0000
,
1001
0000
1001
0000
,
0100
0010
0100
0000
,
0101
0000
0110
0000
,
1000
0100
0010
0001
,
1001
0000
1010
0000
,
0100
0010
0100
1000
,
1100
0000
0101
0000
,
0010
0001
0100
0010
,
1010
0000
1100
0000
,
1000
0001
0100
0000
,
0010
1000
0100
0010
,
0001
1000
0100
1000
,
0010
0100
0001
0010
,
0100
1000
0100
0000
,
1000
0010
0100
0001
,
1000
0100
0010
0001
,
1000
0010
0001
0010
,
1000
0100
0010
0000
,
0001
0100
0010
1000
,
0100
1000
0010
0100
,
0010
1000
0100
0010
,
0001
1000
0100
0000
,
0001
0100
1000
0100
,
0010
1000
0100
1000
,
0010
0100
0010
1000
,
0100
0010
0001
0000
,
0100
0000
0100
0000
,
0010
0000
1000
0100
,
0000
1000
0001
1000
,
0001
0000
0100
0000
,
0010
1000
0100
1000
,
0001
0010
1000
0010
,
0001
1000
0001
0000
,
2002
0000
3003
0000
,
0010
0000
0010
0000
,
0100
0000
0001
0010
,
0000
0001
1000
0001
,
1000
0000
0010
0000
,
0100
0001
0010
0001
,
1000
0100
0001
0100
,
1000
0001
1000
0000
,
2002
0000
3003
0000
,
0010
1000
1000
0100
,
0010
0010
0001
1000
,
1000
0100
0010
0001
,
0100
0010
1000
0000
,
0001
0100
0100
0001
,
0010
0010
0100
1000
,
1000
0010
0100
0010
,
1000
0100
0010
0000
,
0001
0100
0001
0000
,
1000
0100
1000
0000
,
0010
0100
0010
0000
,
1000
0100
1000
0000
,
1001
0000
0101
0000
,
1010
0000
0110
0000
,
1100
0000
0101
0000
,
1001
1000
0001
1000
,
0010
0000
0010
0000
,
1000
0000
0100
0010
,
0000
0001
0010
0100
,
1000
0000
0010
0000
,
1000
0100
0010
0001
,
0100
0010
1000
0100
,
1000
0010
0100
0000
,
0202
0000
0303
0000
,
0100
0000
0100
0000
,
0001
0000
0010
0100
,
0000
1000
0100
0010
,
0001
0000
0100
0000
,
0001
0010
0100
1000
,
0010
0100
0001
0010
,
0001
0100
0010
0000
,
2020
0000
3030
0000
,
0001
0100
0100
0010
,
1000
1000
0100
0001
,
0001
0100
1000
0010
,
0100
0001
0100
0000
,
0010
1000
1000
0010
,
0100
0100
0001
1000
,
1000
0100
0010
0001
,
1000
0010
0100
0000
,
0010
1000
0001
0000
,
0100
0001
1000
0000
,
0100
0010
0001
0000
,
1000
0010
0100
0000
,
1100
0000
1001
0000
,
0011
0000
0110
0000
,
1100
0000
0101
0000
,
1001
1000
0001
1000
,
0200
0000
0300
1200
,
0000
1300
0010
0100
,
0002
0000
0003
0012
,
0000
0103
0010
0100
,
0102
0000
0103
0000
,
2001
0000
3100
0000
,
0210
0000
0310
0000
,
1002
0000
1003
0000
,
0020
0000
0030
0120
,
0000
0130
0010
0100
,
0002
0000
0003
0102
,
0000
0013
0100
1000
,
2010
0000
3100
0000
,
1002
0000
0013
0000
,
0120
0000
0130
0000
,
2001
0000
3001
0000
,
0101
0100
0001
0202
,
0000
0303
0000
0000
,
1010
1000
0010
2020
,
0000
3030
0000
0000
,
0001
0100
0010
1000
,
0100
1000
0010
0100
,
0010
1000
0100
0010
,
0001
0100
0010
0000
,
1001
0001
1000
2002
,
0000
3003
0000
0000
,
0110
0010
0100
0220
,
0000
0330
0000
1000
,
0001
0000
1000
0000
0010
0100
0000
0001
,
0000
1000
0010
0100
0001
0000
0100
0000
,
0000
0000
1000
0001
,
1000
0000
0010
1000
,
0100
1100
0000
1001
,
0000
0000
0000
0100
,
0001
1000
0100
1000
,
0010
0100
0010
1000
,
0100
0010
0001
0100
,
0000
0000
0001
0100
,
0001
0000
1000
0001
,
1000
0000
0100
1000
,
0001
1001
0000
1010
,
0000
0000
0000
0100
,
0001
1000
0100
0001
,
0100
1000
0010
0100
,
0010
1000
0100
0010
,
0000
0000
1000
0010
,
0100
0000
0001
1000
,
0001
0000
0100
0001
,
0010
0011
0000
1001
,
0000
0000
0000
0010
,
1000
0001
0010
0001
,
0100
0010
0100
0001
,
0010
0100
1000
0010
,
0000
0000
1000
0010
,
1000
0000
0001
1000
,
0001
0000
0010
0001
,
1000
1001
0000
0101
,
0000
0000
0000
0010
,
1000
0001
0010
1000
,
0010
0001
0100
0010
,
0100
0001
0010
0100
,
1000
0000
0001
0000
0100
0000
0010
0010
,
0000
1000
1000
0000
0100
0100
0000
0001
,
0001
0001
0100
0010
,
1000
0100
1000
0010
,
0100
0010
1000
0100
,
0010
0001
0000
0000
,
1000
0010
1000
0000
,
0001
0100
0001
0000
,
1000
0100
0010
0011
,
0000
0110
0000
0000
,
0000
1000
0001
0100
,
0010
1000
0100
1000
,
0010
0001
0010
1000
,
0100
0010
0001
0100
,
0000
0010
1000
0100
,
1000
0010
0100
0001
,
0010
1000
0010
0001
,
0100
0010
1000
0100
,
1000
0010
0100
0001
,
1000
0001
0010
1000
,
0010
0001
0100
0010
,
1000
0100
1000
0010
,
0100
0010
1000
0100
,
0001
0100
1000
0010
,
0100
0001
0010
0001
,
0100
0010
1000
0100
,
1000
0010
0100
0010
,
1000
0100
0010
0001
,
0100
0010
1000
0100
,
1000
0000
0010
0100
0010
0100
0010
0100
,
0010
0100
0010
0000
1000
0100
1000
0000
,
0000
0010
0100
0010
0100
0010
0100
0000
,
0000
0001
0100
0001
0100
0001
0100
0000
,
0000
1000
0100
1000
0100
1000
0100
0000
,
0000
0010
0001
0100
0000
0000
0000
0000
;

//---------------dance-single - ----------------
#NOTES:
     dance-single:
     :
     Hard:
     10:
     1.000,1.000,1.000,0.622,0.000: // measure 1
0000
0000
0000
0000
,  // measure 2
0000
0000
0000
0000
,  // measure 3
0000
0000
0000
0000
,  // measure 4
0000
0000
0000
0000
,  // measure 5
2010
0000
3001
0100
0000
1000
0010
0000
,  // measure 6
0102
0000
1003
0100
0000
0001
1000
0000
,  // measure 7
0200
0000
1000
1000
0000
0010
0310
0000
,  // measure 8
2000
0000
0010
0010
0000
0100
3100
0000
,  // measure 9
0010
1000
0100
0000
0001
0000
0100
1000
,  // measure 10
0010
0100
0001
1000
,  // measure 11
0010
0100
0001
0000
1000
0000
0001
0010
,  // measure 12
0100
1000
0010
0001
,  // measure 13
0010
1000
0001
0000
1000
0000
0100
1000
,  // measure 14
0010
0100
0001
1000
,  // measure 15
0001
0010
0100
0000
1000
0000
0010
1000
,  // measure 16
0100
0010
0001
0100
,  // measure 17
1000
0100
0001
0000
0001
0000
0001
0100
,  // measure 18
1000
0000
1000
0000
1000
0001
1000
0000
,  // measure 19
0001
0010
1000
0000
1000
0000
1000
0010
,  // measure 20
0001
0000
0001
0000
0001
1000
0001
0000
,  // measure 21
0101
0100
0010
1010
,  // measure 22
1000
0001
1001
0100
,  // measure 23
0001
0100
1000
0000
0100
0000
0010
0100
,  // measure 24
0001
0000
1000
0000
0010
1000
0100
0000
,  // measure 25
2001
0001
3100
0010
,  // measure 26
1000
0001
1000
0100
,  // measure 27
0010
0001
0100
0001
,  // measure 28
1000
0000
0001
0100
0001
0100
0001
0000
,  // measure 29
1000
0010
0100
0001
,  // measure 30
0100
0010
1000
0100
,  // measure 31
0010
0001
0100
1000
,  // measure 32
0100
0000
0010
1000
0010
1000
0010
1000
,  // measure 33
0002
0100
0100
0010
,  // measure 34
1000
1003
0100
0010
,  // measure 35
0200
0010
0010
1000
,  // measure 36
0001
0000
0301
0000
0010
0001
0100
0010
,  // measure 37
2000
0100
0100
0001
,  // measure 38
0010
3010
0100
0001
,  // measure 39
1000
0001
0100
0010
,  // measure 40
0100
0000
0001
0010
0100
1000
0001
0000
,  // measure 41
0100
0010
1010
1000
,  // measure 42
0001
0000
0100
0000
0101
0000
0010
0100
,  // measure 43
0010
1000
1001
1000
,  // measure 44
0010
0100
0101
1000
,  // measure 45
0001
0000
1000
0000
1010
0000
1000
0100
,  // measure 46
1000
0010
0110
1000
,  // measure 47
0001
0100
0101
0010
,  // measure 48
1000
0000
0001
1000
0001
1000
0001
0000
,  // measure 49
0100
0010
1000
0001
0100
0000
0010
0000
,  // measure 50
1000
0001
0010
0001
,  // measure 51
1000
0001
0100
0010
1000
0000
0100
0000
,  // measure 52
0010
0001
1000
0001
,  // measure 53
0022
0000
0033
0000
,  // measure 54
0220
0000
0330
0000
,  // measure 55
2000
0000
3002
0000
,  // measure 56
2003
0000
3001
0000
,  // measure 57
0101
0100
0110
1000
,  // measure 58
1001
0000
1000
0100
0010
0000
0100
0000
,  // measure 59
0100
0000
0010
0100
0010
0000
0001
0000
,  // measure 60
0100
0010
1000
0000
,  // measure 61
0100
0001
0100
0000
0010
0000
1000
0001
,  // measure 62
1000
0100
1000
0001
,  // measure 63
0100
0001
0202
0303
,  // measure 64
2002
3003
0010
0100
,  // measure 65
0110
0100
0101
0001
,  // measure 66
1001
0000
0100
0001
0010
0000
0001
0000
,  // measure 67
1000
1000
0100
0100
,  // measure 68
1000
0001
1000
0000
0001
0100
0001
0000
,  // measure 69
1010
0001
0100
0101
,  // measure 70
1000
0001
0100
0010
,  // measure 71
1000
0100
0010
0001
,  // measure 72
0202
0303
1000
0100
,  // measure 73
0010
0001
0100
0000
0010
0000
0100
0001
,  // measure 74
1000
0000
0001
0000
0100
0010
1000
0000
,  // measure 75
0100
0000
1000
0100
0001
0000
0010
0000
,  // measure 76
0101
0010
1001
0000
,  // measure 77
0100
1000
0010
0000
0100
0000
0010
1000
,  // measure 78
0001
0000
1000
0000
0010
0100
0001
0000
,  // measure 79
0010
0000
0100
0010
0001
0000
0100
0000
,  // measure 80
0101
0010
1001
0000
,  // measure 81
0100
0000
0001
1000
0001
0100
0001
0000
,  // measure 82
0010
0000
0001
0000
0100
0000
0010
0100
,  // measure 83
0001
0100
0202
0303
,  // measure 84
2002
3003
0010
0100
,  // measure 85
0010
0000
1000
0001
1000
0010
1000
0000
,  // measure 86
0100
0000
1000
0000
0010
0000
0100
0010
,  // measure 87
1000
0010
2020
3030
,  // measure 88
0100
0010
0100
0010
0100
0010
0100
0010
,  // measure 89
1000
0100
0001
1000
,  // measure 90
0100
0001
1000
0100
,  // measure 91
0001
1000
0100
0001
,  // measure 92
1000
0001
0100
0010
,  // measure 93
0100
0001
1000
0001
0010
0000
0001
0000
,  // measure 94
0100
0001
1000
0010
0100
0000
0010
0000
,  // measure 95
1000
0001
0010
0100
1000
0000
0001
0000
,  // measure 96
2002
3003
0220
0330
,  // measure 97
0001
0010
1000
0001
,  // measure 98
0010
1000
0001
0010
,  // measure 99
1000
0001
0010
1000
,  // measure 100
0001
1000
0010
0100
,  // measure 101
0010
1000
0001
1000
0100
0000
1000
0000
,  // measure 102
0010
1000
0001
0100
0010
0000
0100
0000
,  // measure 103
0001
1000
0100
0010
0001
0000
1000
0000
,  // measure 104
2002
3003
0220
0330
,  // measure 105
0002
0000
1000
0103
,  // measure 106
0010
0100
0001
0000
1000
0000
0010
0000
,  // measure 107
0100
0001
1000
0010
,  // measure 108
0100
0001
1000
0000
0100
0000
0000
0000
,  // measure 109
1001
0000
0110
0011
,  // measure 110
0000
1100
1001
0100
,  // measure 111
0001
1000
0010
0100
,  // measure 112
0001
1000
0010
0100
,  // measure 113
0010
0100
0010
1000
0010
0000
0100
0000
,  // measure 114
0001
1000
0100
0010
,  // measure 115
0001
1000
0002
0103
,  // measure 116
0020
1030
0100
1000
,  // measure 117
0010
0100
0010
0001
0010
0000
1000
0000
,  // measure 118
0100
1000
0010
0100
,  // measure 119
0001
1000
0101
1001
,  // measure 120
1010
0100
0010
1000
,  // measure 121
2002
0000
3003
0202
,  // measure 122
0300
0103
2010
3100
,  // measure 123
0220
0000
0330
2020
,  // measure 124
3000
0130
0110
0011
,  // measure 125
1001
0000
0001
0100
0010
0000
1000
0001
,  // measure 126
0100
0000
0010
1000
0100
0000
1000
0100
,  // measure 127
0010
0000
0001
0100
0010
0000
1000
0001
,  // measure 128
0100
0000
1000
0010
0001
0010
1000
0000
,  // measure 129
2002
0000
3003
2020
,  // measure 130
0030
3010
0102
0013
,  // measure 131
0220
0000
0330
0202
,  // measure 132
0003
0310
0110
1100
,  // measure 133
1000
0001
1000
0001
1000
0000
0000
0000
,  // measure 134
0100
0001
0100
0001
0100
0000
0000
0000
,  // measure 135
0010
0100
0010
0100
0010
0000
0000
0000
,  // measure 136
1000
0100
1000
0100
1000
0000
0000
0000
,  // measure 137
0022
0000
0033
2020
,  // measure 138
3000
1030
0102
1003
,  // measure 139
2200
0000
3300
0202
,  // measure 140
0003
1300
1100
0110
,  // measure 141
0001
1000
0001
1000
0001
0000
0000
0000
,  // measure 142
0010
1000
0010
1000
0010
0000
0000
0000
,  // measure 143
0100
0010
0100
0010
0100
0000
0000
0000
,  // measure 144
0001
0010
0001
0010
0001
0000
0000
0000
,  // measure 145
1000
0010
0100
0000
0001
1000
0100
0000
,  // measure 146
0010
0001
0100
0000
0010
1000
0100
0000
,  // measure 147
1000
0001
1000
0000
0100
0010
0001
0000
,  // measure 148
0100
0010
1000
0000
0001
0010
0100
0000
,  // measure 149
1001
0000
0110
0000
1001
0101
0000
1010
,  // measure 150
0000
0000
0000
0000
0000
0000
0000
0000
1001
0000
0000
0000
0000
0000
0000
0000
0110
0000
0000
0000
0000
0000
0000
0000
1001
0000
0000
0000
0000
0000
0000
0000
0220
0330
0000
0000
0000
0000
0000
0000
0000
0000
0000
0000
0000
0000
0000
0000
1000
0000
0000
0000
0000
0000
0000
0000
0001
0000
0000
0000
0000
0000
0000
0000
,  // measure 151
0100
0010
1000
0000
0001
0000
0100
0010
,  // measure 152
1000
0100
0010
0000
0001
0000
0100
0010
,  // measure 153
1000
0100
1000
0000
0001
0000
2002
0000
,  // measure 154
3003
0100
0010
1000
,  // measure 155
0010
0100
0001
0000
1000
0000
0001
0000
,  // measure 156
1000
0010
0100
0000
0010
0000
1000
0001
,  // measure 157
0100
0001
1000
0100
0010
0001
1000
0010
,  // measure 158
1000
0001
0010
0100
1000
0000
0001
0100
,  // measure 159
1000
0100
0001
0000
1000
0000
0001
0010
,  // measure 160
1000
0010
0001
0000
0100
0001
1000
0000
,  // measure 161
0010
2001
3100
0120
,  // measure 162
0030
0000
0010
0000
0001
0000
0100
0001
,  // measure 163
0010
0000
0100
0010
1000
0000
0100
0010
,  // measure 164
0001
0000
1000
0010
0100
0000
0001
1000
,  // measure 165
0010
0100
0010
1000
0100
0010
0001
1000
,  // measure 166
0100
0001
0100
1000
0010
0000
1000
0010
,  // measure 167
0001
0010
1000
0000
0001
0000
1000
0100
,  // measure 168
0001
0100
1000
0000
0010
1000
0001
0000
,  // measure 169
0100
1002
0013
0210
,  // measure 170
0300
0000
0100
0000
1000
0000
0010
1000
,  // measure 171
0100
0000
0010
0100
0001
0000
0010
0100
,  // measure 172
1000
0000
0001
0100
0010
0000
1000
0001
,  // measure 173
0100
0010
0100
0001
0010
0100
1000
0001
,  // measure 174
0010
1000
0010
0001
0100
0000
1010
0000
,  // measure 175
1001
0000
0110
0101
,  // measure 176
1010
0000
1001
0101
,  // measure 177
1010
2001
3100
0102
,  // measure 178
0003
0000
1001
1001
,  // measure 179
0100
0010
1000
0100
0010
0001
0100
0000
,  // measure 180
0220
0000
0000
0330
2002
0000
3003
0000
,  // measure 181
0100
0001
1000
0100
0010
0001
0100
0010
,  // measure 182
1000
0100
0010
0001
0100
0000
0110
0110
,  // measure 183
0000
1001
1001
0000
0110
0110
0000
1001
,  // measure 184
1001
0000
0100
0010
0100
0001
0100
1000
,  // measure 185
0100
0010
0001
1000
,  // measure 186
0001
0100
0010
1000
,  // measure 187
0001
0000
1000
0100
0010
0001
0100
0000
,  // measure 188
0001
0101
0101
0000
,  // measure 189
1100
1100
1100
0000
,  // measure 190
1001
1001
1001
1002
,  // measure 191
0003
0210
0300
0000
,  // measure 192
1001
0000
1001
0000
0001
1000
0100
0000
,  // measure 193
0010
0001
0100
0000
0001
0010
0100
0000
,  // measure 194
0220
0000
0330
0000
0001
1000
0001
0100
,  // measure 195
0010
1000
0001
0000
1000
0100
0010
0001
,  // measure 196
0100
0110
0101
1000
,  // measure 197
1001
1010
0101
0010
,  // measure 198
1010
1001
0110
2010
,  // measure 199
3010
0102
0103
0010
,  // measure 200
1001
0000
1001
0000
1000
0100
1000
0010
,  // measure 201
0100
0010
1000
0000
0001
0100
0001
0010
,  // measure 202
0100
1000
0100
0000
1000
0001
0100
0010
,  // measure 203
1000
0100
0001
0100
1000
0010
0100
0010
,  // measure 204
1000
1010
0110
0001
,  // measure 205
1001
1100
0101
0100
,  // measure 206
0110
1010
1001
0102
,  // measure 207
0103
2001
3001
1000
,  // measure 208
0110
0000
0110
0000
0010
1000
0100
0000
,  // measure 209
0010
0001
0100
0000
0001
0010
0100
0000
,  // measure 210
0010
0001
1000
0010
0100
0010
1000
0100
,  // measure 211
0010
0001
1000
0001
0100
0010
1000
0100
,  // measure 212
1000
0010
0100
0000
0001
0100
0010
0000
,  // measure 213
0000
1000
0001
1000
0010
0100
0001
0000
,  // measure 214
0000
1000
0100
0010
0001
0100
0010
0000
,  // measure 215
0000
0100
1000
0001
0010
1000
0010
0000
,  // measure 216
0000
0001
0100
1000
0000
0000
0000
0000
;

//---------------dance-single - ----------------
#NOTES:
     dance-single:
     :
     Easy:
     8:
     0.579,0.770,0.279,0.243,0.000:
0000
0000
0000
0000
,
0000
0000
0000
0000
,
0000
0000
0000
0000
,
0000
0000
0000
0000
,
0010
0000
0000
1000
0000
0000
0100
0000
,
1000
0000
0000
0010
0000
0000
0100
0000
,
0001
0000
0000
0010
0000
0000
0001
0000
,
1000
0000
0000
0010
0000
0000
0100
0000
,
0010
0000
1000
0000
,
0001
0100
0001
0000
,
1000
0000
0100
0000
,
1000
0010
1000
0000
,
0010
0000
0100
0000
,
0001
1000
0001
0000
,
0010
0000
0100
0000
,
1000
0100
1000
0000
,
0010
0000
1000
0000
,
0001
0100
0001
0000
,
0010
0000
0001
0000
,
1000
0100
1000
0000
,
0010
0000
0100
0000
,
0001
1000
0001
0000
,
0100
0000
0010
0000
,
1000
0100
1000
0000
,
1001
0000
0100
0000
,
0010
0000
1000
0000
,
0100
0000
1000
0000
,
0001
0000
0010
0000
,
0001
0000
1000
0000
,
0010
0000
0100
0000
,
0010
0000
1000
0000
,
0001
0000
0010
0000
,
0011
0000
0100
0000
,
0010
0000
0001
0000
,
0100
0000
0010
0000
,
1000
0000
0001
0000
,
1000
0000
0010
0000
,
0100
0000
0010
0000
,
1000
0000
0001
0000
,
1000
0000
0100
0000
,
1000
0000
1000
0000
,
0010
0100
0010
1000
,
0100
0000
0100
0000
,
1000
0001
1000
0010
,
0100
0000
0100
0000
,
0001
0010
0001
1000
,
0100
0000
0100
0000
,
1000
0001
1000
0010
,
0100
0000
0100
0000
,
0010
1000
0100
0010
,
0001
0000
0001
0000
,
0010
0001
0100
0010
,
1000
0000
1000
0000
,
0010
1000
0100
1000
,
0001
0000
0100
0000
,
0010
0000
1000
0000
,
0010
0000
0010
0000
,
1000
0000
0100
1000
,
0000
1000
0001
0000
,
1000
0000
0010
0000
,
0100
0000
0010
0000
,
1000
0000
0100
0000
,
1000
0000
1001
0000
,
0101
0000
0000
0000
,
0010
0000
0100
0000
,
0001
0000
0010
0001
,
0000
0001
0010
0000
,
0100
0000
1000
0000
,
0010
0000
0100
0000
,
0010
0000
1000
0000
,
0001
0000
1001
0000
,
1100
0000
0000
0000
,
0010
0000
1000
0100
,
0000
1000
0001
0000
,
1000
0010
0000
1000
,
0001
0000
0010
0000
,
0100
0000
0010
0001
,
0000
0010
0100
0000
,
0010
0001
0000
0010
,
0100
0000
1000
0000
,
0010
0000
1000
0000
,
0001
0000
0100
0000
,
0010
0000
0100
0000
,
0001
0000
1000
0000
,
0010
0000
1000
0000
,
0001
0000
0010
0000
,
0001
1000
0001
1000
,
0002
0000
0003
0000
,
0100
0000
0100
0000
,
0001
0000
0010
0001
,
0000
0001
1000
0000
,
0001
0000
0100
0000
,
0010
0000
0100
0000
,
0001
0000
0010
0000
,
0001
0000
1001
0000
,
1010
0000
0000
0000
,
0100
0000
0010
0000
,
1000
0000
0100
1000
,
0000
1000
0100
0000
,
0010
0000
0001
0000
,
0100
0000
0010
0000
,
0100
0000
0001
0000
,
1000
0000
1001
0000
,
0011
0000
0000
0000
,
0100
0000
0001
0010
,
0000
0001
1000
0000
,
0001
0100
0000
0001
,
1000
0000
0100
0000
,
0010
0000
0100
1000
,
0000
0100
0010
0000
,
0100
1000
0000
0100
,
0010
0000
0001
0000
,
0100
0000
0001
0000
,
1000
0000
0010
0000
,
0100
0000
0010
0000
,
1000
0000
0001
0000
,
0100
0000
0001
0000
,
1000
0000
0100
0000
,
1000
0001
1000
0001
,
0200
0000
0300
0000
,
0012
0000
0003
2001
,
0000
3000
0000
0000
,
2100
0000
3000
1002
,
0000
0003
0000
0000
,
0010
1000
0010
0000
,
1000
0100
1000
0000
,
0001
1000
0001
0000
,
0100
0010
0100
0000
,
0102
0000
0003
2001
,
0000
3000
0000
0000
,
1200
0000
0300
1020
,
0000
0030
0000
0000
,
0010
0100
0010
0000
,
1000
0100
1000
0000
,
0001
1000
0001
0000
,
0100
0010
0100
0000
,
0002
0000
0103
0020
,
0000
0030
2000
0000
,
3002
0000
1003
0200
,
0000
0300
2000
0000
,
3010
0100
0010
0000
,
1000
0100
1000
0000
,
0001
1000
0001
0000
,
0100
0010
0100
0000
,
0002
0000
1003
0200
,
0000
0300
2000
0000
,
3020
0000
0130
0020
,
0000
0030
2000
0000
,
3001
0000
1000
0000
0100
1000
0000
0001
,
0000
0100
0010
0100
0010
0000
1000
0000
,
0000
0010
0000
1000
,
0000
0100
0000
1000
,
0001
1000
0000
2002
,
0000
3003
0000
0010
,
0000
1000
0000
0100
,
0000
0010
0000
0001
,
0000
1000
0000
0010
,
0000
0100
0000
0010
,
0000
1000
0000
0100
,
0000
0010
0000
0001
,
1000
0001
0000
0220
,
0000
0330
0000
0001
,
0000
0100
0000
0010
,
0000
1000
0000
0100
,
0000
1000
0000
0010
,
0100
0010
0100
0001
,
0000
0100
0000
0001
,
0000
0010
0000
0001
,
1000
0001
0000
2002
,
0000
3003
0000
0100
,
0000
0001
0000
0010
,
0000
0100
0000
1000
,
0000
0001
0000
0100
,
0000
0010
0000
0100
,
0000
0001
0000
0010
,
0000
0100
0000
1000
,
0001
1000
0000
0220
,
0000
0330
0000
1000
,
0000
0010
0000
0100
,
0000
0001
0000
0010
,
0000
0001
0000
0100
,
0010
0000
0100
0000
0010
0000
0100
0100
,
0000
0100
0100
0000
0100
0100
0000
0100
,
0100
0010
0000
1000
,
0000
0001
0000
1000
,
0000
0001
0000
0010
,
0000
0100
1000
0100
,
0000
2000
0100
3000
,
0000
0002
0100
0003
,
0000
1000
0001
1000
,
0000
2002
0000
3003
,
0000
0010
0000
1000
,
0000
0100
0000
1000
,
0000
0001
1000
0001
,
1000
0010
0100
0010
,
0000
1001
0000
1001
,
0000
0110
0000
0110
,
0000
0101
0000
0101
,
0000
1100
0000
1100
,
0000
1000
0000
0001
,
0000
1000
0000
0010
,
0000
0100
0000
0001
,
0000
1000
0000
0010
,
0000
1001
0000
1001
,
0000
1010
0000
1010
,
0000
0011
0000
0011
,
0000
1001
0000
1001
,
0000
0100
0000
0010
,
0000
1000
0000
0001
,
0000
1000
0100
1000
,
0100
0010
0001
0010
,
0001
0100
0010
1000
,
0000
0001
1000
0100
,
0000
1000
0001
0100
,
0000
0000
0010
0100
0010
0100
0010
0000
,
0000
1000
0001
1000
0000
0000
0000
0000
;
