#TITLE:Two-Faced Lovers;
#SUBTITLE:;
#ARTIST:初音ミク;
#TITLETRANSLIT:;
#SUBTITLETRANSLIT:;
#ARTISTTRANSLIT:Hatsune Miku;
#CREDIT:;
#BANNER:Two-Faced Lovers-bn.png;
#BACKGROUND:Two-Faced Lovers-bg.png;
#LYRICSPATH:;
#CDTITLE:;
#MUSIC:Two-Faced Lovers.mp3;
#OFFSET:-0.063;
#SAMPLESTART:77.000;
#SAMPLELENGTH:11.700;
#SELECTABLE:YES;
#BPMS:0.000=159.000;
#STOPS:;
#BGCHANGES:-0.850=Two-Faced Lovers.avi=1.000=1=0=1,
99999=-nosongbg-=1.000=0=0=0 // don't automatically add -songbackground-
;

//---------------dance-single - ----------------
#NOTES:
     dance-single:
     :
     Beginner:
     3:
     0.211,0.258,0.039,0.000,0.000:
0000
0000
0000
0000
,
0000
0000
0000
0000
,
0000
0000
0000
0000
,
1000
0000
0001
0000
,
1000
0000
0001
0000
,
0100
0000
0010
0000
,
0100
0000
0010
0000
,
0100
0000
0100
0000
,
0001
0000
0001
0000
,
1000
0000
1000
0000
,
0100
0000
0100
0000
,
0010
0010
0010
0000
,
0001
0000
0001
0000
,
1000
1000
1000
0000
,
0100
0000
0100
0000
,
1000
1000
1000
0000
,
0010
0000
0010
0000
,
0100
0100
0100
0000
,
0010
0000
0010
0000
,
0100
0000
0100
0000
,
0001
0000
0001
0000
,
1000
0000
1000
0000
,
0100
0000
0100
0000
,
1000
0000
0001
0000
,
1000
0000
0001
0000
,
0100
0000
0001
0000
,
0100
0000
0001
0000
,
0010
0000
0000
0010
,
0010
0000
0000
0100
,
0100
0000
0000
1000
,
1000
0000
0000
0001
,
0001
0000
0000
1000
,
1000
0000
0000
0010
,
0010
0000
0000
0100
,
0100
0000
0000
0000
,
1001
0000
0000
0000
,
0100
0000
0100
0000
,
0100
0000
0000
0000
,
0010
0010
0010
0000
,
1000
0000
0001
0000
,
0001
0000
0001
0000
,
0100
0000
0010
0000
,
0010
0000
0010
0000
,
0100
0100
0100
0000
,
0100
0100
0100
0000
,
0010
0000
0000
0000
,
1000
0000
0000
0000
,
1001
0000
0000
0000
,
0110
0000
0000
0000
,
0001
0000
0001
0000
,
0001
0000
0001
0000
,
1000
1000
1000
0000
,
0010
0010
0010
0000
,
1000
1000
1000
0000
,
0100
0100
0100
0000
,
0001
0001
0001
0000
,
0010
0010
0010
0000
,
0001
0001
0001
0000
,
0100
0100
0100
0000
,
0010
0010
0010
0010
,
0010
0010
0010
0000
,
1000
1000
1000
1000
,
1000
1000
1000
0000
,
0001
0001
0001
0001
,
0001
0001
0001
0000
,
0100
0100
0100
0100
,
0100
0100
0100
0000
,
1001
0000
0000
0000
;

//---------------dance-single - ----------------
#NOTES:
     dance-single:
     :
     Medium:
     6:
     0.525,0.517,0.357,0.096,0.000:
0000
0000
0000
0000
,
0000
0000
0000
0000
,
0000
0000
0000
0000
,
0001
0000
0100
0000
0010
1000
0100
0000
,
1000
0000
0001
0000
0010
0001
0100
0000
,
0010
0000
0100
0000
0010
1000
0100
0000
,
1000
0000
0001
0000
0010
0001
0100
0000
,
0010
0000
0110
0000
0100
0001
1000
0000
,
0010
0000
1010
0000
1000
0100
0010
0000
,
0001
0000
0011
0000
0010
0001
0100
0000
,
0010
0100
0010
0000
1000
0100
1000
0000
,
0001
0000
0100
0000
1000
0100
0001
0000
,
0010
0001
0010
0000
0100
1000
0100
0000
,
1000
0000
0010
0000
1000
0010
0001
0000
,
0010
1000
0010
1000
0100
1000
0100
0000
,
0010
0000
0001
0000
0100
0001
0010
0000
,
0001
0100
1000
0100
0001
1000
0100
0000
,
1010
0101
1000
0001
,
0011
1100
0010
1000
,
0010
0100
0010
0000
1000
0100
1000
0000
,
0001
0100
0001
0000
0010
0100
0010
0200
,
0000
0000
0000
0310
,
1010
0101
0011
1100
,
0001
0000
1000
0000
0010
1000
0100
0000
,
1000
0100
1000
0000
0001
0100
0001
0000
,
0110
1010
0101
1001
,
0202
0300
0013
0110
,
1000
0000
0010
0000
0100
0001
0010
0000
,
0001
0000
1000
0000
0100
1000
0010
0000
,
0100
0000
0010
0000
0100
0001
0010
0000
,
0001
0000
1000
0000
0100
1000
0010
0000
,
0100
0000
0110
0000
0010
1000
0001
0000
,
0100
0000
0101
0000
0001
0010
0100
0000
,
1000
0000
1100
0000
0100
1000
0010
0000
,
0100
0010
0100
0000
0001
0010
0001
0000
,
2000
3100
1000
0010
,
0100
0001
0100
0000
0001
0010
0001
0000
,
0020
0031
0100
0010
,
1000
0001
1000
0000
0010
0100
0010
0000
,
0001
0000
0100
0000
1000
0100
1000
0000
,
0010
1000
0001
0000
0010
0001
0100
0000
,
0010
1000
0010
0100
0010
1000
0010
0100
,
0010
0100
0001
0100
0010
1000
0001
0000
,
1100
0000
0101
0000
1000
0001
1000
0000
,
1010
0101
1000
0001
,
0100
0010
0100
0001
,
1000
0100
1000
0010
1000
0001
0100
0000
,
0010
0000
0100
0000
0001
0010
0001
0000
,
1000
0100
1000
0000
0010
0100
0010
0000
,
2000
3200
0320
0032
,
0203
0000
0000
0310
,
0001
0100
0001
0100
0010
1000
0010
0000
,
1000
0100
1000
0100
0010
0001
0010
0000
,
0001
1000
0001
1000
0010
0100
0010
0000
,
0101
1100
0011
1010
,
0001
0100
0001
0100
0010
0100
0010
0000
,
1000
0100
1000
0100
0010
0100
0010
0000
,
0001
1000
0001
1000
0010
0100
0010
0000
,
0110
0101
1100
0011
,
1000
0100
0010
0001
0100
0000
0000
0000
,
0001
0010
0100
1000
0001
0000
0000
0000
,
0010
0100
0010
1000
0100
0000
0000
0000
,
0001
1000
0001
1000
0100
0000
0000
0000
,
0010
1000
0100
0010
0001
0000
0000
0000
,
0100
0010
0100
0001
1000
0000
0000
0000
,
0010
1000
0100
0010
0001
0000
0000
0000
,
0011
1100
0101
1010
,
1001
0000
0000
0000
;

//---------------dance-single - ----------------
#NOTES:
     dance-single:
     :
     Hard:
     9:
     0.767,0.710,0.366,0.029,0.439:
0000
0000
0000
0000
,
0000
0000
0000
0000
,
0000
0000
0000
0000
,
0010
0000
1000
0100
1000
0000
0010
0000
1000
0000
0001
0000
0100
0000
0000
0000
,
0010
0000
0100
0001
0100
0000
0010
0000
1000
0000
0001
0000
1000
0000
0000
0000
,
0100
0000
0010
0001
0010
0000
0100
0000
1000
0000
0001
0000
0100
0000
0000
0000
,
0010
0000
1000
0100
1000
0000
0001
0000
1000
0000
0010
0000
0100
0000
0000
0000
,
0001
0000
1000
0100
0010
0000
0001
0000
1000
0000
0010
0000
0100
0000
0000
0000
,
0010
0000
1000
0100
1000
0000
0001
0000
0100
0000
0010
0000
1000
0000
0000
0000
,
0010
0000
1000
0001
0010
0000
0001
0000
0100
0000
0010
0000
0100
0000
0000
0000
,
0001
0000
1000
0000
0001
0000
0000
0100
0000
0010
0000
0000
0100
0000
0000
0001
,
1000
0010
1000
0001
1000
0010
0100
0001
,
0000
0000
0100
0010
0100
0000
0100
0000
0001
0010
0001
0000
0100
0000
0000
0000
,
0010
0000
1000
0000
0100
0000
1000
0001
0000
0001
1000
0000
0010
0000
0000
0000
,
1000
0001
1000
0000
0100
0001
0100
0000
0010
0100
0010
0000
0001
0100
0001
0000
,
1000
0100
1000
0001
0100
0001
1000
0010
,
0000
0000
1010
0000
0000
1001
0000
0000
0101
0000
0000
1100
0000
0000
1001
0000
,
1000
0001
1000
0001
0100
0001
1000
0010
,
0100
0100
0010
1000
0100
0010
0001
0000
,
1010
0000
1010
0000
0110
0000
0110
0000
0100
0001
0100
0000
0001
1000
0001
0000
,
0100
0000
1000
0000
0100
0000
0001
0000
1000
0000
0010
0100
0010
0100
0002
0000
,
1000
0000
0100
0000
1003
0010
0100
0010
,
1010
1100
0101
1001
,
0010
0000
1000
0100
1000
0000
0001
0100
0001
0000
1000
0000
0001
0100
0000
0100
,
0000
0000
0001
1000
0001
0000
1000
0000
0100
0000
0010
0000
0001
0000
0100
0000
,
0101
1010
1001
0110
,
0102
0100
1000
1003
,
0100
0000
0001
0010
0001
0000
0100
0000
0001
0000
1000
0000
0010
0000
0000
0000
,
0100
0000
0010
1000
0010
0000
0100
0000
0001
0000
1000
0000
0001
0000
0000
0000
,
0010
0000
0100
1000
0100
0000
0010
0000
0001
0000
1000
0000
0010
0000
0000
0000
,
0100
0000
0001
0010
0001
0000
1000
0000
0001
0000
0100
0000
0010
0000
0000
0000
,
1000
0000
0001
0010
0100
0000
1000
0000
0001
0000
0100
0000
0010
0000
0000
0000
,
1000
0000
0001
1000
0001
0000
0100
0000
0010
0000
1000
0000
0001
0000
0000
0000
,
0100
0000
0001
1000
0100
0000
1000
0000
0010
0000
0100
0000
0010
0000
0000
0000
,
1000
0100
0010
0000
0100
0010
0001
0000
1000
0100
0010
0000
0100
0010
0001
0000
,
1000
0000
0001
0000
0100
0000
0010
0000
1000
0000
0001
0000
0010
0000
0100
0010
,
0100
0000
1000
0100
1000
0000
0001
1000
0001
1000
0001
1000
0001
0000
0000
0000
,
0100
0010
1000
0100
1000
0001
0100
0001
,
1000
0010
0100
0010
1000
0100
0010
0001
,
0100
0001
0100
0001
0000
0000
1000
0010
1000
0010
0000
1000
0000
0001
0000
0100
,
0010
0000
1000
0000
0100
0000
1000
0000
0001
0100
0001
0000
0010
0000
0000
0000
,
0001
0100
0000
0010
1000
0000
0100
1000
0000
0001
0100
0000
0010
1000
0000
0100
,
1000
0000
0001
0010
0001
0010
0001
0000
2000
0000
0000
0000
0000
0000
0100
0000
,
3100
0010
1000
0100
1000
0001
0100
0000
,
0010
0000
0100
0000
0001
0000
0000
0000
0100
0010
0000
0010
0000
0000
0100
0010
,
0000
0010
0000
0000
0100
0010
0000
0010
0000
0000
0100
0010
0000
0010
0000
0000
,
0100
0001
0100
1000
0100
0001
1000
0000
,
0001
0000
1000
0100
1000
0000
0001
0100
0001
0000
1000
0010
1000
0000
0010
0100
,
0010
0000
0100
0001
0100
0000
0001
1000
0001
0000
1000
0000
0100
0000
1000
0000
,
1001
0110
0101
1010
,
1000
0100
1000
0001
0100
0001
1000
0000
,
0010
0000
0100
0001
0100
0000
0001
1000
0001
0000
1000
0000
0100
0000
0000
0000
,
1000
0000
0010
1000
0010
0000
0100
0010
0100
0000
0001
0000
1000
0000
0000
0000
,
0100
0000
1000
0001
0100
0000
0001
0010
0100
0000
0010
0000
0001
0000
0000
0000
,
1000
0100
1000
0001
0100
0001
1000
0000
,
0100
0000
0010
1000
0010
0000
1000
0001
1000
0000
0001
0000
0010
0000
0000
0000
,
0001
0000
0100
0001
0100
0000
0010
0100
0010
0000
1000
0000
0001
0000
0000
0000
,
0010
0000
0001
1000
0010
0000
1000
0100
0010
0000
0100
0000
1000
0000
0000
0000
,
0101
1100
1010
1001
,
0010
0100
0001
0100
0001
1001
1100
0000
,
1000
0010
1000
0001
0100
0101
1100
0000
,
0010
1000
0001
1000
0100
1100
0101
0000
,
0010
0100
0001
0100
0010
1000
0100
1000
,
0001
0010
0100
1000
0001
1001
1100
0000
,
0010
1000
0001
0100
0010
0110
0101
0000
,
0010
0100
0001
1000
0100
1100
1001
0000
,
0010
1000
0010
0000
1000
0100
1000
0000
0001
0010
0001
0000
0100
0010
0100
0000
,
1000
0000
0000
0000
;

//---------------dance-single - ----------------
#NOTES:
     dance-single:
     :
     Easy:
     4:
     0.420,0.517,0.193,0.106,0.000:
0000
0000
0000
0000
,
0000
0000
0000
0000
,
0000
0000
0000
0000
,
0010
1000
0001
0100
,
0010
0100
0001
0010
,
0100
1000
0010
1000
,
0001
0100
0010
1000
,
0100
0000
1000
0000
0010
0010
0010
0000
,
1000
0000
0001
0000
0100
0100
0100
0000
,
0001
0000
1000
0000
0001
0001
0001
0000
,
0010
0001
0100
0010
,
2000
0100
0010
3001
,
0010
0001
0100
0010
,
0200
0001
0010
0301
,
0010
0001
1000
0100
,
1000
1000
1000
0000
0010
0000
1000
0000
,
0001
0100
0010
0100
,
0001
0001
0001
0000
0010
0000
0001
0000
,
1000
0010
0100
0010
,
1000
1000
0001
0001
,
1001
1001
0110
0110
,
0001
0100
1000
0100
,
0010
1000
0100
0010
,
0001
0001
0001
0000
0001
0001
0001
0000
,
1000
1000
1000
0000
1000
1000
1000
0000
,
0110
0110
1001
1001
,
0202
0303
2020
3030
,
0001
1000
0100
0010
,
0001
0100
1000
0100
,
0010
1000
0100
0010
,
0001
1000
0001
0010
,
0100
0010
0001
1000
,
0010
1000
0100
0010
,
0001
0100
1000
0100
,
0010
1000
0100
0010
,
0001
0000
1000
0000
0010
0010
0010
0000
,
1000
0000
0001
0000
0100
0100
0100
0000
,
0002
0100
0100
0103
,
2000
0100
0100
3100
,
0010
1000
0001
0100
,
0010
0100
0001
1000
,
0100
0100
0100
0100
,
0010
0001
1000
0010
,
2000
0100
0100
3100
,
0010
0000
0001
0000
1000
0000
0000
0001
,
0000
0000
0100
0000
0000
0010
0000
0000
,
0100
0001
1000
0100
,
1000
1000
0010
0010
,
0100
0100
0100
0000
0001
0001
0001
0000
,
1001
1001
0110
0110
,
2002
0000
0000
3003
,
0010
0000
0010
0000
0010
0010
0010
0000
,
1000
0000
1000
0000
1000
1000
1000
0000
,
0100
0000
0100
0000
0100
0100
0100
0000
,
0010
0000
0010
0000
0010
0010
0010
0000
,
0001
0000
0001
0000
0001
0001
0001
0000
,
0100
0000
0100
0000
0100
0100
0100
0000
,
0010
0000
0010
0000
0010
0010
0010
0000
,
1000
0000
1000
0000
1000
1000
1000
0000
,
0001
1000
0100
0100
,
1000
0000
0001
0000
0010
0010
0010
0000
,
0001
1000
0010
0100
,
0010
0000
1000
0000
0100
0100
0100
0000
,
1000
0001
0010
0001
,
1000
0000
0010
0000
1000
1000
1000
0000
,
0100
0010
0001
0100
,
0101
0101
1100
1100
,
1001
0000
0000
0000
;

//---------------dance-single - ----------------
#NOTES:
     dance-single:
     :
     Challenge:
     10:
     1.000,1.000,0.655,0.039,1.000: // measure 1
0000
0000
0000
0000
,  // measure 2
0000
0000
0000
0000
,  // measure 3
0000
0000
0000
0000
0001
1000
0001
1000
,  // measure 4
0010
0000
0100
0001
0100
0010
1000
0100
0010
0001
0100
0000
0100
0000
0010
0000
,  // measure 5
1000
0000
0100
0010
0001
1000
0010
1000
0100
0010
0001
0000
0001
0000
0100
0000
,  // measure 6
0010
0000
1000
0100
1000
0010
0100
0001
0010
0100
1000
0000
1000
0000
0001
0000
,  // measure 7
0100
0001
0100
0010
1000
0100
1000
0001
0010
0001
0010
0100
1000
0000
0001
0000
,  // measure 8
0100
0000
0010
1000
0010
0100
0001
0010
0100
1000
0010
0000
0010
0000
0100
0000
,  // measure 9
0001
0000
0010
0100
1000
0001
0100
0001
0010
0100
1000
0000
1000
0000
0010
0000
,  // measure 10
0100
0000
0001
0010
0001
0100
0010
1000
0100
0010
0001
0000
0001
0000
1000
0000
,  // measure 11
0010
1000
0010
0100
0001
0010
0001
1000
0100
1000
0100
0010
0001
0000
1000
0000
,  // measure 12
0001
0000
0100
0010
0100
0010
0100
0001
1000
0001
1000
0100
1000
0001
0010
0000
,  // measure 13
0000
0000
0001
0100
0001
0100
0010
1000
0100
1000
0001
0000
0100
0000
0010
0000
,  // measure 14
1000
0001
0100
0001
0000
0010
0001
0100
0001
0100
0010
1000
0100
1000
0010
0100
,  // measure 15
0001
1000
0001
1000
0010
0100
0010
0100
0001
0100
0001
0100
0010
1000
0010
1000
,  // measure 16
0001
0000
0100
0010
0100
0000
0001
0100
0001
0010
0100
1000
0010
0100
0001
0000
,  // measure 17
0000
0000
0101
0000
0000
1100
0000
0000
1001
0000
0000
1010
0000
0000
0101
0000
,  // measure 18
0001
0000
1000
0010
1000
0100
0010
0001
0100
0010
0100
0001
0010
0100
1000
0010
,  // measure 19
1000
0000
0001
0000
0100
0010
0100
0001
1000
0100
1000
0010
0100
0001
1000
0000
,  // measure 20
0101
0000
1001
0000
1010
0000
0110
0000
0001
0100
0001
0000
1000
0010
1000
0000
,  // measure 21
0001
0100
0010
0000
1000
0100
0010
0000
0001
0000
0100
0010
0100
0010
2000
0000
,  // measure 22
0100
0000
0010
0000
3001
0101
1100
1001
,  // measure 23
0001
0000
0000
0001
0100
0000
0000
0100
0010
0000
0000
0010
1000
0000
0000
1000
,  // measure 24
0001
0000
0100
0010
0100
0000
0001
0010
0001
0000
1000
0000
0010
0100
0000
0010
,  // measure 25
0000
0000
0100
0001
0100
0000
0010
1000
0100
0000
0010
0000
0001
0000
1000
0000
,  // measure 26
1010
0000
0101
0000
1001
1000
1010
0000
,  // measure 27
0102
0103
1001
1010
,  // measure 28
0100
0000
0010
1000
0010
0100
0001
0010
0100
1000
0010
0000
0010
0000
0100
0000
,  // measure 29
0001
0000
0010
0100
1000
0001
0100
0001
0010
0100
1000
0000
1000
0000
0010
0000
,  // measure 30
0100
0000
0001
0010
0001
0100
0010
1000
0100
0010
0001
0000
0001
0000
1000
0000
,  // measure 31
0010
1000
0010
0100
0001
0010
0001
1000
0100
1000
0100
0010
0001
0000
1000
0000
,  // measure 32
0010
0000
0100
0001
0100
0010
1000
0100
0010
0001
0100
0000
0100
0000
0010
0000
,  // measure 33
1000
0000
0100
0010
0001
1000
0010
1000
0100
0010
0001
0000
0001
0000
0100
0000
,  // measure 34
0010
0000
1000
0100
1000
0010
0100
0001
0010
0100
1000
0000
1000
0000
0001
0000
,  // measure 35
0100
0001
0100
0001
1000
0100
1000
0100
0010
0001
0010
0001
1000
0010
1000
0010
,  // measure 36
0100
0000
0001
0100
0001
1000
0100
0010
0001
1000
0010
1000
0100
0000
1000
0010
,  // measure 37
0100
0000
0001
0010
0100
0000
0010
0001
1000
0100
1000
0100
0000
1000
0100
0000
,  // measure 38
1000
0000
0010
0100
0010
1000
0100
0010
0001
0000
0100
0001
0100
0000
0010
1000
,  // measure 39
0100
0000
1000
0000
0000
0001
0100
0001
0010
0001
1000
0000
1001
0000
0000
0000
,  // measure 40
1000
0100
0010
0001
0000
0000
0100
0001
0100
0001
0010
0100
0000
0100
0000
0010
,  // measure 41
0001
0100
0001
1000
0100
0010
0001
0100
0010
1000
0100
1000
0001
0000
0000
0000
,  // measure 42
0100
0010
0000
1000
0100
0000
0001
0100
0000
0010
1000
0000
0100
0010
0000
0001
,  // measure 43
0010
0000
0001
0100
0001
0010
0100
0000
2200
0000
0000
0000
0300
0000
0100
0000
,  // measure 44
3100
0000
0010
0001
0010
0001
0100
0010
1000
0100
0000
1100
0000
0000
1000
0001
,  // measure 45
1000
0000
0010
0100
0010
1000
0001
0010
0100
1000
0000
1000
0000
0000
0010
0100
,  // measure 46
0000
0100
0000
0000
0001
0010
0000
0010
0000
0000
0001
0100
0000
0100
0000
0000
,  // measure 47
0010
0000
1000
0001
1000
0100
0010
0001
0100
0010
1000
0000
1010
0000
0000
0000
,  // measure 48
0101
0000
0001
0100
0001
0000
1000
0100
1000
0000
0010
0100
0010
0000
1000
0001
,  // measure 49
0100
0000
0010
1000
0100
0000
1000
0100
0010
0000
0001
0000
0100
0000
0001
0000
,  // measure 50
1001
0000
0101
0000
1010
1000
1001
0000
,  // measure 51
0101
1100
1001
1010
0011
1001
0101
0000
,  // measure 52
1001
0000
0010
1000
0100
1000
0001
0100
0001
0000
0101
0000
1100
0000
0000
0000
,  // measure 53
0101
0000
0100
0010
1000
0100
1000
0001
0100
0000
0101
0000
1001
0000
0000
0000
,  // measure 54
1010
0000
0100
0010
0100
0001
1000
0001
0100
0000
1100
0000
0101
0000
0000
0000
,  // measure 55
0101
0000
1001
0000
0100
0010
0100
0000
0001
0000
0010
0000
0100
0000
1000
0000
,  // measure 56
1001
0000
0100
0001
0010
0001
1000
0010
1000
0000
1010
0000
0011
0000
0000
0000
,  // measure 57
1010
0000
0010
0100
0001
0010
0001
1000
0010
0000
1010
0000
1001
0000
0000
0000
,  // measure 58
0101
0000
0010
0100
0010
1000
0001
1000
0010
0000
0011
0000
1010
0000
0000
0000
,  // measure 59
0101
1100
0110
1001
,  // measure 60
1000
0001
1000
0010
0100
0001
0010
0100
1000
0001
0100
0010
1000
0100
0010
0001
,  // measure 61
0100
0010
0100
0001
0010
0001
1000
0100
1000
0010
0100
0010
1000
0100
0010
0001
,  // measure 62
0100
0010
1000
0100
1000
0010
0100
0001
0010
0001
0100
0010
1000
0100
0010
0001
,  // measure 63
0100
0001
1000
0100
1000
0010
0100
0001
1000
0100
0010
0001
0100
0010
1000
0100
,  // measure 64
0001
0100
1000
0010
1000
0100
0010
0001
0100
0010
1000
0100
1000
0010
0100
0001
,  // measure 65
0010
0001
0100
0010
1000
0100
1000
0001
1000
0100
0010
0001
0100
0010
1000
0100
,  // measure 66
0010
0001
0100
0010
1000
0100
1000
0010
0100
0001
0010
0001
0100
0010
1000
0000
,  // measure 67
0110
0101
1100
1001
0011
1100
1010
0101
,  // measure 68
0110
0000
0000
0000
;
