#TITLE:Stronger;
#SUBTITLE:;
#ARTIST:ShadyVox;
#TITLETRANSLIT:;
#SUBTITLETRANSLIT:;
#ARTISTTRANSLIT:;
#CREDIT:;
#BANNER:Stronger-bn.png;
#BACKGROUND:Stronger-bg.png;
#LYRICSPATH:;
#CDTITLE:;
#MUSIC:Stronger.mp3;
#OFFSET:-0.100;
#SAMPLESTART:69.220;
#SAMPLELENGTH:18.500;
#SELECTABLE:YES;
#BPMS:0.000=104.280,36.000=52.140,38.000=104.280,51.000=104.000,144.000=52.000,146.000=104.000;
#DISPLAYBPM:104;
#STOPS:51.000=1.160
,115.000=0.010
;
#BGCHANGES:0.000=Stronger.avi=1.000=1=0=1,
99999=-nosongbg-=1.000=0=0=0 // don't automatically add -songbackground-
;

//---------------dance-single - ----------------
#NOTES:
     dance-single:
     :
     Beginner:
     1:
     0.076,0.122,0.046,0.000,0.000:
0000
0000
0000
0000
,
0000
0000
0000
0000
,
1000
0000
0000
0000
,
0100
0000
0000
0000
,
1000
0000
0000
0000
,
0010
0000
0000
0000
,
0100
0000
0000
0000
,
0001
0000
0000
0000
,
0010
0000
0000
0000
,
0000
0000
0001
0000
,
0000
0000
0001
0000
,
0000
0000
1000
0000
,
0000
0000
1000
0000
,
0000
0000
0000
0000
,
0100
0100
0100
0000
,
0100
0000
0000
0000
,
0010
0000
0010
0000
,
0010
0000
0000
0000
,
1000
0000
0000
0000
,
0001
0000
0000
0000
,
1000
0000
1000
0000
,
1001
0000
0000
0000
,
1001
0000
0000
0000
,
0110
0000
0000
0000
,
0110
0000
0000
0000
,
0100
0000
0000
0000
,
0010
0000
0010
0000
,
0010
0000
0000
0000
,
1001
0000
0000
0000
,
0100
0100
0100
0000
,
0100
0000
0000
0000
,
0010
0010
0010
0000
,
0010
0000
0000
0000
,
1000
0000
0000
0000
,
0001
0000
0000
0000
,
0100
0000
0000
0000
,
0010
0000
0010
0000
,
0000
0000
1000
0000
,
0000
0000
0001
0000
,
0000
0000
1000
0000
,
0000
0000
0100
0000
,
0000
0000
0010
0000
,
0000
0000
0001
0000
,
0000
0000
0100
0000
,
0100
0000
0000
0000
;

//---------------dance-single - ----------------
#NOTES:
     dance-single:
     :
     Medium:
     4:
     0.278,0.329,0.167,0.241,0.000:
0000
0000
0000
0000
,
0000
0000
0000
0000
,
0100
0100
0010
1000
,
0001
0001
1000
0100
,
1000
1000
0010
0100
,
0010
0010
0100
0001
,
1000
0100
0010
0001
,
0100
0010
1000
0001
,
1000
0001
0100
0010
,
2000
0000
3001
1000
,
0100
0100
0100
0000
1000
0000
0010
0000
,
0100
0100
0100
0000
0010
0000
1000
0000
,
0001
0001
0001
0000
2002
0000
3003
0000
,
2010
3100
1000
0001
,
0100
0000
0010
0000
0100
0100
0100
0000
,
0001
1000
0100
1000
,
0010
0000
1000
0000
0001
0001
0001
0000
,
1000
1000
1000
0000
0010
0000
1000
0000
,
0001
0100
0010
0100
,
0001
0001
0001
0000
0010
0000
0001
0000
,
1000
1000
1000
0000
0100
0000
1000
0000
,
0220
0330
0000
0000
,
0202
0303
0000
0000
,
2020
3030
0000
0000
,
0220
0330
0000
0000
,
2100
3001
0000
0100
,
1020
0130
0000
0001
,
0021
0130
0000
0001
,
2200
0000
0000
3300
,
0210
0010
0010
0310
,
1002
1000
1000
1003
,
2100
0100
0100
3100
,
0210
0310
2001
3001
,
0102
0100
0100
0103
,
2100
0100
0100
3100
,
0210
0010
0010
0310
,
0002
0000
0103
0010
,
1000
1000
1000
0000
0100
0000
1000
0000
,
0001
0001
0001
0000
0010
0000
0001
0000
,
0100
0100
0100
0000
0010
0000
1000
0000
,
0010
0010
0010
0000
1000
0000
0001
0000
,
0100
0100
0100
0000
0001
0000
1000
0000
,
0100
0100
0100
0000
1000
0000
0010
0000
,
0100
0100
0100
0000
0001
0000
1000
0000
,
0100
0100
0100
0100
0000
0000
0000
0000
;

//---------------dance-single - ----------------
#NOTES:
     dance-single:
     :
     Hard:
     6:
     0.382,0.391,0.260,0.093,0.000: // measure 1
0000
0000
0000
0000
,  // measure 2
0000
0000
0000
0000
,  // measure 3
0001
0100
0010
0100
,  // measure 4
0001
1000
0100
0001
,  // measure 5
1000
0010
0100
0001
,  // measure 6
1000
0001
0010
0001
,  // measure 7
0101
0000
0010
0000
1000
0100
0001
0000
,  // measure 8
1010
0000
0100
0000
0001
0010
1000
0000
,  // measure 9
0110
0000
1000
0000
0001
0100
0010
0000
,  // measure 10
0200
0000
0000
0000
0310
0010
1000
0000
,  // measure 11
0001
1000
0100
0000
0010
0010
0001
0001
,  // measure 12
0100
0100
1000
0000
0100
0010
0100
0000
,  // measure 13
0001
1000
0001
0000
0100
0100
1000
0000
,  // measure 14
0210
0000
0301
0000
0100
0001
1000
0000
,  // measure 15
0100
0100
1000
1000
0010
0010
0100
0000
,  // measure 16
0001
1000
0001
1000
0001
0100
0001
0000
,  // measure 17
1000
0001
1000
0001
1000
0100
1000
0000
,  // measure 18
0110
0110
0110
0000
0001
1000
0001
0000
,  // measure 19
1100
0000
0101
0000
1000
0001
0100
0000
,  // measure 20
0010
0100
0001
0100
1000
0100
0010
0000
,  // measure 21
1000
0100
0010
0001
0100
0001
1000
0000
,  // measure 22
2001
0100
0000
3100
,  // measure 23
1002
0100
0000
0103
,  // measure 24
1001
0001
0100
1000
0100
0001
1000
0000
,  // measure 25
1100
1000
0010
0100
0001
1000
0001
0000
,  // measure 26
0100
0100
0010
0100
0001
0100
1000
0100
,  // measure 27
0010
0010
1000
0010
0001
0010
1000
0010
,  // measure 28
0100
0000
0001
0000
1000
0100
0001
0000
,  // measure 29
1100
0000
0001
0000
0100
0010
0100
0000
,  // measure 30
0201
0010
1000
0310
,  // measure 31
2100
0010
0001
3100
,  // measure 32
0012
0100
1000
0013
,  // measure 33
2010
3100
0102
1003
,  // measure 34
1010
1000
0100
1000
0001
0010
0100
1000
,  // measure 35
1010
1000
0001
0100
0010
0100
0001
1000
,  // measure 36
1001
1000
0100
0010
0001
0100
0010
0100
,  // measure 37
0002
0000
0000
0000
0103
0010
1000
0010
,  // measure 38
0100
0010
1000
0010
0100
0001
0100
0010
,  // measure 39
0100
0001
0100
0010
1000
0100
1000
0001
,  // measure 40
1000
0100
1000
0010
0001
1000
0001
0100
,  // measure 41
0001
0010
0001
1000
1001
0000
1100
0000
,  // measure 42
0010
1000
0001
0100
0101
0000
1100
0000
,  // measure 43
0001
1000
0010
1000
1010
0000
0101
0000
,  // measure 44
1000
0100
0010
0001
0100
0100
0001
0001
,  // measure 45
1000
1000
0100
0100
0000
0000
0000
0000
;

//---------------dance-single - ----------------
#NOTES:
     dance-single:
     :
     Easy:
     2:
     0.125,0.164,0.074,0.093,0.000:
0000
0000
0000
0000
,
0000
0000
0000
0000
,
1000
0000
1000
0000
,
0001
0000
0001
0000
,
0100
0000
0100
0000
,
0010
0000
0010
0000
,
0100
0000
0100
0000
,
0001
0000
0001
0000
,
0010
0000
0010
0000
,
0002
0000
1003
0000
,
1000
0000
0010
0000
,
0010
0000
0001
0000
,
0001
0000
0100
0000
,
0100
0000
0010
0000
,
1000
0000
1000
0000
,
0010
0000
1000
0000
,
0001
0000
0001
0000
,
0010
0000
0001
0000
,
0100
0000
0100
0000
,
0010
0000
1000
0000
,
0100
0000
0100
0000
,
1001
0000
0000
0000
,
0110
0000
0000
0000
,
1001
0000
0000
0000
,
0101
0000
0000
0000
,
1010
0000
0100
0000
,
0110
0000
0100
0000
,
0101
0000
0001
0000
,
1001
0000
0000
0000
,
0200
0000
0000
0000
,
0320
0000
0000
0000
,
2030
0000
0000
0000
,
3200
0000
0320
0000
,
0032
0000
0000
0000
,
0203
0000
0000
0000
,
0320
0000
0000
0000
,
2030
0000
3001
0000
,
0001
0000
1000
0000
,
1000
0000
0010
0000
,
0010
0000
0100
0000
,
0100
0000
0001
0000
,
1000
0000
0100
0000
,
1000
0000
0010
0000
,
0100
0000
0001
1000
,
0001
1000
0000
0000
;
