#TITLE:Sexy and I Know It;
#SUBTITLE:;
#ARTIST:LMFAO;
#TITLETRANSLIT:;
#SUBTITLETRANSLIT:;
#ARTISTTRANSLIT:;
#CREDIT:;
#BANNER:Sexy and I Know It-bn.png;
#BACKGROUND:Sexy and I Know It-bg.png;
#LYRICSPATH:;
#CDTITLE:;
#MUSIC:Sexy and I Know It.mp3;
#OFFSET:-0.030;
#SAMPLESTART:57.288;
#SAMPLELENGTH:17.280;
#SELECTABLE:YES;
#BPMS:0.000=130.000,112.000=260.000,136.000=65.000,138.000=130.000;
#STOPS:167.000=0.920
;
#BGCHANGES:-0.400=Sexy and I Know It.avi=1.000=1=0=0,
296.500=Sexy and I Know It-bg.png=1.000=0=0=1,
99999=-nosongbg-=1.000=0=0=0 // don't automatically add -songbackground-
;

//---------------dance-single - ----------------
#NOTES:
     dance-single:
     :
     Beginner:
     3:
     0.130,0.186,0.065,0.000,0.000:
0000
0000
0000
0000
,
0000
0000
0000
0000
,
0000
0000
0000
0000
,
0000
0000
0000
0000
,
1000
0000
0000
0000
,
0010
0000
0000
0000
,
1000
0000
0000
0000
,
0100
0000
0000
0000
,
0010
0000
0000
0000
,
0000
0000
0000
0000
,
0001
0000
0000
0000
,
0000
0000
0000
0000
,
1000
0000
0000
0000
,
0000
0000
0000
0000
,
0010
0000
0000
0000
,
0000
0000
0000
0000
,
0100
0100
0100
0000
,
0001
0001
0001
0000
,
1000
1000
1000
0000
,
0100
0100
0100
0000
,
0010
0010
0010
0000
,
0001
0001
0001
0000
,
1000
1000
1000
0000
,
0010
0010
0010
0000
,
1000
0000
1000
0000
,
0001
0001
0001
0000
,
0010
0000
0010
0000
,
0100
0100
0100
0000
,
1000
0000
0000
0000
,
0001
0000
0000
0000
,
0100
0000
0100
0000
,
0100
0000
0000
0000
,
0010
0000
0000
0000
,
1000
0000
0000
0000
,
0001
0000
1001
0000
,
0000
0000
0100
0000
,
0100
0000
0100
0000
,
0000
0000
0010
0000
,
0010
0000
0010
0000
,
0000
0000
1000
1000
,
1000
0000
1000
0000
,
0000
0000
0000
1001
,
0000
0100
0100
0000
,
0000
0010
0010
0000
,
0000
1000
1000
0000
,
0000
0001
0001
0000
,
1000
0000
1000
0000
,
1000
0000
1000
0000
,
0001
0000
0001
0000
,
0001
0000
0001
0000
,
0100
0000
0000
0000
,
0010
0000
0000
0000
,
1000
0000
0000
0000
,
0100
0000
0000
0000
,
0010
0000
0000
0000
,
0001
0000
0000
0000
,
1000
0000
0000
0000
,
0001
0000
0000
0000
,
0100
0100
0100
0100
,
0100
0000
0000
0000
,
0010
0010
0010
0010
,
0010
0000
0000
0000
,
1000
1000
1000
1000
,
1000
0000
0000
0000
,
0001
0001
0001
0001
,
0001
0000
0000
0000
,
1001
0000
0000
0000
,
0110
0000
0000
0000
,
1001
0000
0000
0000
,
0110
0000
0000
0000
,
1001
0000
0000
0000
,
0110
0000
0000
0000
,
1001
0000
0000
0000
,
0100
0100
0100
0100
,
0100
0000
0000
0000
;

//---------------dance-single - ----------------
#NOTES:
     dance-single:
     :
     Medium:
     6:
     0.367,0.426,0.180,0.093,0.029: // measure 1
0000
0000
0000
0000
,  // measure 2
0000
0000
0000
0000
,  // measure 3
0000
0000
0000
0000
,  // measure 4
0000
0000
0000
0000
,  // measure 5
0001
0101
0010
1000
,  // measure 6
0001
1001
1000
0100
,  // measure 7
0010
0110
0010
0001
,  // measure 8
1000
0000
0010
0100
0000
0000
0001
0100
,  // measure 9
0001
0000
1000
0100
,  // measure 10
1000
0000
0010
0000
0100
0010
0100
0000
,  // measure 11
0010
0000
1000
0100
,  // measure 12
1000
0001
1000
0000
0010
0000
0100
0000
,  // measure 13
0001
0000
0000
0000
0010
0001
0010
0000
,  // measure 14
0001
1000
0100
0000
,  // measure 15
1000
0000
0010
0000
0100
0010
0100
0000
,  // measure 16
0010
1000
0001
0000
,  // measure 17
1001
0000
0000
0000
0100
0001
0100
0000
,  // measure 18
1010
0000
0000
0000
1000
0001
1000
0000
,  // measure 19
0011
0000
0000
0000
0100
0010
0100
0000
,  // measure 20
0001
1000
0100
1000
,  // measure 21
1010
0000
0000
0000
1000
0001
1000
0000
,  // measure 22
0110
0000
0000
0000
0100
0001
0100
0000
,  // measure 23
1001
0000
0000
0000
0010
0001
0010
0000
,  // measure 24
0100
1000
0010
0100
,  // measure 25
0001
0100
0001
0000
1000
0100
1000
0000
,  // measure 26
0001
1000
0001
0000
1000
0100
1000
0000
,  // measure 27
0010
0100
0010
0000
1000
0100
1000
0000
,  // measure 28
0001
1000
0001
0000
0100
0010
0100
0000
,  // measure 29
0001
1000
0001
0000
,  // measure 30
1000
0100
1000
0000
,  // measure 31
0010
0100
0010
0000
,  // measure 32
1000
0100
1000
0000
,  // measure 33
0001
1000
0001
0000
,  // measure 34
0100
0010
0100
0000
,  // measure 35
2001
0000
0100
3100
1000
0000
0010
0000
,  // measure 36
0100
0000
0000
0100
0000
0000
0100
0000
0010
0000
0000
0000
1000
0000
0000
0000
,  // measure 37
0001
0000
0000
0001
0000
0000
0001
0000
1000
0000
0000
0000
0100
0000
0000
0000
,  // measure 38
0010
0000
0000
0010
0000
0000
0010
0000
0001
0000
0000
0000
0100
0000
0000
0000
,  // measure 39
0010
0000
0000
0010
0000
0000
0010
0000
1000
0000
0000
0000
1100
0000
0000
0000
,  // measure 40
0001
1000
0001
0000
0100
0000
0101
0000
,  // measure 41
0010
0100
0010
0000
1000
0000
1001
0000
,  // measure 42
0100
0010
0100
0000
0000
0000
1001
0000
,  // measure 43
0100
0000
0100
0000
0100
0000
0010
0000
0100
0000
0000
0110
0000
0000
0000
0000
,  // measure 44
0001
0000
0001
0000
0001
0000
1000
0000
0001
0000
0000
1001
0000
0000
0000
0000
,  // measure 45
1000
0000
1000
0000
1000
0000
0100
0000
1000
0000
0000
1100
0000
0000
0000
0000
,  // measure 46
0001
0000
0001
0000
0001
0000
0100
0000
0101
0000
0000
1001
0000
0000
0000
0000
,  // measure 47
0010
0000
1000
0000
0100
0010
0001
0000
,  // measure 48
1000
0000
0010
0000
1000
0001
0100
0000
,  // measure 49
0010
0000
1000
0000
0001
1000
0100
0000
,  // measure 50
1000
0000
0010
0000
0100
0010
0100
0000
,  // measure 51
2001
3100
0010
1000
,  // measure 52
0210
0310
0100
0001
,  // measure 53
0201
0301
0010
0100
,  // measure 54
1002
0103
0010
1000
,  // measure 55
0210
0310
1000
0001
,  // measure 56
0120
0130
0010
0001
,  // measure 57
1000
0001
1000
0000
0010
0100
0010
0000
,  // measure 58
0100
0001
0100
0000
0010
1000
0100
1000
,  // measure 59
0002
0000
0000
0000
0100
0100
0103
0000
,  // measure 60
2000
0000
0000
0000
0100
0100
3100
0000
,  // measure 61
0020
0000
0000
0000
0100
0100
0130
0000
,  // measure 62
0001
1000
0100
0000
1000
0001
1000
0000
,  // measure 63
0002
0000
0000
0000
1000
0100
1003
0000
,  // measure 64
2000
0000
0000
0000
0010
0100
3010
0000
,  // measure 65
0200
0000
0000
0000
0010
0001
0310
0000
,  // measure 66
0001
1000
0001
0000
1000
0100
1000
0000
,  // measure 67
0010
0100
0001
1000
,  // measure 68
0001
1000
0100
0010
,  // measure 69
0001
1000
0010
0100
,  // measure 70
0010
1000
0001
0010
,  // measure 71
0100
0000
1000
0000
0001
1000
0001
1000
,  // measure 72
0100
0000
1000
0000
0010
0100
0010
0100
,  // measure 73
0010
0000
1000
0000
0100
1000
0100
1000
,  // measure 74
0001
0000
1000
0000
0010
0010
0010
0010
,  // measure 75
0010
0010
0000
0000
0000
0000
0000
0000
;

//---------------dance-single - ----------------
#NOTES:
     dance-single:
     :
     Hard:
     9:
     0.596,0.692,0.338,0.287,0.248:
0000
0000
0000
0000
,
0000
0000
0000
0000
,
0000
0000
0000
0000
,
0000
0000
0000
0000
,
0010
0000
0000
1000
0100
0000
1000
0000
0000
0000
0000
0001
0100
0000
0001
0000
,
0100
0000
0000
0100
0010
0000
0100
0000
0000
0000
0000
0001
0010
0000
0001
0000
,
1000
0000
0000
1000
0100
0000
1000
0000
0000
0000
0000
0010
0100
0000
0010
0000
,
1000
0000
0001
1000
0000
0000
0010
0100
,
0001
0000
0000
0000
1000
0100
1000
0000
,
0010
0000
0100
0000
0001
0100
0001
0000
,
1000
0000
0000
0000
0100
1000
0100
0000
,
1000
0001
1000
0000
0010
0100
0010
0000
,
1000
0000
0001
0000
0100
0001
0100
0000
,
0010
1000
0100
0000
1000
0001
0100
0000
,
0010
0000
0000
0000
1000
0001
1000
0000
,
0100
1000
0001
0000
0010
0001
1000
0000
,
2010
0000
3100
0000
0001
1000
0100
1000
,
1020
0000
0130
0000
0010
0100
0001
1000
,
1002
0000
0103
0000
0010
0100
0001
1000
,
2100
0000
0000
0000
3000
0100
0010
0000
0110
0000
0000
0000
0001
0000
1000
0000
,
1002
0000
0103
0010
0100
0001
1000
0100
,
2100
0000
3010
1000
0001
0100
0010
1000
,
1020
0000
0130
0010
1000
0100
1000
0001
,
0000
0100
0010
0100
0000
0001
0100
0001
,
1000
0100
0010
0001
1000
0010
0100
0010
,
1000
0001
0010
1000
0010
0001
1000
0100
,
1000
0010
0100
0001
1000
0100
0010
0001
,
1000
0100
0001
0100
1000
0010
1000
0100
,
0010
0001
0010
0001
0100
0010
0100
0010
,
1000
0100
1000
0100
1000
0001
1000
0001
,
0100
0010
0100
0010
1000
0100
1000
0100
,
0010
0001
0010
0001
0100
0001
0100
0001
,
1000
0010
1000
0010
0100
0010
0100
0010
,
1000
0001
1000
0001
0100
0010
0100
0010
,
2000
0000
0000
0000
0001
0001
3001
0000
0100
0000
0010
1000
0010
0000
0100
0000
,
0101
0000
0000
1100
0000
0000
0010
1000
0001
0000
0100
0010
0100
0000
0001
0000
,
1100
0000
0000
1001
0000
0000
1000
0001
0100
0000
0010
1000
0010
0000
1000
0000
,
1100
0000
0000
1001
0000
0000
0010
0100
0001
0000
1000
0001
1000
0000
0100
0000
,
1100
0000
0000
1001
0000
0000
1010
0000
0100
0000
0001
1000
0100
0000
1000
0000
,
0010
0000
0100
0001
1000
0000
0100
0000
0010
0000
0001
0010
1000
0000
0010
0000
,
0001
0000
1000
0100
0010
0000
0001
0000
1000
0000
0010
0100
0001
0000
1000
0000
,
0001
0000
0010
0100
1000
0000
0001
0000
0000
0000
0000
0000
0101
0000
0000
0000
,
1000
0010
1000
0010
1000
0010
1000
0010
1000
0010
0000
1010
0000
0000
0000
0000
,
0010
0100
0010
0100
0010
0100
0010
0100
0010
0100
0000
1010
0000
0000
0000
0000
,
0001
1000
0001
1000
0001
1000
0001
1000
0001
1000
0000
0101
0000
0000
0000
0000
,
0010
0100
0010
0100
0010
0100
0010
0000
0110
0000
0000
1010
0000
0000
1001
0000
,
1000
0000
0100
1000
0001
0000
1000
0000
1100
0000
0000
1001
0000
0000
0010
0000
,
0100
0000
0001
1000
0100
0000
1000
0000
1001
0000
0000
0011
0000
0000
1100
0000
,
1000
0000
0010
0100
0001
0000
1000
0000
1001
0000
0000
0110
0000
0000
0011
0000
,
2000
0000
3002
0000
0100
0100
0103
0000
,
0010
1000
0000
1000
0100
0000
1000
0000
0001
0000
0000
1000
0000
0000
1100
0000
,
0100
0010
0000
0010
0001
0000
1000
0000
0010
0000
0000
1000
0000
0000
0101
0000
,
0100
0001
0000
0000
1001
0000
0100
0000
0010
0000
0000
0000
1010
0000
1000
0000
,
0001
0000
1100
1000
0010
0100
0001
1000
,
0001
0000
0110
0010
0001
1000
1010
1000
,
0001
0000
1000
0100
0001
0100
1000
0010
,
0100
0000
0110
0000
0001
0100
0101
0001
,
1000
0000
0001
0000
0100
0000
0010
0000
0000
0000
1000
0000
0100
0010
0100
0000
,
2000
0000
0000
0000
0000
0000
3010
0000
0100
0001
0100
0000
0010
0000
1000
0000
,
0002
0000
0000
0000
0000
0000
1003
0000
0100
1000
0100
0000
1000
0000
0010
0000
,
0200
0000
0000
0000
0000
0000
0310
0000
1000
0001
1000
0000
0010
0000
0100
0000
,
0200
0000
0000
0000
0300
0001
1000
0000
1001
0000
0000
0000
0000
0000
0000
0000
,
2010
0000
0000
0000
3001
0000
1000
0000
0010
0100
0010
0000
1000
0000
0100
0000
,
0210
0000
0000
0000
0310
0000
0001
0000
0100
0001
0100
0000
0001
0000
1000
0000
,
1020
0000
0000
0000
0130
0000
0001
0000
1000
0100
1000
0000
0010
0000
0100
0000
,
0102
0000
0000
0000
0003
0100
0010
0000
0110
0000
0000
0000
0000
0000
0000
0000
,
0020
2030
3200
2300
,
3002
0203
0320
0230
,
0302
2003
3200
2300
,
3020
0230
0302
2003
,
3001
1000
0200
0000
1300
0001
0200
0000
,
0310
1000
0002
0000
0013
0001
2000
0000
,
3100
0010
0002
0000
0103
0010
2000
0000
,
3001
1000
0100
0010
0001
0100
0010
1000
,
0100
0100
0000
0000
0000
0000
0000
0000
;

//---------------dance-single - ----------------
#NOTES:
     dance-single:
     :
     Easy:
     5:
     0.242,0.293,0.022,0.007,0.000:
0000
0000
0000
0000
,
0000
0000
0000
0000
,
0000
0000
0000
0000
,
0000
0000
0000
0000
,
0001
0000
1000
0100
,
1000
0000
0010
0100
,
0010
0000
1000
0001
,
1000
0000
0001
0000
,
0100
0000
0000
0000
,
0010
0000
0000
0000
,
1000
0000
0000
0000
,
0001
0000
0000
0000
,
1000
0100
0000
0000
,
1000
0001
0000
0000
,
0100
0010
0000
0000
,
0100
0001
0000
0000
,
0010
0000
0001
0100
,
0010
0000
1000
0001
,
0100
0000
0001
0010
,
0100
0000
0000
0000
,
0010
0000
0001
0010
,
0100
0000
1000
0010
,
1000
0000
0010
0100
,
0001
0000
0000
0000
,
1000
0001
0100
0010
,
1000
0100
0010
0001
,
1000
0001
0100
0010
,
1000
0100
0010
0001
,
1000
0000
0001
0000
,
0100
0000
0010
0000
,
1000
0100
1000
0000
,
0001
1000
0001
0000
,
0100
0001
0100
0000
,
0010
0100
0010
0000
,
2000
0000
3001
1000
,
0100
0100
1000
0010
,
0100
0100
0010
1000
,
0001
0001
1000
0100
,
0010
0010
0001
0100
,
0010
1000
0100
1000
,
0001
0010
0001
1000
,
0010
0100
0000
1010
,
0100
0010
0100
0010
0100
0000
0000
0000
,
0001
1000
0001
1000
0001
0000
0000
0000
,
1000
0100
1000
0100
1000
0000
0000
0000
,
0010
0100
0010
0100
0010
0000
0000
0000
,
1000
0001
1000
0010
,
0100
0010
1000
0100
,
0010
0001
1000
0001
,
0100
0010
0100
0001
,
1000
0001
1000
0000
,
0100
1000
0010
0000
,
1000
0001
0100
0000
,
0010
0100
0001
0000
,
1000
0001
1000
0000
0000
0000
0000
0000
,
0100
1000
0010
0000
0000
0000
0000
0000
,
1000
0001
0010
0000
0000
0000
0000
0000
,
0001
0010
0100
0000
0000
0000
0000
0000
,
0010
0000
0001
0000
0100
0100
0100
0000
,
0010
0000
1000
0000
0100
0100
0100
0000
,
1000
0000
0010
0000
1000
0001
1000
0000
,
1001
0000
0000
0000
,
1000
0000
0100
0000
0010
0010
0010
0000
,
0001
0000
1000
0000
0001
0001
0001
0000
,
1000
0000
0100
0000
1000
0100
1000
0000
,
1010
0000
0000
0000
,
0100
0001
1000
0100
,
0010
0001
1000
0010
,
1000
0100
0010
0001
,
1000
0001
0100
0010
,
1000
0100
1000
0010
,
1000
0001
0010
0001
,
0100
0010
1000
0100
,
0010
0000
0000
0000
0001
1000
0001
1000
,
0100
1000
0000
0000
0000
0000
0000
0000
;
