#TITLE:Renai Circulation;
#SUBTITLE:;
#ARTIST:Kana Hanazawa;
#TITLETRANSLIT:;
#SUBTITLETRANSLIT:;
#ARTISTTRANSLIT:Kana Hanazawa;
#CREDIT:;
#BANNER:;
#BACKGROUND:;
#LYRICSPATH:;
#CDTITLE:;
#MUSIC:Renai Circulation.mp3;
#OFFSET:-1.240;
#SAMPLESTART:73.180;
#SAMPLELENGTH:15.000;
#SELECTABLE:YES;
#BPMS:0.000=120.000;
#STOPS:;
#BGCHANGES:;

//---------------dance-single - ----------------
#NOTES:
     dance-single:
     :
     Beginner:
     1:
     0.110,0.146,0.067,0.000,0.000:
0000
0000
0000
0000
,
0000
0000
0000
0000
,
0000
0000
0000
0000
,
0000
0000
0000
0000
,
1000
0000
0000
0000
,
0001
0000
0000
0000
,
0100
0000
0000
0000
,
0010
0000
0000
0000
,
1000
0000
1000
0000
,
1000
0000
0000
0000
,
0001
0000
0001
0000
,
0001
0000
0000
0000
,
0010
0000
0010
0000
,
0010
0000
0000
0000
,
0100
0000
0100
0000
,
0100
0000
0000
0000
,
1001
0000
0000
0000
,
1001
0000
0000
0000
,
0100
0000
0100
0000
,
0100
0000
0000
0000
,
0110
0000
0000
0000
,
0110
0000
0000
0000
,
0010
0000
0010
0000
,
0010
0000
0000
0000
,
1000
1000
1000
0000
,
1000
0000
0000
0000
,
0001
0001
0001
0000
,
0001
0000
0000
0000
,
1000
1000
1000
0000
,
1000
0000
0000
0000
,
0110
0000
0000
0000
,
0000
0000
0000
0000
,
0100
0000
0000
0000
,
0100
0000
0000
0000
,
0010
0000
0000
0000
,
0010
0000
0000
0000
,
1001
0000
0000
0000
,
0100
0100
0100
0000
,
0010
0000
0010
0000
,
1000
0000
1000
0000
,
1001
0000
0000
0000
,
0001
0001
0001
0000
,
0100
0000
0100
0000
,
0100
0000
0000
0000
,
0010
0000
0010
0000
,
0010
0000
0010
0000
,
0100
0000
0100
0000
,
0100
0000
0100
0000
,
0001
0001
0001
0000
,
0001
0000
0000
0000
,
1000
1000
1000
0000
,
1000
0000
0000
0000
;

//---------------dance-single - ----------------
#NOTES:
     dance-single:
     :
     Medium:
     5:
     0.347,0.392,0.238,0.324,0.000:
0000
0000
0000
0000
,
0000
0000
0000
0000
,
0000
0000
0000
0000
,
0000
0000
0000
0000
,
0102
0103
0010
1000
,
0120
0130
0001
1000
,
0012
0013
2100
3100
,
0210
0000
0310
0000
1000
0001
1000
0000
,
0010
0000
0100
0000
0000
0001
1000
0000
,
0010
0000
1000
0000
0000
0100
0010
0000
,
0001
0000
0100
0000
0000
0010
1000
0000
,
0001
0000
1000
0000
0000
0100
0010
0000
,
0001
0000
1000
0000
0010
0100
0010
0000
,
1000
0000
0001
0000
0010
0100
0010
0000
,
0001
0000
0100
0000
0010
1000
0010
0000
,
1000
0000
0100
0000
0010
0001
0010
0000
,
0001
0001
1000
0000
0001
0000
1000
1000
,
0001
0000
1000
0000
0001
0100
0001
0100
,
0002
0100
0010
0103
,
2000
0100
0010
3100
,
1000
0000
0010
0010
1000
0000
0010
0000
,
1000
1000
0010
0000
0100
0001
0100
0001
,
0200
0010
1000
0301
,
0020
1000
0001
0130
,
0002
0000
0000
0000
0000
0100
0103
0000
,
2000
0000
0000
0000
0000
0010
3010
0000
,
0200
0000
0000
0000
0000
0010
0310
0000
,
0101
1100
1001
0000
,
0020
0000
0000
0000
0000
0100
0130
0000
,
0002
0000
0000
0000
0000
1000
1003
0000
,
0010
1000
0001
0100
,
0010
1000
0001
1001
,
2010
3010
0100
0001
,
0210
0310
1000
0001
,
2100
3100
0012
0013
,
0120
0000
0130
0000
0001
1000
0001
0000
,
0200
0302
2003
3010
,
0100
0010
0100
0000
0010
0000
1000
0000
,
1001
0000
0101
1000
,
0100
1000
0100
1000
0000
0110
0110
0000
,
0020
2030
3002
0103
,
0010
0100
0010
0000
0100
0000
0001
0000
,
1001
0000
1010
1010
,
0202
0000
0000
0303
,
2000
0000
0010
0000
0000
0010
3010
0000
,
0002
0000
0100
0000
0000
0100
0103
0000
,
0020
0000
0100
0000
0000
0100
0130
0000
,
1010
0011
1001
0000
,
0200
0000
0010
0000
0000
0010
0310
0000
,
2000
0000
0001
0000
0000
0001
3001
0000
,
0200
0000
0001
0000
0000
0001
0301
0000
,
0020
0000
0130
0000
;

//---------------dance-single - ----------------
#NOTES:
     dance-single:
     :
     Hard:
     7:
     0.424,0.441,0.190,0.143,0.167: // measure 1
0000
0000
0000
0000
,  // measure 2
0000
0000
0000
0000
,  // measure 3
0000
0000
0000
0000
,  // measure 4
0000
0000
0000
0000
,  // measure 5
0001
0000
0000
0100
0000
0000
0010
0000
1000
0000
0000
0100
0000
0000
1000
0000
,  // measure 6
0010
0000
0000
0100
0000
0000
0010
0000
1000
0000
0000
0100
0000
0000
0010
0000
,  // measure 7
0001
0000
0100
0001
0000
0000
0000
0000
1000
0000
0100
1000
0000
0000
0000
0000
,  // measure 8
0010
0100
0000
0010
0000
0000
2000
0000
0002
0000
0000
0000
3003
0000
0000
0000
,  // measure 9
0100
0000
0001
0000
1000
0100
0001
0000
,  // measure 10
1000
0000
0010
0000
0100
0001
1000
0000
,  // measure 11
0010
1000
0100
0000
1000
0001
0100
0000
,  // measure 12
0010
0001
0100
0000
0010
1000
0001
0000
,  // measure 13
2100
0000
0100
0000
3010
0100
0001
0000
,  // measure 14
0201
0000
0001
0000
0310
1000
0100
0000
,  // measure 15
0010
0001
0100
0001
1000
0001
0100
0000
,  // measure 16
1000
0100
1000
0001
0100
0010
1000
0000
,  // measure 17
0001
0100
0001
1000
0001
0000
1000
0100
,  // measure 18
1000
0001
1000
0000
0010
0100
0010
1000
,  // measure 19
0100
0000
0000
0100
0000
0000
1000
0000
0010
0000
0000
0010
0000
0000
1000
0000
,  // measure 20
0001
0000
0000
0001
0000
0000
0100
0000
0001
0000
1001
0000
1001
0000
0000
0000
,  // measure 21
1000
0010
1000
0001
1000
0000
0001
0010
,  // measure 22
0001
1000
0001
0000
0100
0010
0100
0001
,  // measure 23
0010
0000
0000
0010
0000
0000
0001
0000
0100
0000
0000
0100
0000
0000
0001
0000
,  // measure 24
1000
0000
0000
1000
0000
0000
0010
0000
1000
0000
0000
0000
0010
0000
0000
0000
,  // measure 25
0101
0000
1001
0000
0100
1000
0010
0100
,  // measure 26
0110
0000
0101
0000
0010
0001
0100
0010
,  // measure 27
1010
0000
1100
0000
1000
0100
0010
0001
,  // measure 28
0100
0001
1000
0010
0100
0001
1000
0100
,  // measure 29
1100
0000
0101
0000
0011
0010
0001
0000
,  // measure 30
0101
0000
1100
0000
1001
1000
0100
0001
,  // measure 31
0000
1000
0000
0001
0000
0100
0000
0010
,  // measure 32
0000
0110
0000
0101
0000
1000
0001
0000
,  // measure 33
1000
0000
0000
0010
0000
0000
0100
0000
0001
0000
0000
0010
0000
0000
0001
0000
,  // measure 34
0100
0000
0000
0010
0000
0000
0100
0000
0001
0000
0000
0010
0000
0000
0100
0000
,  // measure 35
1000
0000
0010
1000
0000
0000
0000
0000
0001
0000
0010
0001
0000
0000
0000
0000
,  // measure 36
0100
0010
0000
0100
0000
0000
0001
0000
2000
0000
0000
0000
3010
0000
0000
0000
,  // measure 37
0200
0000
0302
0000
2003
0000
3100
1000
,  // measure 38
1000
0010
0010
0100
0100
0000
0001
1000
,  // measure 39
0020
0000
0100
0000
1030
0000
0100
0010
,  // measure 40
0001
0100
0001
2000
0000
0010
3010
0000
,  // measure 41
0002
0000
2003
0000
3200
0000
0310
0001
,  // measure 42
0001
0100
0100
0010
1000
0000
0001
0100
,  // measure 43
0020
1000
0001
0100
,  // measure 44
2000
0000
0000
0000
3030
0000
0000
0100
,  // measure 45
0010
0000
0000
1000
0000
0000
0100
0000
0010
0000
0000
0001
0000
0000
0100
0000
,  // measure 46
0010
0000
0000
0100
0000
0000
0001
0000
1000
0000
0000
0100
0000
0000
1000
0000
,  // measure 47
1000
0000
0000
0010
0000
0000
0100
0000
0001
0000
0000
0010
0000
0000
0100
0000
,  // measure 48
0100
0000
0000
0010
0000
0000
0001
0000
0100
0000
0101
0000
1001
0000
0000
0000
,  // measure 49
0010
0000
0000
1000
0000
0000
0100
0000
0001
0000
0000
0100
0000
0000
1000
0000
,  // measure 50
0010
0000
0000
0100
0000
0000
0001
0000
0010
0000
0000
0001
0000
0000
1000
0000
,  // measure 51
0100
0000
0000
1000
0000
0000
0010
0000
0100
0000
0000
0001
0000
0000
1000
0000
,  // measure 52
0010
1000
0100
0001
0010
0000
0000
0000
;

//---------------dance-single - ----------------
#NOTES:
     dance-single:
     :
     Easy:
     3:
     0.238,0.270,0.162,0.238,0.000:
0000
0000
0000
0000
,
0000
0000
0000
0000
,
0000
0000
0000
0000
,
0000
0000
0000
0000
,
0001
0100
0001
0000
,
1000
0010
1000
0000
,
0010
0100
0010
0100
,
0001
1000
0001
1000
,
0100
0000
1000
0000
,
0010
1000
0100
1000
,
0001
0000
0010
0000
,
0001
0100
0010
1000
,
0100
0000
1000
0000
,
0001
0010
0001
1000
,
0100
0000
1000
0000
,
0010
0100
0010
0000
,
1100
0000
0101
0000
,
1100
0000
0101
0000
,
0010
1000
0010
1000
,
0100
1000
0001
0000
,
1100
0000
0110
0000
,
1010
0000
0011
0000
,
0100
0001
0100
0001
,
0010
0001
1000
0000
,
0020
0000
2030
0000
,
3002
0000
2003
0000
,
3200
0000
0320
0000
,
0032
0000
2003
0000
,
3020
0000
2030
0000
,
3002
0000
2003
0000
,
3200
0000
0320
0000
,
0032
0000
0000
1003
,
0010
1000
0100
0000
,
1000
0001
1000
0000
,
0001
0100
0001
0100
,
0010
1000
0010
0000
,
1100
1100
1100
0000
,
0010
1000
0010
0000
,
2002
0000
0000
3003
,
0010
0010
0010
0000
,
0101
0101
0101
0000
,
0010
1000
0010
0000
,
2002
0000
0000
3003
,
0010
1000
0010
0000
,
2000
0100
3100
0000
,
0020
0001
0031
0000
,
0002
0100
0103
0000
,
0020
0100
0130
0000
,
0001
1000
0001
1000
,
0010
0100
0010
0100
,
0001
0100
0010
1000
,
2020
0000
3030
0000
;
