#TITLE:Red Sphere, Blue Sphere;
#SUBTITLE:;
#ARTIST:chthonic;
#TITLETRANSLIT:;
#SUBTITLETRANSLIT:;
#ARTISTTRANSLIT:;
#CREDIT:;
#BANNER:Red Sphere, Blue Sphere-bn.png;
#BACKGROUND:Red Sphere, Blue Sphere-bg.png;
#LYRICSPATH:;
#CDTITLE:;
#MUSIC:Red Sphere, Blue Sphere.mp3;
#OFFSET:-0.060;
#SAMPLESTART:68.300;
#SAMPLELENGTH:14.060;
#SELECTABLE:YES;
#BPMS:0.000=130.000;
#STOPS:144.000=-0.010
,147.000=-0.010
;
#BGCHANGES:;

//---------------dance-single - ----------------
#NOTES:
     dance-single:
     :
     Beginner:
     1:
     0.092,0.148,0.045,0.000,0.000:
0000
0000
0000
0000
,
0000
0000
0000
0000
,
0000
0000
0000
0000
,
0000
0000
0000
0000
,
0010
0000
0000
0000
,
0100
0000
0000
0000
,
0001
0000
0000
0000
,
0010
0000
0000
0000
,
0001
0000
0000
0000
,
0100
0000
0000
0000
,
1000
0000
0000
0000
,
1000
0000
0000
0000
,
0110
0000
0000
0000
,
0000
0000
0000
0000
,
0000
0000
0000
0000
,
0000
0000
0000
0000
,
0001
0000
0000
0000
,
1000
0000
0000
0000
,
0100
0000
0000
0000
,
1000
0000
1000
0000
,
1000
0000
0000
0000
,
0010
0000
0000
0000
,
0100
0000
0000
0000
,
0001
0000
0001
0000
,
0001
0000
0000
0000
,
0100
0000
0000
0000
,
0010
0000
0000
0000
,
0100
0000
0000
0000
,
0010
0000
0000
0000
,
1000
0000
0000
0000
,
1000
0000
0000
0000
,
0001
0000
0000
0000
,
0100
0000
0100
0000
,
0100
0000
0000
0000
,
0010
0000
0010
0000
,
0010
0000
0000
0000
,
1001
0000
0000
0000
,
0100
0000
0100
0000
,
0100
0100
0100
0000
,
1000
0000
1000
0000
,
1000
1000
1000
0000
,
0001
0000
0001
0000
,
0001
0001
0001
0000
,
0010
0000
0010
0000
,
0010
0010
0010
0000
,
0001
0000
0000
0000
,
1000
0000
0000
0000
,
0010
0000
0000
0000
,
1000
0000
0000
0000
,
0100
0000
0000
0000
,
0010
0010
0010
0000
,
0010
0000
0000
0000
,
0001
0000
0000
0000
,
1001
0000
0000
0000
,
0110
0000
0000
0000
,
1001
0000
0000
0000
;

//---------------dance-single - ----------------
#NOTES:
     dance-single:
     :
     Medium:
     5:
     0.280,0.365,0.099,0.297,0.022: // measure 1
0000
0000
0000
0000
,  // measure 2
0000
0000
0000
0000
,  // measure 3
0000
0000
0000
0000
,  // measure 4
0000
0000
0000
0000
,  // measure 5
0010
1000
0001
0000
,  // measure 6
1000
0010
0100
0010
,  // measure 7
1000
0001
0010
0000
,  // measure 8
0001
0100
0001
0000
,  // measure 9
1010
0000
0001
1000
,  // measure 10
0010
1000
0100
0000
,  // measure 11
1000
0001
0100
0000
,  // measure 12
0010
0010
1000
0100
,  // measure 13
2000
0000
0000
0000
,  // measure 14
0000
0000
0000
0000
,  // measure 15
3002
0000
0000
0000
,  // measure 16
0000
0000
0000
0103
,  // measure 17
0210
0000
0000
0000
0310
1000
0010
0000
,  // measure 18
0100
0001
1000
0000
,  // measure 19
0021
0000
0000
0000
0031
0100
0001
0000
,  // measure 20
1000
0010
1000
0000
,  // measure 21
0210
0000
0000
0000
0301
0100
0001
0000
,  // measure 22
1000
0100
1000
0000
0001
1000
0001
0000
,  // measure 23
2010
0000
0000
0000
3010
1000
0010
0000
,  // measure 24
0100
0010
0100
0000
0001
0100
0001
0000
,  // measure 25
0020
0000
0000
0030
0020
0000
0000
0030
,  // measure 26
0200
0000
0000
0300
0200
0000
0000
0300
,  // measure 27
0002
0000
0000
0003
0002
0000
0000
0003
,  // measure 28
2000
0000
0000
3000
2000
0000
0000
3000
,  // measure 29
0010
0010
0010
0010
,  // measure 30
1000
1000
1000
1000
,  // measure 31
0001
0001
0001
0001
,  // measure 32
0100
0100
0100
0100
,  // measure 33
0001
0010
0000
0001
0000
1000
0000
0010
,  // measure 34
0000
0100
0000
0010
0000
1000
0000
0001
,  // measure 35
0000
1000
0000
0100
0000
0010
0000
0001
,  // measure 36
0000
1000
0000
0010
0000
0100
0000
0001
,  // measure 37
0200
0000
0020
0330
,  // measure 38
0010
1000
0100
1000
,  // measure 39
0002
0203
0320
0000
,  // measure 40
0130
0001
1000
0001
,  // measure 41
0020
0032
2003
0000
,  // measure 42
3100
1000
0010
0100
,  // measure 43
0020
2030
3200
0000
,  // measure 44
1300
0010
0100
0001
,  // measure 45
1000
0001
1000
0001
,  // measure 46
0100
0000
0000
0100
0000
0000
0000
0000
0100
0000
0000
0100
0000
0000
0000
0000
,  // measure 47
0100
0000
0000
0100
0000
0000
0000
0000
0200
0000
0000
0000
0300
0000
0000
0000
,  // measure 48
0010
0000
0000
0010
0000
0000
0000
0000
0010
0000
0000
0010
0000
0000
0000
0000
,  // measure 49
0010
0010
0020
0030
,  // measure 50
1000
0001
0100
0010
,  // measure 51
1000
0000
0010
0000
0100
0000
0001
0100
,  // measure 52
0001
0010
0001
1000
,  // measure 53
0100
1000
0100
0000
1000
0001
1000
0000
,  // measure 54
0110
0000
0101
1100
,  // measure 55
2002
0000
0000
3003
,  // measure 56
0220
0000
0000
0000
,  // measure 57
0000
0000
0000
0330
,  // measure 58
0202
0000
0000
0000
,  // measure 59
0303
0000
0000
0000
;

//---------------dance-single - ----------------
#NOTES:
     dance-single:
     :
     Hard:
     8:
     0.496,0.766,0.153,0.144,0.400:
0000
0000
0000
0000
,
0000
0000
0000
0000
,
0000
0000
0000
0000
,
0000
0000
0000
0000
,
0010
1000
0100
0000
1000
0001
0100
0000
,
0001
0010
0100
0010
0001
1000
0010
0000
,
1000
0001
0100
0000
0010
0100
0001
0000
,
0010
0100
1000
0001
1000
0010
0100
0000
,
0101
0000
0010
1000
0100
0000
1000
0001
,
0100
0000
0010
0100
0001
0100
0010
0000
,
1010
0000
1000
0100
1000
0000
0001
1000
,
0100
0000
1000
0100
0010
0001
0100
0000
,
2002
0000
0000
0003
,
0200
0000
0000
3000
,
0020
0000
0000
0300
,
0002
0000
0000
0000
0000
0000
0000
0000
0030
0000
0000
0000
0103
0000
0100
0001
,
0100
0000
0010
1000
0000
0001
0000
1000
0000
0100
1000
0000
0001
0000
0100
0000
,
0010
0000
0100
0001
0000
0010
0000
0100
0000
1000
0001
0000
0100
0000
0000
0000
,
0010
0000
1000
0100
0000
1000
0000
0001
0000
0100
0010
0000
0100
0000
0001
0000
,
1000
0000
0100
0010
0000
0001
0000
1000
0000
0100
1000
0000
0001
0000
0000
0000
,
0100
0000
0010
0100
0000
0001
0000
1000
0000
0100
1000
0000
0001
0000
0100
0000
,
0010
0000
0100
0001
0000
0010
0000
1000
0000
0010
0001
0000
1000
0000
0000
0000
,
0010
0000
1000
0100
0000
1000
0000
0001
0000
0100
0010
0000
1000
0000
0100
0000
,
1000
0000
0001
0010
0000
0100
0000
0010
0000
0001
1000
0000
0010
0000
0000
0000
,
0100
0001
1000
0010
0100
0001
1000
0010
,
1000
0100
0010
0001
1000
0100
0010
0001
,
0100
0001
1000
0010
0100
0001
1000
0010
,
1000
1000
0001
0001
1000
1000
0001
0001
,
0101
0100
0010
1000
0100
1000
0001
0010
,
0100
1000
0010
0100
0010
1000
0100
1000
,
1010
0100
0001
1000
0100
1000
0001
0010
,
0001
0100
0010
0100
0001
1000
0100
0010
,
0001
0010
0001
0000
1000
0100
1000
0000
0010
0100
0010
0000
1000
0100
1000
0000
,
0001
0100
0001
0000
1000
0100
1000
0000
0010
0100
0010
0000
1000
0100
1000
0000
,
0001
0010
0001
0010
0001
0100
0001
0000
1000
0100
1000
0100
1000
0001
1000
0000
,
0010
0100
0010
0100
0010
1000
0010
0000
1000
0001
1000
0001
1000
0100
1000
0000
,
0020
0000
1000
0130
,
0001
0000
0000
1000
0000
0000
0100
0000
1000
0000
0010
0100
0000
0010
0000
0000
,
1010
0101
2001
3100
,
0010
0000
0000
1000
0000
0000
0001
0000
0010
0000
0100
0010
0000
0001
0000
0000
,
0011
1001
0210
1300
,
0100
0000
0000
0010
0000
0000
1000
0000
0100
0000
1000
0001
0000
0100
0000
0000
,
0110
0101
2001
3001
,
1000
0000
0000
0100
0000
0000
1000
0000
0001
0000
0100
0010
0000
1000
0100
1000
,
0001
0001
0100
0010
1010
0000
0101
0000
,
0010
0000
0000
0010
0000
0000
1000
0100
0010
0000
0000
0010
0000
0000
0001
0100
,
0010
0000
0000
0010
0000
0000
1000
0000
0200
0000
0000
0000
0300
0000
0000
0000
,
1000
0000
0000
1000
0000
0000
0010
0100
1000
0000
0000
1000
0000
0000
0001
0010
,
1000
0000
0000
1000
0000
0000
0020
0000
0000
0000
0000
0000
0130
0000
0000
0000
,
0010
0000
0000
0010
0000
0000
0001
1000
0010
0000
0000
0010
0000
0000
1000
0100
,
0010
0000
0000
0010
0000
0000
0001
0000
0200
0000
0000
0000
0300
0000
0000
0000
,
0000
0000
1000
0000
0001
0000
0000
0100
0010
0000
0010
1000
0000
1000
0100
0000
,
0000
0000
1000
0000
0001
0000
0000
0010
0001
0000
0001
0100
0000
0100
0010
0000
,
1000
0000
0000
0000
0000
0000
0001
1000
0100
0000
0000
1000
0000
0000
0001
0000
,
0020
0000
0000
0030
,
0202
0000
0000
0000
,
0000
0000
0000
0300
,
2000
0000
0000
0000
,
0000
0000
0000
3003
;

//---------------dance-single - ----------------
#NOTES:
     dance-single:
     :
     Easy:
     3:
     0.194,0.231,0.027,0.234,0.000:
0000
0000
0000
0000
,
0000
0000
0000
0000
,
0000
0000
0000
0000
,
0000
0000
0000
0000
,
0010
0000
1000
0000
,
0010
0100
0010
0000
,
0100
0000
0001
0000
,
0010
0001
0010
0000
,
0001
0000
1000
0000
,
0010
1000
0010
0000
,
1000
0000
0001
0000
,
0100
0010
0100
0000
,
2002
0000
0000
0000
,
0000
0000
3003
0000
,
0220
0000
0000
0000
,
0000
0000
0330
0000
,
0001
0100
0001
0000
,
1000
0001
1000
0000
,
0010
0000
0010
0000
,
1000
0000
1000
0000
,
0100
0100
0010
0010
,
0100
0100
0010
0000
,
0001
0001
0100
0100
,
0001
0001
0100
0000
,
0020
0000
2030
0000
,
3200
0000
2300
0000
,
3002
0000
0023
0000
,
0032
0000
0203
0000
,
0320
0000
0230
0000
,
0302
0000
2003
0000
,
3200
0000
0320
0000
,
0032
0000
0203
0000
,
0310
0010
0010
0010
,
0100
0100
0100
0100
,
0001
0001
0001
0001
,
1000
1000
1000
1000
,
0000
0000
0000
0000
,
1000
0000
0001
0000
,
0100
0100
0100
0000
,
0001
0000
1000
0000
,
0100
0100
0100
0000
,
1000
0000
0010
0000
,
0100
0100
0100
0000
,
0001
0000
1000
0000
,
0001
0001
0001
0001
,
0002
0003
0002
0003
,
1000
0001
1000
0000
,
0020
0030
0020
0030
,
0100
0010
0100
0000
,
0010
0000
1000
0000
,
0100
0000
1000
0000
,
0001
0000
0010
0000
,
0001
0000
0100
0000
,
0010
0000
1000
0001
,
1000
0000
0000
0000
,
2002
0000
0000
0000
,
0000
0000
0000
0000
,
3003
0000
0000
0000
;
