#TITLE:Purple Haze (Breaks Mix);
#SUBTITLE:;
#ARTIST:Jimi Hendrix;
#TITLETRANSLIT:;
#SUBTITLETRANSLIT:;
#ARTISTTRANSLIT:;
#CREDIT:;
#BANNER:Purple Haze (Breaks Mix)-bn.png;
#BACKGROUND:Purple Haze (Breaks Mix)-bg.png;
#LYRICSPATH:;
#CDTITLE:;
#MUSIC:Purple Haze (Breaks Mix).mp3;
#OFFSET:-0.020;
#SAMPLESTART:77.667;
#SAMPLELENGTH:14.880;
#SELECTABLE:YES;
#BPMS:0.000=126.810,162.000=126.770;
#STOPS:162.000=0.540
;
#BGCHANGES:;

//---------------dance-single - ----------------
#NOTES:
     dance-single:
     :
     Beginner:
     1:
     0.082,0.121,0.028,0.000,0.000:
0000
0000
0000
0000
,
0000
0000
0000
0000
,
0000
0000
0000
0000
,
0000
0000
0000
0000
,
0010
0000
0000
0000
,
1000
0000
0000
0000
,
0001
0000
0000
0000
,
1000
0000
0000
0000
,
0100
0000
0000
0000
,
1000
0000
1000
0000
,
1000
0000
0000
0000
,
0010
0000
0000
0000
,
0100
0000
0000
0000
,
0001
0000
0001
0000
,
0001
0000
0000
0000
,
0000
0000
0100
0000
,
0100
0000
0100
0000
,
0100
0000
0000
0000
,
0010
0000
0000
0000
,
1000
0000
0000
0000
,
0001
0000
0000
0000
,
1000
1000
0000
0000
,
0010
0010
0000
0000
,
1000
1000
0000
0000
,
0001
0001
0000
0000
,
0100
0000
0000
0000
,
0100
0000
0000
0000
,
0001
0000
0000
0000
,
0001
0000
0000
0000
,
1000
0000
0000
0000
,
1000
0000
0000
0000
,
0010
0000
0000
0000
,
0010
0000
0000
0000
,
1001
0000
0000
0000
,
0100
0000
0000
0000
,
0010
0000
0000
0000
,
0100
0000
0000
0000
,
0001
0000
0000
0000
,
1000
0000
0000
0000
,
1001
0000
0000
0000
,
0000
0000
0000
0000
,
0000
0100
0000
0100
,
0000
0000
0000
0010
,
0000
0010
0000
0010
,
0000
0000
0000
1000
,
0000
1000
0000
1000
,
0000
0000
0000
0001
,
0000
0001
0000
0001
,
0000
0000
0000
1001
,
0000
0000
0000
0100
,
0000
0000
0000
0010
,
0000
0000
0000
0100
;

//---------------dance-single - ----------------
#NOTES:
     dance-single:
     :
     Medium:
     5:
     0.284,0.320,0.056,0.075,0.000:
0000
0000
0000
0000
,
0000
0000
0000
0000
,
0000
0000
0000
0000
,
0000
0000
0000
0000
,
0010
1000
0001
0000
0000
0100
0010
0000
,
1000
0100
0010
0000
0000
0001
1000
0000
,
0010
0100
0001
0000
0000
0010
0001
0000
,
0100
0010
1000
0000
0000
0010
0100
0000
,
0000
0000
0001
1000
0000
0000
0000
0010
,
0100
0010
0100
0000
0000
0000
0000
0000
,
0000
0000
1000
0100
1000
0100
0000
0000
,
1000
0001
1000
0000
0000
0000
0000
0000
,
0000
0000
0010
0100
0010
0000
0000
0100
,
0001
0100
0001
0000
0000
0000
0000
0000
,
2002
0000
0000
3003
,
0000
0000
0000
0000
0100
0010
0100
0000
,
0001
1000
0001
0000
0100
0010
0100
0000
,
0001
0000
0100
0100
0000
0000
0010
0000
,
1000
0000
0001
0001
0000
0000
0010
0000
,
0001
0000
1000
1000
0000
0000
0010
0000
,
1000
0000
0100
0100
0000
0000
1000
0000
,
0010
0000
1000
0001
0000
0000
0010
0000
,
0001
0000
0100
0001
0000
0000
0010
0000
,
0001
0000
1000
0010
0000
0000
0100
0000
,
0010
0000
1000
0100
0000
0000
1100
0000
,
0010
1000
0020
0000
0000
0000
0030
0000
,
1000
0001
2000
0002
0000
0000
3003
0000
,
0100
0010
0200
0000
0000
0000
0300
0000
,
0001
0100
0002
0200
0000
0000
0303
0000
,
0010
0000
1000
0000
0001
1000
0001
0000
,
0010
0000
0001
0000
1000
0001
1000
0000
,
0010
0000
1000
0000
0001
1000
0001
0000
,
0010
0000
0001
0000
1000
0001
1000
0000
,
0001
0000
1000
0000
,
0001
0000
1000
0000
,
0001
0000
1000
0000
,
0001
0000
1000
0000
,
0001
1000
0001
1000
,
0001
1000
0001
1000
,
0001
1000
0001
1000
0001
1000
0001
1000
,
0001
1000
0001
1000
0001
0000
0101
0000
,
0100
0010
1000
0100
,
1000
0000
0001
1000
0001
0000
1100
0000
,
1000
0010
0100
0010
,
1000
0000
0001
1000
0001
0000
0100
0100
,
0100
0000
1001
0100
,
1000
0000
0010
0000
1000
0000
0001
0001
,
0001
0000
1100
1000
,
0010
0100
0001
0100
,
0100
0000
0010
1000
0010
0000
1000
0000
,
0001
1000
0100
1000
,
1000
0000
0001
0010
0001
0000
0100
0000
,
0010
0000
1000
0100
0100
0000
0000
0000
;

//---------------dance-single - ----------------
#NOTES:
     dance-single:
     :
     Challenge:
     8:
     0.526,0.626,0.375,0.103,0.234:
0000
0000
0000
0000
,
0000
0000
0000
0000
,
0000
0000
0000
0000
,
0000
0000
0000
0000
,
0010
1000
1010
0000
1000
0100
0001
0000
,
0010
0001
0011
0000
0100
0001
1000
0000
,
0001
1001
1000
0000
0010
1000
0001
0000
,
0100
0110
0010
0000
0100
0010
1000
0000
,
0001
1000
0100
1000
0001
0000
1000
0010
,
0100
0001
1000
0000
0001
1000
0100
0000
,
1000
0010
0100
0001
0010
1000
1010
0000
,
0001
0010
0100
0000
1000
0001
0100
0000
,
1000
0100
0001
1000
0010
0100
0001
0010
,
1000
0010
0001
1000
0100
0001
1000
0100
,
0021
0000
0000
0000
,
0000
0000
0000
0000
0031
0100
0001
0100
0001
0000
1000
0000
0100
0000
0000
1000
,
0010
0000
1000
0000
0010
0000
0000
0100
0001
0000
0100
0000
0001
0000
0000
0000
,
1000
0010
1010
1001
0000
0100
0010
0100
,
0001
1000
1001
1100
0000
0010
0001
1000
,
0010
0100
0110
0101
0000
0010
0001
1000
,
0001
0100
0101
1100
0000
0010
1000
0001
,
0100
0010
0100
0000
0001
0000
1000
0000
0000
0100
1000
0000
0010
0000
0100
0000
,
0001
1000
0001
0000
0100
0000
0010
0000
0000
1000
0100
0000
0010
0000
0001
0000
,
1000
0001
1000
0000
0010
0000
0100
0000
0000
0010
0100
0000
0001
0000
0010
0000
,
0100
1000
0100
0000
1000
0000
0001
0000
0000
1000
0010
0000
0100
0000
0001
0000
,
0100
0000
0010
0000
2000
0000
0000
0200
0000
0000
0000
0000
3000
0000
0000
0000
,
0310
0001
2000
0002
0000
0000
3003
0000
,
0100
0000
0010
0000
0200
0000
0000
0002
0000
0000
0000
0000
0300
0000
0000
0000
,
1003
0010
2000
0200
0000
0000
3300
0000
,
0010
0001
1000
0100
1000
0010
0100
0000
,
0001
0101
0100
0010
0100
0001
1000
0000
,
0100
1100
1000
0010
0100
0010
1000
0100
,
1000
0001
0010
0100
1000
0001
0100
0000
,
1010
0000
1000
0100
1000
0000
0000
0000
0000
0000
0010
0100
0010
0000
0000
0000
,
0000
0000
0100
0001
0100
0000
0000
0000
0000
0000
0010
1000
0010
0000
0000
0000
,
0000
0000
1000
0001
1000
0000
0000
0000
0000
0000
0010
0100
0010
0000
0000
0000
,
0000
0000
0100
0001
0100
0000
0000
0000
0000
0000
0010
1000
0010
0000
0000
0000
,
0000
0000
1000
0001
0000
0000
0100
0001
0000
0000
0010
0100
0000
0000
0010
0001
,
0000
0000
0100
1000
0000
0000
0100
0010
0000
0000
0001
1000
0000
0000
0100
0010
,
0001
1000
0001
1000
0001
1000
0001
1000
0001
1000
0001
1000
0001
1000
0001
1000
,
0010
0100
0010
0100
0010
0100
0010
0100
0010
0000
0000
0000
1010
0000
0000
0000
,
1001
0000
0000
0100
0010
0000
1000
0000
0001
0000
0100
0000
0000
0000
0001
0000
,
0101
0100
0000
1000
1001
1000
1010
0000
,
0110
0000
0000
1000
0001
0000
0100
0000
0010
0000
1000
0000
0000
0000
0010
0000
,
1010
1000
0000
0100
0110
1000
1001
0000
,
0101
0000
0000
0010
0100
0000
1000
0000
0100
0000
0001
0000
0000
0000
0010
0000
,
0011
1000
0000
0010
1001
0100
1100
0000
,
1010
0000
0000
0100
0010
0000
1000
0000
0001
0000
0100
0000
0000
0000
1000
0000
,
0101
0000
1000
0000
0000
0000
0001
0000
0110
0000
0001
0000
1000
0010
1000
0000
,
0001
0000
0000
0100
0010
0000
1000
0000
0001
0000
1000
0000
0010
0000
0100
0000
,
0001
0000
0010
0000
0000
0000
1100
0000
1100
0000
1100
0000
0010
0100
0010
0000
,
1000
0000
0000
0001
0010
0000
0001
0000
0100
0000
0010
0000
1000
0000
0100
0000
,
1000
0001
0000
0110
0110
0110
2002
0000
,
0000
0000
3003
0000
;

//---------------dance-single - ----------------
#NOTES:
     dance-single:
     :
     Easy:
     3:
     0.175,0.245,0.019,0.028,0.000:
0000
0000
0000
0000
,
0000
0000
0000
0000
,
0000
0000
0000
0000
,
0000
0000
0000
0000
,
0001
0000
1000
0000
,
0010
1000
0100
0000
,
1000
0000
0100
0000
,
0010
0001
1000
0000
,
0010
1000
0001
0000
,
1000
0001
1000
0000
0000
0000
0000
0000
,
0010
1000
0100
0000
,
1000
0001
1000
0000
0000
0000
0000
0000
,
0010
1000
0001
0000
,
1000
0001
1000
0000
0000
0000
0000
0000
,
0200
0000
0000
0000
,
0300
0000
0010
0000
0001
0001
0001
0000
,
1000
1000
1000
0000
0010
0010
0010
0000
,
1000
0001
0100
0000
,
0010
0100
0010
0000
,
0100
0001
1000
0000
,
0100
0010
0001
0000
,
1000
0010
0100
0000
,
0001
1000
0001
0000
,
1000
1000
0100
0000
,
1000
1000
0001
0000
,
0100
0000
0001
0000
,
1000
0001
1000
0000
,
0010
0000
1000
0000
,
0100
0010
0100
0000
,
0010
0000
0001
0000
,
0100
0001
0100
0000
,
0010
0000
1000
0000
,
0001
1000
0001
0000
,
1000
0000
0001
0000
,
1000
0000
0001
0000
,
1000
0000
0001
0000
,
1000
0000
0001
0000
,
1000
0001
1000
0001
,
1000
0001
1000
0001
,
2002
0000
0000
0000
,
0000
3003
0000
0000
,
0100
0010
1000
0001
,
0000
0000
0000
0000
,
1000
0001
0010
0100
,
0000
0000
0000
0000
,
0010
0001
1000
0100
,
0000
0000
0000
0000
,
1000
0010
0100
0001
,
0000
0000
0000
1001
,
0000
0100
0000
0010
,
1000
0100
0000
1000
,
0000
0010
0000
1000
,
0001
0100
0000
0000
;

//---------------dance-single - ----------------
#NOTES:
     dance-single:
     :
     Hard:
     9:
     0.615,0.617,0.300,0.009,0.482: // measure 1
0000
0000
0000
0000
,  // measure 2
0000
0000
0000
0000
,  // measure 3
0000
0000
0000
0000
,  // measure 4
0000
0000
0000
0000
,  // measure 5
0001
1000
0100
0001
1000
0010
0100
0001
,  // measure 6
1000
0010
1000
0001
0010
1000
0100
0010
,  // measure 7
0001
1000
0010
0100
0001
1000
0100
0001
,  // measure 8
0010
1000
0001
0100
0010
1000
0001
0100
,  // measure 9
0110
0000
0000
0000
0001
0100
0001
0000
0000
0000
1000
0000
0100
0000
1000
0000
,  // measure 10
0010
0100
0010
0000
0100
0000
0000
0000
0001
0000
1000
0000
0010
0000
0100
0000
,  // measure 11
0010
0000
1000
0000
0100
1000
0100
0000
1000
0000
0000
0000
0001
0000
1000
0000
,  // measure 12
0010
0100
0010
0000
1000
0000
0000
0000
0001
0000
1000
0000
0100
0000
0010
0000
,  // measure 13
0001
0000
1000
0000
0010
0100
0010
0000
1000
0000
0001
0000
0010
0000
0100
0000
,  // measure 14
1000
0001
1000
0000
0010
0000
0100
0000
0001
0000
1000
0000
0010
1000
0001
0100
,  // measure 15
0020
0000
0000
0030
,  // measure 16
0000
0000
0000
0000
1000
0001
1000
0001
1000
0000
0010
0000
0100
0000
0000
0001
,  // measure 17
1000
0000
1001
0000
1100
0000
0000
1000
0001
0000
1001
0000
0101
0000
0000
0000
,  // measure 18
0010
1000
0001
0000
0100
0000
0000
0000
0010
1000
0100
0000
1000
0000
0000
0000
,  // measure 19
0001
0010
0100
0000
0010
0000
0000
0000
0001
1000
0100
0000
1000
0000
0000
0000
,  // measure 20
0010
1000
0001
0000
0100
0000
0000
0000
0010
0100
0001
0000
0010
0000
0000
0000
,  // measure 21
0001
0010
0100
0000
1000
0000
0000
0000
0010
1000
0001
0000
0100
0000
0000
0000
,  // measure 22
0010
1000
0100
1000
0010
0000
0000
0000
1000
0001
0100
0001
1000
0000
0000
0000
,  // measure 23
0010
1000
0001
0010
0100
0000
0000
0000
0010
0001
1000
0010
0100
0000
0000
0000
,  // measure 24
0001
1000
0100
1000
0001
0000
0000
0000
0010
0001
1000
0010
0100
0000
0000
0000
,  // measure 25
0001
0010
0100
1000
0001
0000
0000
0000
1000
0010
0100
0001
1000
0000
0000
0000
,  // measure 26
0010
0000
1000
0000
1010
0000
0000
1001
0000
0000
0100
0000
0010
0000
0100
0000
,  // measure 27
0001
0000
1000
0000
1100
0000
1001
0000
0100
0010
0100
0001
0100
0000
0010
0000
,  // measure 28
1000
0000
0001
0000
1001
0000
0000
1100
0000
0000
0010
0000
1000
0000
0010
0000
,  // measure 29
0100
0000
0001
0000
0101
0000
1001
0000
0010
1000
0010
0100
0010
0000
1000
0000
,  // measure 30
0001
1000
0100
0000
1000
0000
0010
0000
1000
0001
0100
0000
0010
0000
0100
0000
,  // measure 31
0001
0010
0100
0000
0010
0000
0001
0000
1000
0010
0100
0000
0001
0000
1000
0000
,  // measure 32
0010
0000
1000
0000
1010
0000
0000
1001
0000
0000
0100
0000
0010
1000
0100
0000
,  // measure 33
1000
0000
0001
0000
1001
0000
1100
0000
1000
0001
0100
0000
0010
1000
0001
0000
,  // measure 34
1000
0000
0010
0100
0001
0000
0000
0000
0000
0000
0010
0100
1000
0000
0000
0000
,  // measure 35
0000
0000
0001
1000
0010
0000
0000
0000
0000
0000
1000
0001
0100
0000
0000
0000
,  // measure 36
0000
0000
0010
0100
0001
0000
0000
0000
0000
0000
0010
0100
1000
0000
0000
0000
,  // measure 37
0000
0000
0001
1000
0010
0000
0000
0000
0000
0000
0100
0001
1000
0000
0000
0000
,  // measure 38
0000
0000
0010
0100
0000
0000
0100
0001
0000
0000
0001
0010
0000
0000
0010
0100
,  // measure 39
0000
0000
0100
1000
0000
0000
1000
0010
0000
0000
0010
0100
0000
0000
0100
0000
,  // measure 40
0001
1000
0001
1000
0100
1000
0100
1000
0001
1000
0001
1000
0010
1000
0010
1000
,  // measure 41
0001
0100
0001
0100
0010
1000
0010
1000
0100
0000
0000
0000
1100
0000
0100
0000
,  // measure 42
0101
0000
1000
0000
0001
1000
0010
0000
0100
0000
0001
0000
1000
0100
0010
0001
,  // measure 43
1000
0000
0010
0000
1000
0001
1000
0010
0100
0000
0001
0000
0101
0000
0100
0000
,  // measure 44
1100
0000
1000
0000
0010
1000
0001
0000
0010
0000
0001
0000
1000
0100
0010
0001
,  // measure 45
1000
0000
0010
0000
0100
0001
1000
0010
0100
0000
0000
0000
0011
0000
0010
0000
,  // measure 46
1010
0000
0001
0000
1000
0001
0100
0000
0010
0000
1000
0000
0001
0010
0100
1000
,  // measure 47
0001
0000
0100
0000
0001
1000
0001
0100
0010
0000
1000
0000
1010
0000
0010
0000
,  // measure 48
0011
0000
0001
0000
0100
0001
1000
0000
0100
0000
1000
0000
0001
0010
0100
1000
,  // measure 49
0001
0000
0100
0000
0010
1000
0001
0100
0010
0000
0000
0000
1001
0000
1001
0000
,  // measure 50
0110
0000
0000
0000
0001
0100
0001
0000
1000
0000
0100
0000
0010
0001
0010
0000
,  // measure 51
0100
0000
1000
0000
0010
1000
0010
0000
1000
0000
0100
0000
1100
0000
1100
0000
,  // measure 52
1001
0000
0000
0000
0010
0100
0010
0000
0100
0000
0001
0000
1000
0100
1000
0000
,  // measure 53
0001
0000
0100
0000
0010
1000
0001
0000
1000
0000
0100
0000
1100
0000
0000
0000
;
