#TITLE:Po Pi Po;
#SUBTITLE:;
#ARTIST:初音ミク;
#TITLETRANSLIT:;
#SUBTITLETRANSLIT:;
#ARTISTTRANSLIT:Hatsune Miku;
#CREDIT:;
#BANNER:Po Pi Po-bn.png;
#BACKGROUND:Po Pi Po-bg.png;
#LYRICSPATH:;
#CDTITLE:;
#MUSIC:Po Pi Po.mp3;
#OFFSET:1.880;
#SAMPLESTART:71.640;
#SAMPLELENGTH:14.340;
#SELECTABLE:YES;
#BPMS:0.000=150.000;
#STOPS:182.000=0.200
,182.250=0.200
;
#BGCHANGES:7.667=Po Pi Po.avi=1.000=1=0=1,
99999=-nosongbg-=1.000=0=0=0 // don't automatically add -songbackground-
;

//---------------dance-single - ----------------
#NOTES:
     dance-single:
     :
     Beginner:
     2:
     0.135,0.188,0.040,0.000,0.000:
0000
0000
0000
0000
,
0000
0000
0000
0000
,
0000
0000
0000
0000
,
0000
0000
0000
0000
,
0000
0000
0000
0000
,
0000
0000
0000
0000
,
0010
0000
0000
0000
,
1000
0000
0000
0000
,
0001
0000
0000
0000
,
1000
0000
0000
0000
,
0100
0000
0000
0000
,
0010
0000
0000
0000
,
0001
0000
0000
0000
,
1000
0000
0000
0010
,
0010
0000
0010
0000
,
0010
0000
0000
0000
,
1000
0000
1000
0000
,
1000
0000
0000
0000
,
0001
0000
0001
0000
,
0001
0000
0000
0000
,
0010
0000
0010
0000
,
0010
0000
0000
0000
,
0100
0100
0100
0000
,
0100
0000
0000
0000
,
1000
1000
1000
0000
,
1000
0000
0000
0000
,
0001
0001
0001
0000
,
0001
0000
0000
0000
,
0010
0000
0010
0000
,
0010
0000
0000
0000
,
1001
0000
0000
0000
,
0100
0000
0100
0100
,
0100
0000
0000
0000
,
0010
0000
0010
0010
,
0010
0000
0000
0000
,
1000
0000
1000
1000
,
1000
0000
0000
0000
,
0001
0000
0001
0001
,
0001
0000
0000
0000
,
1001
0000
0000
0000
,
1000
0000
0000
0000
,
1001
0000
0000
0000
,
0100
0000
0000
0000
,
0100
0000
0000
0000
,
0010
0000
0000
0000
,
0010
0000
0000
0000
,
0000
0000
0000
0001
,
0000
0000
0000
1000
,
1000
1000
1000
1000
,
0000
0000
0000
0100
,
0000
0000
0000
0010
,
0000
0000
0000
0100
,
0100
0100
0100
0100
,
0000
0000
0000
0010
,
0000
0000
0000
0001
,
0000
0000
0000
1000
,
1000
1000
1000
1000
,
0000
0000
0000
0001
,
0000
0000
0000
0100
,
0000
0000
0000
0010
,
0010
0010
0010
0010
,
0000
0010
0000
0010
,
0000
0000
1001
0000
;

//---------------dance-single - ----------------
#NOTES:
     dance-single:
     :
     Medium:
     6:
     0.408,0.377,0.050,0.070,0.000:
0000
0000
0000
0000
,
0000
0000
0000
0000
,
0000
0000
0000
0000
,
0000
0000
0000
0000
,
0000
0000
0000
0000
,
0000
0000
0000
0000
,
0010
0000
1000
0100
0000
1000
0010
0000
,
0100
0000
0010
1000
0000
0001
0010
0000
,
0001
0000
0100
0010
0000
0100
0001
0000
,
0010
0000
0100
1000
0000
0010
0100
0000
,
0010
0000
1000
0100
0000
0010
0001
0000
,
0100
0000
0010
1000
0000
0010
0100
0000
,
0010
0000
1000
0100
0000
1000
0001
0000
,
0100
0000
0010
0100
0000
0001
1000
0000
,
0010
0000
1000
0000
0100
1000
0100
0000
,
1000
0000
0010
0000
1000
0001
0100
0000
,
0010
0000
0100
0000
0001
0100
0001
0000
,
0010
0000
0001
0000
1000
0010
0100
0000
,
0010
0000
1000
0000
0001
0010
0001
0000
,
1000
0000
0100
0000
0010
0001
0100
0000
,
0001
0000
1000
0000
0010
0100
0010
0000
,
1000
0000
0001
0000
0010
0100
1000
0000
,
0010
0100
0001
1000
,
0010
1000
0010
0100
0010
0000
0000
0000
,
0100
0001
1000
0100
,
1000
0100
1000
0100
0000
0000
0000
0000
,
1000
0001
0100
0010
,
0100
0010
0100
0010
0100
0000
0000
0000
,
0010
0000
1000
0000
0100
1000
0100
0000
,
1000
0001
0110
0101
,
1000
0000
0001
0000
1000
0100
1000
0000
,
0010
0000
1000
0000
0001
0100
0001
0100
,
0010
0000
0100
0000
0001
1000
0001
0000
,
0010
0000
0100
0000
1000
0010
1000
0010
,
0100
0000
0010
0000
1000
0100
1000
0000
,
0010
0000
1000
0000
0001
0100
0001
0100
,
0010
0000
0100
0000
0001
1000
0001
0000
,
0010
0000
0100
0000
1000
0010
1000
0010
,
0100
0000
0010
0000
1000
0100
0000
1000
,
0001
0100
0101
0000
,
0010
0000
0100
0000
0001
1000
0000
0010
,
1000
0100
1100
0000
,
0010
1000
0100
0010
,
0001
0100
0001
1000
,
0010
0100
0010
1000
,
0100
0010
0002
0103
,
0010
0000
0100
0001
0100
0000
0010
0000
,
1000
0000
0001
1000
0001
0000
2000
0000
,
3100
2000
3010
0100
,
0100
0000
0100
0100
0100
0000
0010
0000
,
1000
0000
0001
1000
0001
0000
0010
0000
,
0100
0000
1000
0010
1000
0000
0002
0000
,
0103
0002
1003
0010
,
0010
0000
0010
0010
0010
0000
0100
0000
,
0001
0000
1000
0100
0010
0000
0001
0000
,
1000
0000
0001
0100
0010
0000
0200
0000
,
0310
0200
0301
1000
,
1000
0000
1000
1000
1000
0000
0001
0000
,
0010
0000
0001
1000
0100
0000
1000
0000
,
0010
0000
0100
0010
1000
0000
0010
0000
,
1000
0000
0100
0000
0010
0000
0001
0100
,
0001
0000
1000
0100
1000
0000
0010
0000
,
0100
0000
0010
1000
1001
0000
0000
0000
;

//---------------dance-single - ----------------
#NOTES:
     dance-single:
     :
     Hard:
     8:
     0.594,0.565,0.121,0.020,0.221: // measure 1
0000
0000
0000
0000
,  // measure 2
0000
0000
0000
0000
,  // measure 3
0000
0000
0000
0000
,  // measure 4
0000
0000
0000
0000
,  // measure 5
0000
0000
0000
0000
,  // measure 6
0000
0000
0000
0000
,  // measure 7
0010
0000
1000
0000
0100
1000
0001
0100
,  // measure 8
0010
0000
0100
0000
0001
1000
0100
1000
,  // measure 9
0001
0000
0010
0000
0001
1000
0010
0100
,  // measure 10
0001
0000
1000
0000
0010
1000
0001
1000
,  // measure 11
0010
0100
0001
1000
0000
0010
0010
1000
,  // measure 12
0100
1000
0001
0010
0000
0001
0001
0100
,  // measure 13
0010
0100
0001
1000
0000
1000
1000
0100
,  // measure 14
0001
0100
1000
0010
0100
0010
0110
0000
,  // measure 15
0010
0000
1000
0000
0100
0000
1000
0000
0001
0000
0000
0010
0000
0000
0001
0000
,  // measure 16
0100
0000
0010
0000
0100
0000
0001
0000
1000
0000
0000
0010
0000
0000
1000
0000
,  // measure 17
0100
0000
1000
0000
0001
0000
0010
0000
0100
0000
0000
0010
0000
0000
0001
0000
,  // measure 18
1000
0000
0010
0000
1000
0000
0001
0000
0100
0000
0000
1000
0000
0000
0010
0000
,  // measure 19
0010
0000
1000
0000
0100
0000
1000
0000
0001
0000
0000
0010
0000
0000
0001
0000
,  // measure 20
0100
0000
0010
0000
0100
0000
0001
0000
1000
0000
0000
0100
0000
0000
0001
0000
,  // measure 21
0100
0000
1000
0000
0010
0000
0100
0000
0001
0000
0000
1000
0000
0000
0010
0000
,  // measure 22
1000
0000
0100
0000
1000
0000
0001
0000
0010
0000
0000
0001
0000
0000
0100
0000
,  // measure 23
0010
1000
0010
0000
1000
0100
1000
0000
,  // measure 24
0001
0100
0010
0100
0001
1000
0100
0000
,  // measure 25
0010
0001
0100
0001
1000
0100
0010
0000
,  // measure 26
0001
0010
0100
1000
0000
0000
0010
0100
,  // measure 27
0010
1000
0000
0001
1000
0100
1000
0000
,  // measure 28
0010
0100
0001
0010
0001
0100
0001
0000
,  // measure 29
1000
1000
0010
0100
0010
1000
0001
0010
,  // measure 30
0001
0000
0000
0100
0000
0000
0010
0000
1000
0100
1000
0100
1000
0000
0000
0000
,  // measure 31
0010
0000
0100
0000
0001
0000
1000
0000
0010
0000
0000
1000
0000
0000
0001
0000
,  // measure 32
0100
0000
0010
0000
1000
0000
0001
0000
0100
0001
0100
0000
0010
0100
0010
0000
,  // measure 33
0100
0000
0001
0000
0100
0000
0010
0000
1000
0000
0000
0001
0000
0000
1000
0000
,  // measure 34
0100
1000
0010
0100
0001
0001
0100
0100
,  // measure 35
0001
0000
0100
0000
0010
0000
1000
0000
0001
0000
0000
0100
0000
0000
0010
0000
,  // measure 36
0100
0000
0001
0000
1000
0000
0100
0000
0010
0001
0010
0000
0100
1000
0100
0000
,  // measure 37
1000
0000
0001
0000
1000
0000
0010
0000
0100
0000
0000
0001
0000
0000
0100
0000
,  // measure 38
0010
0100
0001
1000
0100
0100
0010
0010
,  // measure 39
0001
0000
1000
0000
0010
0100
0000
0010
,  // measure 40
0100
0001
1000
0100
1000
0001
0100
0000
,  // measure 41
0010
0000
1000
0000
0100
0010
0000
0010
,  // measure 42
0001
0100
0010
1000
0100
1000
0001
0000
,  // measure 43
0101
0000
1010
0000
1000
0001
1000
0100
,  // measure 44
0010
0001
0100
0010
0200
0000
0302
0000
,  // measure 45
0003
0000
1000
0100
0010
0001
1000
0000
,  // measure 46
0010
0000
0000
1000
0000
0000
0100
0000
1000
0001
0100
0000
0010
0000
1000
0010
,  // measure 47
0000
0000
1000
0000
0100
0000
1000
0000
0001
0000
0000
0000
0010
0000
0001
0010
,  // measure 48
0000
0001
0100
0010
1000
0000
0101
0000
,  // measure 49
1100
0000
0000
0000
0001
0000
0010
0000
0100
0000
1000
0000
0010
0000
0000
0010
,  // measure 50
0000
0000
1000
0000
0100
0000
1000
0000
0001
0100
0001
0000
0010
0000
0100
0010
,  // measure 51
0000
0000
0100
0000
1000
0000
0010
0000
0100
0000
0000
0000
0010
0000
0100
0010
,  // measure 52
0000
0100
0001
1000
0010
0000
0101
0000
,  // measure 53
1001
0000
0000
0000
0010
0000
1000
0000
0100
0000
0010
0000
0001
0000
0000
0001
,  // measure 54
0000
0000
0100
0000
0001
0000
1000
0000
0010
0100
0010
0000
1000
0000
0100
1000
,  // measure 55
0000
0100
1000
0000
0100
0000
1000
0000
0100
0000
0000
0000
0010
0000
0001
0010
,  // measure 56
0000
0001
0010
0000
0001
0000
0010
0000
0001
0000
0000
0000
0101
0000
0000
0000
,  // measure 57
1010
0000
0000
0000
0100
0000
0010
0000
1000
0000
0100
0000
0010
0000
0000
0010
,  // measure 58
0000
0000
0001
0000
0010
0000
0100
0000
1000
0010
1000
0000
0001
0000
0100
0001
,  // measure 59
0000
0100
0001
0000
0100
0000
0001
0000
0100
0000
0000
0000
0001
0000
1000
0001
,  // measure 60
0000
1000
0001
0000
1000
0000
0001
0000
1000
0000
0000
0000
0010
0000
1000
0000
,  // measure 61
0100
0000
1000
0000
0001
0000
0100
0000
0010
0000
1000
0000
0001
0000
1000
0001
,  // measure 62
0000
0000
0100
0000
0010
0000
1000
0100
0000
0000
1000
0000
1100
0000
0000
0101
,  // measure 63
0000
0000
1010
0000
0001
1000
0001
0100
0010
0000
0000
0000
0000
0000
0000
0000
;

//---------------dance-single - ----------------
#NOTES:
     dance-single:
     :
     Easy:
     4:
     0.225,0.283,0.020,0.000,0.000:
0000
0000
0000
0000
,
0000
0000
0000
0000
,
0000
0000
0000
0000
,
0000
0000
0000
0000
,
0000
0000
0000
0000
,
0000
0000
0000
0000
,
0010
0000
1000
0100
,
1000
0000
0001
0100
,
0001
0000
0010
0001
,
0010
0000
0100
0010
,
0100
0000
1000
0001
,
1000
0000
0010
0100
,
0010
0000
0100
0001
,
0100
0000
0001
1000
,
0100
0000
1000
0000
,
0010
0100
0010
0000
,
1000
0000
0001
0000
,
1000
0100
1000
0000
,
0010
0000
1000
0000
,
0001
0100
0001
0000
,
0100
0000
0010
0000
,
1000
0001
1000
0000
,
0001
0001
1000
1000
,
0010
0000
0010
0000
,
1000
0100
1000
0001
,
0100
0010
0100
0000
,
0001
0001
1000
1000
,
0100
1000
0010
0000
,
1000
1000
0001
0001
,
0010
0000
0010
0000
,
0001
0100
0001
0000
,
1000
0001
1000
0000
,
0010
1000
0010
0000
,
1000
0100
1000
0000
,
0010
0010
0010
0000
,
1000
1000
1000
0000
,
0001
0100
0001
0000
,
1000
1000
1000
0000
,
0100
0000
0100
0000
,
0010
0001
1000
0000
,
0010
0000
0010
0000
,
1000
0100
0001
0000
,
0100
0000
0010
0000
,
0100
0000
0001
0000
,
1000
0000
0100
0000
,
1001
0000
0000
0010
,
0000
0000
0000
1000
,
0000
0000
0000
0001
,
0000
1000
0000
0100
,
0100
0100
0100
0100
,
0000
0000
0000
1000
,
0000
0000
0000
0010
,
0000
1000
0000
0001
,
0001
0001
0001
0001
,
0000
1000
0010
0000
,
0000
0100
0010
0100
,
0000
0001
0000
0010
,
0010
0010
0010
0010
,
0000
0100
0001
0000
,
0000
1000
0010
0100
,
0001
1000
0010
1000
,
1000
0001
0001
0010
,
0001
0100
1001
0000
;

//---------------dance-single - ----------------
#NOTES:
     dance-single:
     :
     Challenge:
     10:
     0.729,0.753,0.241,0.000,0.527:
0000
0000
0000
0000
,
0000
0000
0000
0000
,
0000
0000
0000
0000
,
0000
0000
0000
0000
,
0000
0000
0000
0000
,
0000
0000
0000
0000
,
0010
1000
0010
0000
1000
0001
1000
0000
0000
0000
0010
0000
1000
0000
0001
0000
,
0100
0010
0100
0000
0001
0100
0001
0000
0000
0000
0010
0000
0001
0000
1000
0000
,
0010
1000
0010
0000
0100
0001
0100
0000
0000
0000
0010
0000
1000
0000
0001
0000
,
1000
0100
1000
0000
0001
0100
0001
0000
0000
0000
0010
0000
0001
0000
0100
0000
,
0010
1000
0100
0000
1000
0001
0100
0000
0000
0000
0010
0000
0100
0000
0001
0000
,
1000
0100
0010
0000
0001
0010
0100
0000
0000
0000
1000
0000
0001
0000
0100
0000
,
0010
1000
0100
0000
1000
0001
0100
0000
0000
0000
0010
0000
0100
0000
0001
0000
,
0010
0100
0010
0000
0001
1000
0100
0000
0000
0000
1000
0000
1001
0000
0000
0000
,
0010
0000
1000
0000
0100
0000
1000
0000
0001
0100
0000
0100
0000
0010
1000
0000
,
0001
0000
1000
0000
0100
0000
0010
0000
0001
1000
0000
0010
0000
0100
0001
0000
,
1000
0000
0100
0000
0010
0000
0001
0000
1000
0010
0000
1000
0000
0001
0100
0000
,
0010
0000
1000
0000
0001
0000
1000
0000
0010
0100
0000
0100
0000
0010
1000
0000
,
0100
0000
0010
0000
0001
0000
1000
0000
0001
0010
0000
0010
0000
0001
1000
0000
,
0010
0000
0100
0000
0001
0000
1000
0000
0100
0010
0000
0001
0000
1000
0010
0000
,
0100
0000
0001
0000
1000
0000
0010
0000
0100
0001
0000
1000
0000
1000
0100
0000
,
0010
0000
0001
0000
1000
0000
0010
0000
0100
0010
0000
0100
0000
0100
0010
0000
,
1000
0000
0010
0100
0010
0000
1000
0000
0001
0100
0001
0100
0001
0000
0100
0000
,
0010
1000
0100
0010
0001
0000
0100
0000
,
0010
0000
0010
0000
1000
0000
0100
0000
1000
0001
0000
0001
0100
0000
0010
0000
,
1000
0100
0001
0100
1000
0001
0010
0000
,
0001
0000
0100
0000
0010
1000
0010
0000
1000
0000
0001
1000
0000
0000
0010
0000
,
0100
0001
0010
0100
1000
0001
0100
0000
,
1010
1010
0100
0010
1000
0001
0100
1000
,
0010
0000
0010
1000
0000
1000
0100
0000
1000
0010
1000
0010
1000
0001
1000
0001
,
0100
0000
0001
0000
0010
0000
0001
0000
1000
0010
0000
0010
0000
0100
0001
0000
,
1000
0000
0001
0000
0010
0000
0100
0000
1000
0001
0100
0000
0100
0010
1000
0000
,
0001
0000
0010
0000
0100
0000
1000
0000
0001
0100
0000
0001
0000
1000
0010
0000
,
0100
0001
1000
0001
0100
0100
0001
0001
,
0010
0000
0100
0000
1000
0000
0001
0000
1000
0100
0000
0100
0000
1000
0001
0000
,
0100
0000
0010
0000
1000
0000
0001
0000
0010
0100
1000
0000
0001
0100
0010
0000
,
1000
0000
1000
0000
0001
0000
0100
0000
0010
1000
0000
0001
0000
0001
0010
0000
,
0100
1000
0001
0100
0010
0010
1000
1000
,
1001
1000
1001
0000
0101
0001
0101
0000
,
0010
1000
0100
0010
0001
1000
0001
0000
,
0110
0010
0110
0000
1010
1000
1010
0000
,
0100
0010
1000
0100
0010
0001
1000
0000
,
0001
0100
0010
0100
0001
1000
0100
1000
,
0001
0010
1000
0010
0001
1000
0010
0100
,
0001
1000
0100
1000
0001
0100
0010
1000
,
0001
0000
0001
0010
0000
0010
0100
0000
0011
0110
1100
0000
0010
0000
0010
0100
,
0000
0100
0001
0000
1000
0000
0100
0000
1000
0000
0000
0000
0010
0000
0010
1000
,
0000
1000
0100
0000
0010
0000
0001
0000
1000
0000
0000
0000
0011
0000
0000
0000
,
1100
0000
0000
0000
0001
0000
0100
0000
1000
0000
0010
0000
0100
0000
0010
0100
,
0000
0010
1000
0000
0001
0000
1000
0000
0100
1000
0100
0000
0010
0000
0010
0001
,
0000
0001
0100
0000
0010
0000
1000
0000
0001
0000
0000
0000
0100
0000
0100
0010
,
0000
0010
1000
0000
0100
0000
1000
0000
0001
0000
0000
0000
1100
0000
0000
0000
,
0101
0000
0000
0000
0010
0000
0100
0000
0001
0000
1000
0000
0100
0000
1000
0001
,
0000
1000
0010
0000
0100
0000
0001
0000
1000
0001
1000
0000
0010
0000
0100
0001
,
0000
1000
0100
0000
1000
0000
0001
0000
0010
0000
0100
0000
1000
0000
0010
0100
,
0000
0010
1000
0000
0001
0000
1000
0000
0100
0000
0010
0000
0011
0000
0000
0000
,
1001
0000
0000
0000
0010
0000
1000
0000
0001
0000
0100
0000
0010
0000
0100
0010
,
0000
0100
0010
0000
1000
0000
0001
0000
1000
0100
1000
0000
0010
0000
0100
0001
,
0000
0100
0010
0000
1000
0000
0100
0000
0010
0000
0001
0000
1000
0000
0010
0100
,
0000
0010
0100
0000
0001
0000
1000
0000
0100
0000
0010
0000
0011
0000
0000
0000
,
1001
0000
0000
0000
1010
0000
0000
0000
0101
0000
0000
0000
0010
0000
1000
0010
,
0000
0000
1000
0000
0001
0000
0100
0001
0000
0000
0100
0000
0010
0100
0001
0100
,
0001
1000
0100
1000
0001
0010
0100
1000
0001
0000
0000
0000
0000
0000
0000
0000
;
