#TITLE:Planetary (GO!);
#SUBTITLE:;
#ARTIST:My Chemical Romance;
#TITLETRANSLIT:;
#SUBTITLETRANSLIT:;
#ARTISTTRANSLIT:;
#CREDIT:;
#BANNER:Plantary (GO!)-bn.png;
#BACKGROUND:Plantary (GO!)-bg.png;
#LYRICSPATH:;
#CDTITLE:;
#MUSIC:Planetary (GO!).mp3;
#OFFSET:-0.360;
#SAMPLESTART:94.607;
#SAMPLELENGTH:11.960;
#SELECTABLE:YES;
#BPMS:0.000=132.000;
#STOPS:206.000=0.460
;
#BGCHANGES:0.000=Planetary (GO!).avi=1.000=1=1=0,
99999=-nosongbg-=1.000=0=0=0 // don't automatically add -songbackground-
;

//---------------dance-single - ----------------
#NOTES:
     dance-single:
     :
     Beginner:
     1:
     0.108,0.134,0.000,0.000,0.000:
0000
0000
0000
0000
,
0000
0000
0000
0000
,
0000
0000
0000
0000
,
0000
0000
0000
0000
,
0010
0000
0000
0000
,
0010
0000
0000
0000
,
0100
0000
0000
0000
,
0100
0000
0000
0000
,
0001
0000
0000
0000
,
0001
0000
0000
0000
,
1000
0000
0000
0000
,
1000
0000
0000
0000
,
0100
0100
0000
0000
,
0100
0000
0000
0000
,
1000
1000
0000
0000
,
1000
0000
0000
0000
,
0001
0001
0000
0000
,
0001
0000
0000
0000
,
0010
0010
0000
0000
,
0010
0000
0000
0000
,
0001
0000
0001
0000
,
0001
0000
0001
0000
,
1000
0000
1000
0000
,
1000
0000
1000
0000
,
0010
0000
0010
0000
,
0010
0000
0010
0000
,
1000
0000
1000
0000
,
1000
0000
1000
0000
,
0100
0000
0000
0000
,
1000
0000
0000
0000
,
0001
0000
0000
0000
,
0010
0010
0010
0000
,
0010
0000
0000
0000
,
0001
0000
0000
0000
,
1000
0000
0000
0000
,
0010
0010
0010
0000
,
0010
0000
0000
0000
,
0100
0000
0000
0000
,
0010
0000
0000
0000
,
1000
0000
0000
0000
,
0001
0000
0000
0000
,
1000
0000
0000
0000
,
0100
0000
0000
0000
,
0010
0000
0000
0000
,
0001
0001
0000
0000
,
0001
0000
0000
0000
,
0100
0100
0000
0000
,
0100
0000
0000
0000
,
0010
0010
0000
0000
,
0010
0000
0000
0000
,
1000
1000
0000
0000
,
1000
0000
0000
0000
,
0000
0010
0010
0000
,
0000
0001
0001
0000
,
0000
1000
1000
0000
,
0000
0100
0100
0000
,
0000
1000
1000
0000
,
0000
0010
0010
0000
,
0000
0100
0100
0000
,
0000
0001
0001
0000
;

//---------------dance-single - ----------------
#NOTES:
     dance-single:
     :
     Medium:
     6:
     0.405,0.405,0.253,0.199,0.000: // measure 1
0000
0000
0000
0000
,  // measure 2
0000
0000
0000
0000
,  // measure 3
0000
0000
0000
0000
,  // measure 4
0000
0000
0000
0000
,  // measure 5
0010
1000
0100
1000
,  // measure 6
0001
0100
0010
0100
,  // measure 7
0002
0103
0002
0103
,  // measure 8
2000
3100
2000
3100
,  // measure 9
0010
1000
0100
0010
,  // measure 10
0001
1000
0010
0100
,  // measure 11
0020
1030
0020
1030
,  // measure 12
0002
0103
0002
0103
,  // measure 13
0010
0100
0010
0000
1000
0000
0001
0000
,  // measure 14
1001
0110
0101
0000
,  // measure 15
1002
0100
0103
0000
,  // measure 16
2010
0100
3100
0000
,  // measure 17
0010
1000
0010
0000
0100
0000
0001
0000
,  // measure 18
0101
1100
0011
0000
,  // measure 19
0010
0100
0010
0000
0001
0010
0001
0000
,  // measure 20
1000
0001
1000
0001
1000
0001
1000
0001
,  // measure 21
0000
0100
0000
0010
0000
1000
0100
1000
,  // measure 22
0000
0010
0000
1000
0000
0001
0100
0001
,  // measure 23
0000
1000
0000
0001
0000
0010
0100
0010
,  // measure 24
0000
0000
0001
0000
0000
0000
1000
0000
0200
0000
0000
0300
0200
0000
0000
0000
,  // measure 25
0310
0001
0000
1000
0000
0010
0100
0010
,  // measure 26
0000
1000
0000
0001
0000
0010
0001
0010
,  // measure 27
0000
0100
0000
1000
0000
0010
0100
0010
,  // measure 28
0000
0000
1000
0000
0000
0000
0001
0000
0020
0000
0000
0030
0020
0000
0000
0000
,  // measure 29
0031
0000
0100
0000
0010
0000
1000
0001
,  // measure 30
0000
0000
1000
0000
0001
0000
0010
0100
,  // measure 31
0000
0000
0010
0000
0001
0000
1000
0100
,  // measure 32
0000
1000
1001
0110
,  // measure 33
0001
0000
1000
0000
0010
0000
0100
0010
,  // measure 34
0000
0000
1000
0000
0001
0000
0010
0100
,  // measure 35
0000
1000
0001
0100
,  // measure 36
0010
1000
0010
0000
0100
0001
0100
0000
,  // measure 37
0000
1010
0000
1001
0000
0100
0000
0010
,  // measure 38
0000
1001
0000
1100
0000
0010
0000
0001
,  // measure 39
0000
0101
0000
1001
0000
0100
0000
1000
,  // measure 40
0000
0010
0100
0010
2000
0000
3002
0000
,  // measure 41
0103
0010
0000
1000
0000
1100
0000
0101
,  // measure 42
0000
0010
0000
0001
0000
1100
0000
1001
,  // measure 43
0000
0010
0000
0100
0000
0101
0000
1001
,  // measure 44
0000
0010
1000
0010
0200
0000
0320
0000
,  // measure 45
1030
0100
1000
0000
0010
0000
1000
0000
,  // measure 46
0001
0100
0001
0000
0010
0000
0100
0000
,  // measure 47
1000
0001
0100
0000
0010
0000
1000
0000
,  // measure 48
0001
0010
1000
0000
0010
0000
0001
0000
,  // measure 49
1000
0010
0100
0000
0010
0000
1000
0000
,  // measure 50
0001
0010
0100
0000
1000
0000
0010
0000
,  // measure 51
0100
0010
0100
0010
1000
0010
1000
0010
,  // measure 52
1000
0001
1000
0001
1000
0000
0000
0110
,  // measure 53
0000
0100
0010
0100
0010
0100
0000
1001
,  // measure 54
0000
1000
0001
1000
0001
1000
0000
0011
,  // measure 55
0000
0010
0001
0010
0001
0010
0000
0000
,  // measure 56
0001
1000
0002
0000
2003
0000
3000
0110
,  // measure 57
0000
0100
0010
0100
0010
0100
0000
1001
,  // measure 58
0000
0001
1000
0001
1000
0001
0000
1010
,  // measure 59
0000
1000
0010
1000
0010
1000
0000
0010
,  // measure 60
0100
0010
2000
0000
3002
0000
0003
0000
;

//---------------dance-single - ----------------
#NOTES:
     dance-single:
     :
     Hard:
     8:
     0.550,0.594,0.307,0.154,0.221:
0000
0000
0000
0000
,
0000
0000
0000
0000
,
0000
0000
0000
0000
,
0000
0000
0000
0000
,
0010
1000
0001
1000
,
0100
0000
0010
0000
0001
0000
1000
0001
,
1000
0000
0010
0000
1000
0000
0010
0100
,
0010
0000
0100
0000
0001
0000
0010
0001
,
0010
0100
1000
0010
,
1000
0000
0001
0000
0100
0000
0010
1000
,
0100
0000
1000
0000
0001
0000
0010
0001
,
0100
0000
0010
0000
1000
0001
1000
0001
,
0100
0010
1000
0000
0001
1000
0001
0100
,
0000
0101
0000
1010
0000
0100
0010
0000
,
0210
0001
0310
1100
,
0102
0000
1000
0000
0103
0010
0100
0001
,
1000
0100
1000
0001
0100
0000
0010
1000
,
0000
0011
0000
1001
0000
0010
1000
0001
,
0000
1000
0100
0001
0000
0010
0001
0100
,
0010
1000
0010
1000
0010
1000
0010
1000
0010
1000
0010
1000
0010
0000
1000
0010
,
1000
0000
0100
1000
0000
0000
1000
0001
0000
0000
0001
0010
0000
0000
0010
0001
,
0000
0000
0001
0100
0000
0000
0100
0010
0000
0000
0010
1000
0000
0000
1000
0100
,
0000
0000
0100
1000
0000
0000
1000
0010
0000
0000
0010
0100
0000
0000
0100
0001
,
0000
0000
0001
1000
0000
0000
1000
0000
1010
0000
0000
0000
0110
0000
0000
0000
,
1000
0000
0001
0010
0000
0000
0010
0001
0000
0000
0001
1000
0000
0000
1000
0010
,
0000
0000
0010
0001
0000
0000
0001
0010
0000
0000
0010
1000
0000
0000
1000
0100
,
0000
0000
0100
0010
0000
0000
0010
0001
0000
0000
0001
1000
0000
0000
1000
0010
,
0000
0000
0010
0100
0000
0000
0100
0000
0110
0000
0000
0000
2002
0000
0000
0000
,
3003
0010
1000
0100
1000
0001
0100
1010
,
0000
1000
0100
1000
0001
0010
0100
0011
,
0000
1000
0001
0100
0010
1000
0010
0101
,
0000
1001
0000
0010
2000
0000
3002
0000
,
0003
0100
0010
0100
0001
1000
0100
1001
,
0000
0010
1000
0001
0100
0001
1000
0110
,
0000
1000
0010
0100
0001
1000
0100
0011
,
0000
1000
0001
1000
0200
0000
0320
0000
,
0031
1000
0001
0100
0000
1010
0100
0101
,
0000
1000
0001
1000
0100
0010
0001
1000
,
0000
0010
0100
0010
0000
0101
1000
1001
,
0000
1000
0100
0001
0020
0000
0032
0000
,
0103
0010
1000
0100
0001
0100
1000
0010
,
0000
0100
0001
1000
0100
0001
1000
0010
,
0000
1010
0000
0101
0000
1001
0000
0110
,
0000
0001
0010
1000
0010
0001
1000
0010
,
1000
0100
2000
0000
3002
0000
0103
0010
,
0100
0001
1000
0100
0000
1000
0001
0000
,
0210
0001
1300
0101
,
1010
0010
1000
0000
0001
0001
0100
0100
,
0010
1000
0002
0000
2003
0000
3100
0010
,
0100
1000
0001
1000
0000
0010
0100
0001
,
0000
1000
0010
0001
0000
0100
1000
0001
,
0010
0001
0010
0001
0010
0001
0010
0001
0010
0000
0101
0000
0001
0100
0010
0000
,
0000
0010
1000
0000
0100
0000
1000
0000
0001
0000
0100
0000
0010
1000
0001
0000
,
0000
0001
1000
0000
0100
0000
1000
0000
0010
0000
0100
0000
0010
1000
0100
0000
,
0000
0100
1000
0000
0010
0000
0100
0000
0001
0000
1000
0000
0100
0000
1000
0000
,
0001
0000
0100
0000
0101
0000
0010
0000
1001
0000
0000
0000
0010
1000
0100
0000
,
0000
0100
0010
0000
0001
0000
0100
0000
0010
0000
1000
0000
0100
1000
0010
0000
,
0000
0010
1000
0000
0001
0000
0010
0000
0100
0000
0010
0000
0001
0100
1000
0000
,
0000
1000
0100
0000
0010
0000
1000
0000
0001
0000
1000
0000
0100
0000
0010
0000
,
0001
1000
1010
0100
2002
0000
3003
0000
;

//---------------dance-single - ----------------
#NOTES:
     dance-single:
     :
     Easy:
     3:
     0.219,0.242,0.009,0.000,0.000:
0000
0000
0000
0000
,
0000
0000
0000
0000
,
0000
0000
0000
0000
,
0000
0000
0000
0000
,
0010
0000
1000
0000
,
0001
0000
1000
0100
,
1000
0000
0010
0100
,
0010
0000
0100
0001
,
0100
0000
0001
0000
,
1000
0000
0100
0000
,
0010
0001
0010
0000
,
0001
0100
0001
0000
,
1000
0100
1000
0000
,
0010
0000
1000
0001
,
0100
0000
0000
0000
,
0010
1000
0100
0010
,
0001
0000
1000
0000
,
0010
1000
0100
0000
,
1000
1000
0001
0001
,
0100
0100
0100
0000
,
0010
1000
0100
1000
,
0001
0010
0001
0100
,
0010
1000
0100
1000
,
0001
0100
0010
0000
,
0100
0010
1000
0100
,
0010
0001
1000
0001
,
0100
0010
1000
0100
,
0010
0001
1000
0000
,
1001
0000
0100
0100
,
0100
0000
0010
0010
,
0010
0000
1000
1000
,
1000
0001
0100
0100
,
0010
0010
0010
0000
,
0001
0001
0001
0000
,
0100
0100
0100
0000
,
0010
1000
0100
1000
,
0010
0000
1000
0000
,
0001
0000
1000
0000
,
0010
0000
0100
0000
,
0010
1000
0100
0010
,
0001
0000
1000
0000
,
0010
0000
1000
0000
,
0100
0000
0010
0000
,
0001
1000
0010
0100
,
0010
0000
1000
0000
,
0100
1000
0001
0100
,
0010
0000
0100
0010
,
1000
0000
0100
0010
,
0001
0000
1000
0000
,
0010
1000
0100
0010
,
0001
0001
1000
1000
,
0010
0000
0010
0000
0010
0000
0000
0100
,
0000
0000
0001
0000
1000
0000
0000
0100
,
0000
0000
1000
0000
0001
0000
0000
0100
,
0000
0000
0001
0000
1000
0000
0000
0100
,
0000
0000
1000
0000
0001
0000
0000
0010
,
0000
0000
0001
0000
1000
0000
0000
0010
,
0000
0000
1000
0000
0001
0000
0000
0010
,
0000
0000
0001
0000
1000
0000
0000
0010
,
0000
1000
0001
0000
;
