#TITLE:Mr.Brightside;
#SUBTITLE:;
#ARTIST:The Killers;
#TITLETRANSLIT:;
#SUBTITLETRANSLIT:;
#ARTISTTRANSLIT:;
#CREDIT:;
#BANNER:Mr.Brightside-bn.png;
#BACKGROUND:Mr.Brightside-bg.png;
#LYRICSPATH:;
#CDTITLE:;
#MUSIC:Mr Brightside.mp3;
#OFFSET:-0.060;
#SAMPLESTART:58.467;
#SAMPLELENGTH:15.180;
#SELECTABLE:YES;
#BPMS:0.000=147.910;
#STOPS:;
#BGCHANGES:0.000=Mr.Brightside.avi=1.000=1=0=1,
99999=-nosongbg-=1.000=0=0=0 // don't automatically add -songbackground-
;

//---------------dance-single - ----------------
#NOTES:
     dance-single:
     :
     Beginner:
     1:
     0.104,0.199,0.025,0.000,0.000:
0000
0000
0000
0000
,
0000
0000
0000
0000
,
0000
0000
0000
0000
,
0000
0000
0000
0000
,
0010
0000
0000
0000
,
1000
0000
0000
0000
,
0001
0000
0000
0000
,
1000
0000
0000
0000
,
0010
0000
0000
0000
,
0100
0000
0000
0000
,
0001
0000
0000
0000
,
1000
0000
0000
0000
,
0100
0000
0000
0000
,
1000
0000
0000
0000
,
0010
0000
0000
0000
,
1000
0000
0000
0000
,
0001
0000
0000
0000
,
0010
0000
0000
0000
,
0001
0000
0000
0000
,
0100
0000
0000
0000
,
0010
0000
0010
0000
,
0010
0000
0000
0000
,
1000
0000
1000
0000
,
1000
0000
0000
0000
,
0001
0000
0000
0000
,
1000
0000
0000
0000
,
0100
0000
0000
0000
,
1000
0000
0000
0000
,
0010
0000
0010
0000
,
0010
0000
0000
0000
,
0100
0000
0100
0000
,
0100
0000
0000
0000
,
1001
0000
0000
0000
,
0100
0000
0000
0000
,
0100
0000
0000
0000
,
1001
0000
0000
0000
,
0010
0010
0010
0000
,
0000
0000
0000
0000
,
1000
1000
1000
0000
,
0000
0000
0000
0000
,
0001
0001
0001
0000
,
0000
0000
0000
0000
,
0100
0100
0100
0000
,
0000
0000
0000
0000
,
0010
0010
0010
0000
,
0000
0000
0000
0000
,
1000
1000
1000
0000
,
0000
0000
0000
0000
,
1001
0000
0000
0000
,
0000
0000
0000
0000
,
0100
0100
0100
0100
,
0100
0000
0100
0000
,
0100
0000
0000
0000
,
0010
0000
0000
0000
,
0001
0000
0000
0000
,
1000
0000
0000
0000
,
0001
0000
0000
0000
,
1000
0000
0000
0000
,
0010
0000
0000
0000
,
0100
0000
0000
0000
,
0010
0000
0010
0000
,
0010
0000
0000
0000
,
0001
0000
0001
0000
,
0001
0000
0000
0000
,
1000
0000
1000
0000
,
1000
0000
0000
0000
,
0100
0100
0100
0100
,
0100
0000
0000
0000
;

//---------------dance-single - ----------------
#NOTES:
     dance-single:
     :
     Medium:
     5:
     0.351,0.352,0.212,0.085,0.008:
0000
0000
0000
0000
,
0000
0000
0000
0000
,
0000
0000
0000
0000
,
0000
0000
0000
0000
,
0010
1000
0001
0100
,
0010
0100
0001
1000
,
1000
0000
0010
1000
,
0001
0000
0010
0000
0001
0100
0001
0000
,
0000
0010
0001
1000
,
0010
0100
0010
1000
,
0001
0000
0000
0000
1000
0100
1000
0000
,
0000
0000
0010
0000
0100
0010
0100
0000
,
0001
0000
1000
0000
0100
0000
0010
0100
,
0010
0000
0001
0000
1000
0000
0010
1000
,
0010
0000
1000
0000
0001
0000
1000
0100
,
1000
0000
0010
0000
0100
0000
0001
1000
,
0001
0000
0010
0000
0100
0000
0010
0001
,
0010
0000
0001
0000
1000
0000
0100
1000
,
0100
0000
1000
0000
0010
0000
0100
0010
,
0100
0010
1000
0001
,
2002
0000
0000
3003
1001
0000
0000
0000
,
0010
1000
0100
0010
,
0220
0000
0000
0330
0110
0000
0000
0000
,
0001
0010
0100
1000
,
0010
0000
1000
0000
0010
0100
0001
0000
,
0000
0000
1001
0000
0010
0001
1000
0000
,
0001
0000
1000
0000
0100
1000
0010
0000
,
0100
0000
0010
0000
1000
0100
0010
0000
,
0000
1001
0101
1100
,
1001
0000
0110
0000
,
0101
1001
1010
0000
,
1000
0000
0001
0000
0100
0010
0100
0000
,
0001
0000
0100
0100
0000
0000
0100
0000
,
0000
0000
0010
0010
0000
0000
0010
0000
,
0000
0000
1000
1000
0000
0000
1000
0000
,
0000
0101
0000
0000
1100
0000
0000
0000
,
0020
0100
0100
0130
,
0010
1000
0001
0010
,
0002
1000
1000
1003
,
0010
1000
0100
0010
,
0001
1000
0100
0000
1000
0000
0010
0000
,
0100
0010
1000
0001
,
0010
0001
1000
0000
0010
0000
1000
0000
,
0001
0100
0010
0100
,
0110
0000
0110
0000
,
0001
0100
0001
0000
1000
0100
1000
0000
,
1100
0000
1100
0000
,
1000
0010
0100
0001
,
1001
0000
0000
0100
0000
0000
0001
0000
,
0000
0100
0000
0000
1000
1000
1000
0000
,
0010
1000
0100
0010
,
0011
0000
1001
0000
,
0100
1000
0010
0100
,
0001
1000
0001
0010
,
0100
1000
0010
0100
,
0010
1000
0200
0300
,
0010
0001
1000
0010
,
0100
0010
1000
0001
,
0001
0010
0001
1000
,
0010
0100
0002
0003
,
0100
0000
0010
0000
1000
0100
1000
0001
,
0100
0000
0010
0000
1000
0001
1000
0000
,
0010
0100
0001
1000
,
0100
0010
0001
0000
,
1000
0000
0001
0000
0010
0000
0001
0100
,
0001
0000
0010
0000
0100
0010
0100
1000
,
0001
0000
1000
0000
0010
0100
0100
0000
,
1010
0000
0000
0000
0000
0000
0000
0000
0000
1001
0000
0000
0000
0000
0000
0000
0000
0000
0202
0000
0000
0000
0000
0000
0000
0000
0000
0000
0000
0000
0000
0000
,
0000
0000
0000
0000
,
0303
0000
0000
0000
;

//---------------dance-single - ----------------
#NOTES:
     dance-single:
     :
     Hard:
     8:
     0.495,0.527,0.382,0.170,0.008: // measure 1
0000
0000
0000
0000
,  // measure 2
0000
0000
0000
0000
,  // measure 3
0000
0000
0000
0000
,  // measure 4
0000
0000
0000
0000
,  // measure 5
0020
0000
1030
0100
1000
0000
0010
0000
,  // measure 6
1000
0000
0001
0100
0001
1000
0001
0000
,  // measure 7
1100
0000
0010
1000
0010
0100
0010
0001
,  // measure 8
0010
0000
1000
0100
2000
0000
3001
0000
,  // measure 9
0200
0000
0310
0000
0001
0100
0001
0000
,  // measure 10
1000
0000
0010
1000
0100
1000
0001
0000
,  // measure 11
1001
0000
0010
0100
0001
0010
0100
0010
,  // measure 12
0001
0000
1000
0000
0010
0100
0100
0000
,  // measure 13
0110
0000
0001
0100
0001
1000
0100
1000
,  // measure 14
0001
0000
0010
0001
1000
0010
0001
0010
,  // measure 15
1000
0000
0100
1000
0010
1000
0001
0100
,  // measure 16
0010
0000
0001
1000
1000
0100
0010
0001
,  // measure 17
1000
0000
0010
1000
0001
0100
0001
0010
,  // measure 18
0100
0000
0010
0001
1000
0010
0001
0010
,  // measure 19
1000
0000
0100
1000
0010
0100
0001
1000
,  // measure 20
0000
0110
0000
1000
0010
0100
0001
0000
,  // measure 21
2001
0100
0010
3100
,  // measure 22
0010
0010
1000
1000
0001
0001
0100
0000
,  // measure 23
0102
0010
0100
0013
,  // measure 24
1000
1000
0010
0010
1000
1000
0001
0000
,  // measure 25
0010
0001
0000
1000
0000
0010
0100
0010
,  // measure 26
0000
1000
0000
0001
0000
0010
0100
0010
,  // measure 27
0000
0001
0000
1000
0000
0001
0100
0001
,  // measure 28
0000
1000
0000
0010
0000
1000
0100
1000
,  // measure 29
0001
1010
0101
1001
,  // measure 30
0210
0000
0302
0000
,  // measure 31
1003
0000
1001
0000
0010
1000
0100
0000
,  // measure 32
1000
0001
0100
0000
0010
0100
0100
0000
,  // measure 33
0010
1000
0001
0100
0000
0000
1001
0000
,  // measure 34
0010
1000
0100
1000
0000
0000
1010
0000
,  // measure 35
1000
0001
0100
0010
0000
0000
0101
0000
,  // measure 36
0000
1001
0000
0000
0110
0110
0000
0000
,  // measure 37
0102
0000
0103
1000
1000
0000
0010
0000
,  // measure 38
1000
0001
0100
0010
0100
0001
1000
0000
,  // measure 39
2010
0000
3010
0100
0100
0000
0010
0000
,  // measure 40
1000
0100
1000
0001
0100
0001
0010
0000
,  // measure 41
1001
0000
1010
0000
0101
0000
0010
1000
,  // measure 42
0001
1000
0100
0000
0010
0001
0100
0001
,  // measure 43
0101
0000
1001
0000
1100
0000
0010
0001
,  // measure 44
1000
0001
1000
0010
0100
0001
0001
1000
,  // measure 45
2010
0000
0000
0001
3001
0000
0100
0001
,  // measure 46
0100
0100
0010
0010
1000
1000
0001
0001
,  // measure 47
2001
0000
0000
0010
3010
0000
1000
0010
,  // measure 48
0100
0100
0010
0010
1000
1000
0100
0100
,  // measure 49
1100
0000
0000
0101
0000
0000
1010
0000
,  // measure 50
0000
1001
0000
0000
0110
0110
0110
0000
,  // measure 51
0001
0100
1000
0000
0010
0000
1010
0000
,  // measure 52
0102
0000
1003
0000
2100
0010
3010
0000
,  // measure 53
1002
1000
0100
0010
,  // measure 54
0010
0100
0010
0100
,  // measure 55
1000
1000
0100
0010
,  // measure 56
0100
1000
2000
3003
,  // measure 57
2001
0001
0010
0100
,  // measure 58
0100
0010
0100
0010
,  // measure 59
0001
0001
0010
0100
,  // measure 60
0010
0001
3002
0203
,  // measure 61
0310
0000
1000
0000
1001
0000
1000
0010
,  // measure 62
0010
0000
0100
0000
0010
1000
0001
0100
,  // measure 63
0010
0000
0100
0000
0001
1000
0100
0000
,  // measure 64
1100
0000
1001
0000
0010
1000
0001
0100
,  // measure 65
0010
0000
0100
0000
0001
0000
1000
0001
,  // measure 66
1000
0000
0100
0000
0010
1000
0100
0010
,  // measure 67
0001
0000
1000
0001
1000
0010
0100
0000
,  // measure 68
1010
0000
0000
0000
0000
0000
0000
0000
0000
1001
0000
0000
0000
0000
0000
0000
0000
0000
0202
0000
0000
0000
0000
0000
0000
0000
0000
0000
0000
0000
0000
0000
,  // measure 69
0000
0000
0000
0000
,  // measure 70
0303
0000
0000
0000
;

//---------------dance-single - ----------------
#NOTES:
     dance-single:
     :
     Easy:
     3:
     0.200,0.234,0.068,0.076,0.000:
0000
0000
0000
0000
,
0000
0000
0000
0000
,
0000
0000
0000
0000
,
0000
0000
0000
0000
,
0001
0000
0100
0000
,
0010
0000
1000
0100
,
1000
0000
0010
0000
,
1000
0000
0001
0010
,
0001
0000
0100
0000
,
0010
0000
1000
0001
,
1000
0000
0100
0000
,
0010
0000
0001
0100
,
0001
0000
1000
0000
,
0100
0000
1000
0000
,
0010
0000
1000
0000
,
0001
0010
0001
1000
,
0100
0000
1000
0000
,
0010
0000
0100
0000
,
0010
0000
1000
0000
,
0100
1000
0010
0100
,
0001
0000
0001
0000
,
0100
0100
0100
0100
,
0010
0000
0010
0000
,
1000
1000
1000
1000
,
0100
0000
1000
0000
,
0010
0000
1000
0000
,
0010
0000
0100
0000
,
0001
0000
1001
0000
,
0100
1000
0100
0010
,
0001
0000
1000
0001
,
1000
0000
0010
0000
,
1000
0001
0100
0000
,
0101
0000
0010
0000
,
1000
0000
0100
0000
,
1100
0000
1000
0000
,
0010
1000
0001
0000
,
0100
0100
0100
0000
,
0010
1000
0001
1000
,
0100
0100
0100
0000
,
1000
0000
0001
0000
,
0010
0010
0010
0000
,
0001
0100
0001
1000
,
0010
0010
0010
0000
,
1000
0001
1000
0000
,
1001
0000
0100
0000
,
1000
1000
1000
0000
,
0010
0000
1000
0000
,
0001
0001
0001
0000
,
0110
0000
0000
0000
,
0000
0000
1001
1001
,
1001
0000
0100
0000
,
1000
0000
0010
0000
,
0200
0000
0000
0000
,
0302
0000
0000
0000
,
2003
0000
0000
0000
,
3020
0000
0000
0000
,
2030
0000
0000
0000
,
3002
0000
0000
0000
,
2003
0000
0000
0000
,
3200
0000
0000
0000
,
0310
0000
0001
0000
,
1000
0000
0010
0000
,
1000
0000
0001
0000
,
1000
0100
0010
0000
,
0001
0000
1000
0000
,
0010
0000
0100
0000
,
0001
0000
1000
0001
,
0200
0000
0000
0000
,
0000
0000
0000
0000
,
0300
0000
0000
0000
;
