#TITLE:Moves Like Jagger;
#SUBTITLE:;
#ARTIST:Maroon 5;
#TITLETRANSLIT:;
#SUBTITLETRANSLIT:;
#ARTISTTRANSLIT:;
#CREDIT:;
#BANNER:Moves Like Jagger-bn.png;
#BACKGROUND:Moves Like Jagger-bg.png;
#LYRICSPATH:;
#CDTITLE:;
#MUSIC:Moves Like Jagger.mp3;
#OFFSET:-0.040;
#SAMPLESTART:45.060;
#SAMPLELENGTH:15.640;
#SELECTABLE:YES;
#BPMS:0.000=128.000;
#STOPS:;
#BGCHANGES:-0.200=Moves Like Jagger.avi=1.000=1=0=0,
99999=-nosongbg-=1.000=0=0=0 // don't automatically add -songbackground-
;

//---------------dance-single - ----------------
#NOTES:
     dance-single:
     :
     Beginner:
     1:
     0.083,0.152,0.063,0.000,0.000:
0000
0000
0000
0000
,
0000
0000
0000
0000
,
0000
0000
0000
0000
,
0000
0000
0000
0000
,
0010
0000
0000
0000
,
0100
0000
0000
0000
,
0001
0000
0000
0000
,
1000
0000
0000
0000
,
0010
0000
0000
0000
,
0000
0000
0000
0000
,
1000
0000
0000
0000
,
0000
0000
0000
0000
,
0001
0000
0000
0000
,
0000
0000
0000
0000
,
0100
0000
0000
0000
,
0000
0000
0000
0000
,
1001
0000
0000
0000
,
1000
0000
0000
0000
,
0001
0000
0000
0000
,
0001
0000
0000
0000
,
0100
0000
0000
0000
,
0100
0000
0000
0000
,
0010
0000
0000
0000
,
0010
0000
0000
0000
,
1000
0000
1000
0000
,
1000
0000
0000
0000
,
0010
0000
0010
0000
,
0010
0000
0000
0000
,
0100
0100
0000
0000
,
0100
0100
0000
0000
,
0100
0000
0000
0000
,
0110
0000
0000
0000
,
1001
0000
0000
0000
,
0010
0000
0010
0000
,
0010
0000
0000
0000
,
0001
0000
0001
0000
,
0001
0001
0000
0000
,
0001
0001
0000
0000
,
1001
0000
0000
0000
,
1001
0000
0000
0000
,
0100
0000
0000
0000
;

//---------------dance-single - ----------------
#NOTES:
     dance-single:
     :
     Medium:
     5:
     0.309,0.314,0.190,0.101,0.000:
0000
0000
0000
0000
,
0000
0000
0000
0000
,
0000
0000
0000
0000
,
0000
0000
0000
0000
,
0010
0010
1000
0001
,
0100
0100
0001
1000
,
0001
0001
0010
0001
,
1000
1000
0010
1000
,
2200
0000
3300
0010
,
1000
0001
0100
0010
,
0220
0000
0330
0001
,
0100
0000
0010
0000
1000
0000
0100
1000
,
0001
0000
0000
0000
1000
0000
0001
0100
,
0010
0000
0000
0000
1000
0000
0010
1000
,
0100
1000
0001
0100
,
0010
0000
1000
0001
0000
0000
0000
0000
,
2002
0000
3003
0010
,
1000
0100
1000
0001
,
0202
0000
0303
0010
,
0100
0000
0001
0000
1000
0000
0100
1000
,
0010
0000
0000
0000
1000
0000
0010
1000
,
0001
0000
0000
0000
0100
0000
0001
0010
,
0100
1000
0010
1000
,
0001
0000
1000
0000
0010
0100
0010
0000
,
1001
0000
0000
0000
0001
0100
1000
0000
,
0010
1000
1100
1001
,
0000
0000
0000
0000
1000
0100
0001
0000
,
1000
0010
1010
0101
,
0010
0000
1000
0001
1000
0000
0010
0000
,
0010
0000
1000
0001
1000
0000
0010
0000
,
1000
0100
0010
0001
0001
0010
0100
1000
,
1000
0000
0000
1001
,
0000
0000
0000
0000
0010
0100
0001
0000
,
1000
0001
1001
0110
,
0000
0000
0000
0000
1000
0010
0100
0000
,
0010
1000
1010
1001
,
1000
0000
0001
0100
0001
0000
1000
0000
,
1000
0000
0001
0100
0001
0000
1000
0000
,
0001
0010
0100
1000
1000
0100
0010
0001
,
0001
0000
0000
1001
,
0100
0000
0010
0000
,
1000
0000
0001
0100
0000
0000
0000
0000
;

//---------------dance-single - ----------------
#NOTES:
     dance-single:
     :
     Hard:
     7:
     0.459,0.471,0.228,0.051,0.070: // measure 1
0000
0000
0000
0000
,  // measure 2
0000
0000
0000
0000
,  // measure 3
0000
0000
0000
0000
,  // measure 4
0000
0000
0000
0000
,  // measure 5
0001
0100
1000
0100
,  // measure 6
0010
1000
0100
0010
,  // measure 7
0001
1000
0010
1000
,  // measure 8
0001
0000
0100
0000
0010
1000
0100
1000
,  // measure 9
0002
0000
0000
0000
0003
0000
0100
0010
,  // measure 10
0100
0001
1000
0000
0010
1000
0001
1000
,  // measure 11
0200
0000
0000
0000
0300
0000
0010
0001
,  // measure 12
1000
0001
0100
0000
0010
1000
0100
0010
,  // measure 13
0001
0000
1000
0001
0100
1000
0100
0001
,  // measure 14
1000
0000
0010
1000
0001
0010
1000
0000
,  // measure 15
0010
0001
1000
0010
0010
1000
0001
0100
,  // measure 16
0200
0000
0310
2000
0000
0000
0000
0000
,  // measure 17
3100
0000
0000
1000
0000
0000
0001
0000
0000
0000
0101
0000
0000
0000
0010
0000
,  // measure 18
1000
0000
0000
0010
0000
0000
0100
0000
0000
0000
1001
0000
0000
0000
0100
0000
,  // measure 19
0010
0000
0000
0001
0000
0000
1000
0000
0000
0000
0110
0000
0000
0000
1000
0000
,  // measure 20
0001
0000
0000
0100
0000
0000
0010
0000
0000
0000
1100
0000
0000
0000
0100
0000
,  // measure 21
1000
0100
0010
0001
0010
0100
1000
0000
,  // measure 22
0001
0100
0010
1000
0010
0100
0001
0000
,  // measure 23
0100
0001
1000
0010
1000
0001
0100
0000
,  // measure 24
0010
1000
0100
1100
0000
1001
0000
0101
,  // measure 25
0001
0000
0000
0001
0100
0000
0010
0000
1000
0000
0100
0000
1000
0000
0001
0000
,  // measure 26
0010
1000
0010
0001
1000
0010
0100
0000
,  // measure 27
0010
0000
0000
0010
1000
0000
0100
0000
1000
0000
0001
0000
0010
0000
1000
0000
,  // measure 28
0010
0001
1000
0010
0100
0001
1000
0001
,  // measure 29
1000
0000
0100
1100
1100
0000
1000
0001
,  // measure 30
1001
0000
0010
0011
0011
0000
0100
0001
,  // measure 31
1000
0100
0001
0010
0010
0001
1000
0100
,  // measure 32
0100
0000
1000
0001
0100
0001
0000
0000
,  // measure 33
1000
0000
0000
1000
0010
0000
0100
0000
0001
0000
0010
0000
0001
0000
1000
0000
,  // measure 34
0100
0001
0100
1000
0001
0100
0010
0000
,  // measure 35
0100
0000
0000
0100
0001
0000
0010
0000
0001
0000
1000
0000
0100
0000
0001
0000
,  // measure 36
0100
1000
0001
0100
0010
1000
0001
1000
,  // measure 37
0001
0000
0010
0011
0011
0000
0001
1000
,  // measure 38
1001
0000
0100
1100
1100
0000
0010
1000
,  // measure 39
0001
0010
1000
0100
0100
1000
0001
0010
,  // measure 40
0010
0000
0001
1000
0010
1000
0000
0000
,  // measure 41
0001
0000
0001
0010
0000
0000
0001
0000
0000
0001
0000
0000
0001
0000
0100
0000
,  // measure 42
1000
0000
1000
0010
0000
0000
1001
0000
0000
0000
0000
0000
0000
0000
0000
0000
;

//---------------dance-single - ----------------
#NOTES:
     dance-single:
     :
     Easy:
     3:
     0.231,0.314,0.240,0.000,0.000:
0000
0000
0000
0000
,
0000
0000
0000
0000
,
0000
0000
0000
0000
,
0000
0000
0000
0000
,
0010
1000
0001
0000
,
1000
0001
1000
0000
,
0100
0010
0001
0000
,
0001
0100
0001
0000
,
1000
0000
0001
0000
,
0100
0100
0010
0010
,
1000
0000
0001
0000
,
1000
1000
0100
0100
,
0010
0000
0001
0001
,
0100
0000
0010
0010
,
0100
0000
0001
0000
,
1000
0000
0100
0000
,
1000
0010
1000
0010
,
0100
0000
0010
0000
,
0100
0001
0100
0001
,
1000
0000
0001
0000
,
0010
0001
0100
0000
,
0001
1000
0100
0000
,
1000
0010
0100
0000
,
0010
0000
1001
1001
,
1001
0000
0100
0010
,
1000
0000
1000
0001
,
0100
0000
0001
0010
,
0100
0000
1000
0001
,
1001
1001
0000
0000
,
0110
0110
0000
0000
,
1001
0100
0001
0100
,
1001
0100
1000
0100
,
0100
0000
1000
0000
,
0010
1000
0001
0100
,
0010
0000
0100
0000
,
0001
0010
0100
0000
,
1001
1001
0000
0000
,
0110
0110
0000
0000
,
1001
0010
0001
0010
,
1001
0010
1000
0010
,
1010
0000
0101
0000
,
1001
0000
0000
0110
0000
0000
0000
0000
;
