#TITLE:Levels;
#SUBTITLE:;
#ARTIST:Avicii;
#TITLETRANSLIT:;
#SUBTITLETRANSLIT:;
#ARTISTTRANSLIT:;
#CREDIT:;
#BANNER:Levels-bn.png;
#BACKGROUND:Levels-bg.png;
#LYRICSPATH:;
#CDTITLE:;
#MUSIC:Levels.mp3;
#OFFSET:-0.080;
#SAMPLESTART:106.660;
#SAMPLELENGTH:14.120;
#SELECTABLE:YES;
#BPMS:0.000=126.000,80.000=63.325,96.000=63.105,100.000=62.605,108.000=63.005,112.000=63.205,115.000=63.005,135.500=62.945,145.000=63.105,148.000=63.145,150.750=63.565,152.000=126.100;
#STOPS:151.750=-0.010
;
#BGCHANGES:-0.120=Levels.avi=1.000=1=1=0,
99999=-nosongbg-=1.000=0=0=0 // don't automatically add -songbackground-
;

//---------------dance-single - ----------------
#NOTES:
     dance-single:
     :
     Beginner:
     1:
     0.074,0.144,0.024,0.016,0.000:
0000
0000
0000
0000
,
0000
0000
0000
0000
,
0000
0000
0000
0000
,
0000
0000
0000
0000
,
0010
0000
0000
0000
,
0010
0000
0000
0000
,
0100
0000
0000
0000
,
0100
0000
0000
0000
,
0001
0000
0000
0000
,
0001
0000
0000
0000
,
1000
0000
0000
0000
,
1000
0000
0000
0000
,
0100
0000
0100
0000
,
0100
0000
0000
0000
,
1000
0000
1000
0000
,
1000
0000
0000
0000
,
0001
0001
0001
0000
,
0001
0000
0000
0000
,
0010
0010
0010
0000
,
0010
0000
0000
0000
,
2002
0000
0000
0000
,
0000
0000
0000
3003
,
0100
0000
0000
0000
,
0100
0000
0000
0000
,
0100
0000
0000
0000
,
0100
0000
0000
0000
,
0100
0000
0010
0000
,
1000
0000
1000
0000
,
0010
0000
0100
0000
,
0001
0000
0001
0000
,
0010
0010
0010
0000
,
0001
0001
0001
0000
,
1000
1000
1000
0000
,
0100
0100
0100
0000
,
1001
0000
0000
0000
,
0000
0000
0000
0000
,
0000
0000
0000
0000
,
0000
0000
0000
0000
,
0010
0000
0010
0000
,
0010
0000
0000
0000
,
0100
0000
0100
0000
,
0100
0000
0000
0000
,
0001
0000
0001
0000
,
0001
0000
0000
0000
,
1000
0000
1000
0000
,
1000
0000
0000
1001
;

//---------------dance-single - ----------------
#NOTES:
     dance-single:
     :
     Medium:
     5:
     0.224,0.332,0.047,0.087,0.000:
0000
0000
0000
0000
,
0000
0000
0000
0000
,
0000
0000
0000
0000
,
0000
0000
0000
0000
,
0010
0000
1000
0000
,
0001
0000
0010
0000
,
0001
0000
0100
0000
,
0010
0000
0100
0000
,
0001
1000
0100
0000
,
1000
0010
0100
0000
,
0010
1000
0100
0000
,
0010
0001
1000
0000
,
0010
0100
0010
1000
,
0100
0000
0010
0000
0001
0000
0100
0001
,
0100
0010
1000
0001
,
0010
0000
0100
0000
1000
0000
0001
1000
,
0001
0000
0100
0000
0010
0100
0010
0000
,
1000
0010
1000
0000
0001
1000
0001
0000
,
1000
0000
0100
0000
0010
0001
0010
0000
,
0001
0100
0001
0000
1000
0100
1000
0000
,
2002
0000
0000
0000
,
0000
0000
0000
3003
,
0010
1000
0100
0000
,
1000
0001
0010
0000
,
0001
0100
0010
0000
,
0100
0010
1000
0000
,
0100
1000
0100
1000
0001
1000
0001
1000
,
0010
0100
0010
0100
0001
0100
0001
0100
,
0010
1000
0010
1000
0100
0010
0100
0010
,
0001
0010
0001
0010
0001
1000
0001
1000
,
1010
0100
0001
0010
0100
1000
0010
1000
,
0001
0010
0100
1000
0010
0100
0001
1000
,
0100
1000
0010
0100
0010
1000
0001
0010
,
0100
0010
0001
1000
0010
0100
0010
1000
,
2020
0000
0000
3030
,
0202
0000
0000
0303
,
2002
0000
0000
3003
,
0220
0000
0000
0330
,
0001
1000
0001
0000
1000
0000
0100
0000
,
1000
0000
0010
0100
0000
0010
0100
0000
,
0001
0100
0001
0000
0010
0000
0100
0000
,
1000
0000
0010
0100
0000
0010
1000
0000
,
0001
1000
0001
0000
0010
0000
0100
0000
,
1000
0000
0010
1000
0000
0100
0010
0000
,
0100
1000
0100
0000
1000
0000
0010
0000
,
0100
0000
0001
0100
0000
0010
0100
0020
,
0000
0000
0000
0000
0000
0000
0000
0030
;

//---------------dance-single - ----------------
#NOTES:
     dance-single:
     :
     Hard:
     7:
     0.378,0.536,0.095,0.173,0.264: // measure 1
0000
0000
0000
0000
,  // measure 2
0000
0000
0000
0000
,  // measure 3
0000
0000
0000
0000
,  // measure 4
0000
0000
0000
0000
,  // measure 5
0020
0000
1030
0000
0100
1000
0001
0000
,  // measure 6
0100
0001
1000
0000
0010
0100
0001
0000
,  // measure 7
0020
0000
0130
0000
0010
0001
1000
0000
,  // measure 8
0010
1000
0100
0000
1000
0100
0001
0000
,  // measure 9
0200
0010
0310
0000
0001
0100
0001
1000
,  // measure 10
0001
0000
1000
0010
0100
0000
0010
0000
,  // measure 11
2000
0100
3100
0000
1000
0001
1000
0010
,  // measure 12
0100
0000
0001
0100
0010
0000
1000
0001
,  // measure 13
1001
0000
0110
0000
0001
0100
0001
1000
,  // measure 14
0100
0000
1000
0010
0100
0000
0010
1000
,  // measure 15
1010
0000
1001
0000
1000
0001
0100
0000
,  // measure 16
0010
0100
0001
0000
0010
0100
1000
0000
,  // measure 17
0010
0100
0101
0000
0010
1000
0001
1000
,  // measure 18
0100
0010
0001
0100
0010
0100
0001
0000
,  // measure 19
1000
0010
1010
0000
1000
0010
0100
0001
,  // measure 20
0010
0100
0010
0001
1000
0010
0100
0000
,  // measure 21
2002
0000
0000
0000
,  // measure 22
0000
0000
0000
3003
,  // measure 23
0020
0000
0230
0000
,  // measure 24
0302
0000
2003
0000
,  // measure 25
3020
0000
2030
0000
,  // measure 26
3002
0000
2003
0000
,  // measure 27
3010
0000
0100
0000
0001
0000
1000
0000
0100
0000
0001
0000
1000
0000
0010
1000
,  // measure 28
0100
0001
0010
1000
0001
0100
1000
0010
,  // measure 29
1000
0000
0100
0000
0010
0000
1000
0000
0001
0000
0100
0000
0010
0000
1000
0001
,  // measure 30
0100
0000
0001
0000
0010
0000
0001
1000
0100
0000
1000
0000
0010
0000
0100
0000
,  // measure 31
0201
0001
0010
0301
2010
0001
0100
3010
,  // measure 32
0210
0010
1000
0310
0102
0100
1000
0103
,  // measure 33
0010
1000
0010
0000
1000
0100
1000
0000
0001
1000
0001
0100
0001
1000
0010
0000
,  // measure 34
0100
0010
0100
0000
0001
0010
0001
0000
1000
0100
1000
0010
0100
0010
1000
0000
,  // measure 35
0202
0000
0000
0000
0000
0000
0000
0300
,  // measure 36
2000
0000
0000
0000
0000
0000
0000
3003
,  // measure 37
0010
0100
0100
0000
0010
1000
0001
1000
0100
0100
0010
0001
0000
1000
0010
0100
,  // measure 38
0001
1000
1000
0000
0010
1000
0100
1000
0001
0001
0010
0001
0000
0100
0010
0100
,  // measure 39
0001
1000
0001
0000
1000
0010
0000
0010
1000
0000
1000
0100
0000
0100
0010
0000
,  // measure 40
0001
0100
0001
0000
0010
0100
0000
0100
1000
0000
1000
0010
0000
0010
0100
0000
,  // measure 41
0010
1000
0010
0000
0100
0001
0000
1000
0100
0000
1000
0001
0000
1000
0001
0000
,  // measure 42
0100
0010
0100
0000
0001
0010
0000
0001
1000
0000
0100
1000
0000
0001
0100
0000
,  // measure 43
0010
0100
0010
0000
0100
0001
0000
1000
0100
0000
1000
0001
0000
0100
0010
0000
,  // measure 44
1000
0100
1000
0000
0001
0010
0000
0100
0010
0000
0001
1000
0000
0010
0100
0000
,  // measure 45
0001
0100
0001
0000
1000
0100
0000
1000
0001
0000
0100
0010
0000
1000
0010
0000
,  // measure 46
1000
0100
1000
0000
0001
0010
0000
0010
0100
0000
0100
1000
0000
1000
0020
0000
,  // measure 47
0000
0000
0000
0000
0000
0000
0000
0030
;

//---------------dance-single - ----------------
#NOTES:
     dance-single:
     :
     Easy:
     3:
     0.194,0.296,0.039,0.347,0.000:
0000
0000
0000
0000
,
0000
0000
0000
0000
,
0000
0000
0000
0000
,
0000
0000
0000
0000
,
0020
0000
2030
0000
,
3002
0000
2003
0000
,
3200
0000
0320
0000
,
0032
0000
2003
0000
,
3020
0000
2030
0000
,
3002
0000
2003
0000
,
3200
0000
0320
0000
,
0032
0000
0203
0000
,
0310
0000
1000
0100
,
1000
0000
0001
1000
,
0001
0000
0100
0001
,
0200
0000
0300
0001
,
1000
0010
0000
1000
,
0001
0100
0000
0010
,
0100
0001
0000
0010
,
0100
1000
0000
0010
,
2002
0000
0000
0000
,
0000
0000
0000
3003
,
0200
0000
0302
0000
,
0023
0000
0230
0000
,
2300
0000
3002
0000
,
0203
0000
0320
0000
,
1030
0000
0001
0000
0010
0000
0100
0100
,
0100
0000
0010
0000
0001
0000
1000
1000
,
1000
0000
0010
0000
1000
0000
0100
0100
,
0100
0000
0010
0000
0001
0000
0010
0010
,
0020
0032
2003
3020
,
0130
0010
1000
0000
0010
0100
0001
0000
,
0020
0230
2300
3002
,
1003
0010
0100
0000
0001
0010
0100
0000
,
2020
0000
0000
3030
,
0202
0000
0000
0303
,
0220
0000
0000
0330
,
2020
0000
0000
0000
0000
0000
3030
0001
,
1000
0010
0100
0010
,
1000
0100
1000
0000
,
0001
1000
0010
0100
,
0001
0001
0010
0000
,
0001
0010
0001
1000
,
0100
1000
0010
0000
,
0100
0010
0100
0001
,
1000
0000
0100
0000
0010
0000
0001
0200
,
0000
0000
0000
0000
0000
0000
0000
0300
;
