#TITLE:Knock On Wood (CPR Mix);
#SUBTITLE:;
#ARTIST:Airi L;
#TITLETRANSLIT:;
#SUBTITLETRANSLIT:;
#ARTISTTRANSLIT:;
#CREDIT:;
#BANNER:Knock On Wood (CPR Remix)-bn.png;
#BACKGROUND:Knock On Wood (CPR Remix)-bg.png;
#LYRICSPATH:;
#CDTITLE:;
#MUSIC:Knock On Wood (CPR Remix).mp3;
#OFFSET:-0.020;
#SAMPLESTART:27.947;
#SAMPLELENGTH:14.880;
#SELECTABLE:YES;
#BPMS:0.000=150.000;
#STOPS:156.000=-0.010
,159.000=-0.010
,251.000=-0.010
;
#BGCHANGES:;

//---------------dance-single - ----------------
#NOTES:
     dance-single:
     :
     Medium:
     5:
     0.339,0.424,0.208,0.038,0.000:
0000
0000
0000
0000
,
0000
0000
0000
0000
,
0000
0000
0000
0000
,
0000
0000
0000
0000
,
1000
0001
0100
0010
,
0100
0001
1000
0000
,
0010
1000
0100
0010
,
0001
1000
0010
0000
,
1000
0001
0100
0010
,
1000
0000
0001
0000
1000
0100
1000
0100
,
1000
0000
0010
1000
,
0001
0100
0010
0100
,
0001
1000
0001
0010
,
0100
0000
1000
0000
0001
1000
0001
1000
,
0001
0000
1000
0010
,
0100
0010
1000
0001
,
0010
0001
1000
0001
,
0100
0000
0010
0000
1000
0100
1000
0100
,
1000
0000
0000
1001
0000
0000
0000
0000
,
0001
0000
0000
0101
0000
0000
0000
0000
,
0010
0000
1000
0000
0001
1000
0001
0000
,
0010
0000
0100
0000
1000
0001
1000
0000
,
1001
0010
0100
0001
,
0000
0000
0000
0000
0000
0000
0100
0010
,
0200
0001
0010
0301
,
1001
1100
1000
0010
,
2000
0100
0010
3100
,
1001
0000
0100
0000
0010
0100
0001
0000
,
1002
0100
1000
0103
,
1100
1001
0010
1000
,
2100
0010
0100
3010
,
1000
0000
0001
0000
0100
0010
0100
0000
,
0001
0000
1000
0000
0100
1000
0000
0001
,
0000
0000
0000
0000
,
1000
0000
0001
0000
0100
0010
0000
0100
,
0000
0000
0000
0000
,
0001
0000
1000
0000
0100
1000
0000
0010
,
0000
0000
0000
0000
,
1000
0000
0000
0000
0000
0000
0001
0100
,
0000
0000
0000
0000
,
1001
0000
0110
0000
0001
0100
0001
0000
,
1000
0010
0100
0001
,
1000
0100
0010
0001
,
1000
0001
0100
0000
,
1010
0000
1000
0000
0100
1000
0100
0000
,
1000
0010
0100
0010
,
1000
0000
0100
0000
1000
0001
1000
0000
,
0010
0100
0001
0000
,
1000
0001
0100
0010
,
0100
0001
1000
0000
,
1001
1001
1001
0000
,
0100
0010
1000
0001
,
1100
1100
1100
0000
,
0010
0000
1000
0000
0001
0100
0001
0000
,
1000
0100
1000
0010
,
0100
0010
1000
0001
,
1000
0100
1000
0000
0010
1000
0010
0000
,
1000
0100
1000
0001
,
0101
0000
0000
1001
0000
0000
0000
0000
,
0100
0001
0010
0000
,
0001
0100
0010
1000
,
0100
1000
0010
0100
,
0001
1000
0100
1000
,
0010
0010
1000
0001
,
1001
0000
0000
0000
;

//---------------dance-single - ----------------
#NOTES:
     dance-single:
     :
     Beginner:
     1:
     0.109,0.182,0.066,0.000,0.000: // measure 1
0000
0000
0000
0000
,  // measure 2
0000
0000
0000
0000
,  // measure 3
0000
0000
0000
0000
,  // measure 4
0000
0000
0000
0000
,  // measure 5
0010
0000
0000
0000
,  // measure 6
0010
0000
0000
0000
,  // measure 7
1000
0000
0000
0000
,  // measure 8
0001
0000
0000
0000
,  // measure 9
1000
0000
0000
0000
,  // measure 10
0100
0000
0000
0000
,  // measure 11
0010
0000
0000
0000
,  // measure 12
0001
0000
0000
0000
,  // measure 13
1000
0000
0000
0000
,  // measure 14
0010
0000
0000
0000
,  // measure 15
1000
0000
0000
0000
,  // measure 16
0100
0000
0000
0000
,  // measure 17
0010
0000
0000
0000
,  // measure 18
0001
0000
0000
0000
,  // measure 19
1001
0000
0000
0000
,  // measure 20
1001
0000
0000
0000
,  // measure 21
0110
0000
0000
0000
,  // measure 22
0110
0000
0000
0000
,  // measure 23
1001
0000
0000
0000
,  // measure 24
0000
0000
0000
0000
,  // measure 25
0100
0000
0000
0000
,  // measure 26
0100
0100
0000
0000
,  // measure 27
1000
0000
0000
0000
,  // measure 28
1000
0000
0000
0000
,  // measure 29
0001
0000
0000
0000
,  // measure 30
0001
0001
0000
0000
,  // measure 31
0010
0000
0000
0000
,  // measure 32
0010
0000
0000
0000
,  // measure 33
0001
0000
0001
0000
,  // measure 34
0000
0000
0000
0000
,  // measure 35
1000
0000
1000
0000
,  // measure 36
0000
0000
0000
0000
,  // measure 37
0010
0000
0010
0000
,  // measure 38
0000
0000
0000
0000
,  // measure 39
0100
0000
0100
0000
,  // measure 40
0000
0000
0000
0000
,  // measure 41
1001
0000
0000
0000
,  // measure 42
0100
0000
0000
0000
,  // measure 43
1000
1000
1000
1000
,  // measure 44
1000
0000
0000
0000
,  // measure 45
0010
0000
0000
0000
,  // measure 46
1000
0000
0000
0000
,  // measure 47
0001
0001
0001
0001
,  // measure 48
0001
0000
0000
0000
,  // measure 49
0100
0100
0100
0000
,  // measure 50
0000
0000
0000
0000
,  // measure 51
0100
0000
0100
0000
,  // measure 52
0000
0000
0000
0000
,  // measure 53
0010
0000
0010
0000
,  // measure 54
0010
0000
0000
0000
,  // measure 55
1000
0000
0000
0000
,  // measure 56
0001
0000
0000
0000
,  // measure 57
1001
0000
0000
0000
,  // measure 58
0100
0000
0100
0000
,  // measure 59
0100
0000
0000
0000
,  // measure 60
0010
0000
0010
0000
,  // measure 61
0010
0000
0000
0000
,  // measure 62
1000
0000
1000
0000
,  // measure 63
1000
0000
0000
0000
,  // measure 64
0001
0000
0001
0000
,  // measure 65
0001
0000
0000
0000
;

//---------------dance-single - ----------------
#NOTES:
     dance-single:
     :
     Hard:
     8:
     0.535,0.575,0.312,0.208,0.080:
0000
0000
0000
0000
,
0000
0000
0000
0000
,
0000
0000
0000
0000
,
0000
0000
0000
0000
,
2000
3002
0203
0320
,
2030
0000
3200
0000
1300
0001
1000
0010
,
0200
0000
0320
0000
1030
0000
0001
1000
,
0002
2003
3100
1000
,
0010
0000
1000
0000
0001
0100
0002
0000
,
2003
0100
3100
0000
0010
0100
0010
0100
,
1000
0000
0001
0000
0100
0000
0010
0100
,
0020
2030
3001
1000
,
0010
0000
1000
0001
2000
0000
3002
0000
,
0203
0000
0301
0000
1000
0000
0100
1000
,
0002
0100
0103
0000
1010
0000
1000
0001
,
1000
0010
0100
0000
0001
0000
1000
0000
,
0010
0100
0010
1000
0100
0010
0001
1000
,
0001
0000
1000
0000
0001
0100
0001
1001
,
0000
1010
0000
0202
0000
0303
0000
1001
,
0000
0110
0000
2020
0000
3030
0000
0000
,
0001
1000
0100
0001
0100
1000
0010
0100
,
0001
1000
0001
0000
1000
0100
0010
0001
,
0100
0000
0100
0010
0000
0010
1000
0000
1000
0001
0000
0000
,
0000
0000
0000
0000
0000
0000
0100
0100
,
0010
1000
0100
1000
0001
0010
0100
0010
,
0001
1000
0010
0100
0001
1000
0100
0010
,
0001
1000
0010
0001
0010
1000
0100
1100
,
0000
1001
0000
0110
0000
0101
0000
1001
,
0001
0100
0010
1000
0100
0010
0001
1000
,
0010
0001
0010
1000
0100
0010
0001
1000
,
0100
0001
0100
1000
0010
0100
0010
0110
,
0000
0101
0000
1100
0000
1001
0000
1100
,
0100
0000
0010
0000
0001
0000
1000
0010
,
0000
1000
0000
0001
0100
1000
0100
0001
,
1000
0000
0100
0000
0010
0001
0000
1000
,
0000
0000
0000
1000
0010
0100
0001
1000
,
0100
0000
0010
0000
0001
0000
1000
0010
,
0000
1000
0000
0001
0010
0100
0010
0001
,
1000
0000
0000
0000
0000
0001
0100
0001
,
0001
0000
0000
1000
0010
0001
0100
0000
,
0001
0100
0001
1000
0100
0010
0001
1000
,
0010
0100
0001
1000
0100
0010
0001
1000
,
0010
1000
0100
1000
0001
0100
1000
0100
,
0010
1000
0100
0010
0001
1000
0001
0010
,
0100
0000
0000
0100
1000
0000
0000
1000
0001
0000
0000
0001
0100
0000
0100
0000
,
0010
0000
1000
0100
0001
0000
0010
0001
,
0100
0000
0000
0100
0010
0000
0000
0010
1000
0000
0000
1000
0001
0000
0001
0000
,
0100
0000
0010
1000
0100
0010
0001
1000
,
1001
1001
1001
0000
,
0100
0010
0100
0001
1000
0100
0010
0000
,
1001
0000
0000
1001
0000
0000
0000
0000
,
0100
0001
1000
0000
0100
0010
0001
0000
,
1100
1100
0101
0101
,
0010
1000
0100
0010
0001
0100
0010
0100
,
0000
0000
0010
1000
0000
0000
1000
0001
,
0000
0000
0100
0010
0000
0000
1000
0100
,
1000
0000
0000
1001
0000
0000
0000
0000
,
0100
0010
0010
0100
0100
0000
0000
0000
,
0101
0000
0000
1100
0000
0000
0000
0000
,
1000
0010
0010
1000
1000
0000
0000
0000
,
1001
0000
0100
1100
0000
0000
1000
0000
,
0001
0100
0100
0001
0001
0000
1000
0000
,
1010
0000
1000
1001
0000
0000
0100
0000
,
0010
1000
0010
0100
0001
0100
0001
1000
0001
1000
0100
0010
,
0100
0000
0000
0000
;

//---------------dance-single - ----------------
#NOTES:
     dance-single:
     :
     Easy:
     4:
     0.223,0.272,0.057,0.000,0.000:
0000
0000
0000
0000
,
0000
0000
0000
0000
,
0000
0000
0000
0000
,
0000
0000
0000
0000
,
1000
0000
0001
0000
,
1000
0000
0001
0000
,
0100
0010
1000
0000
,
0001
1000
0100
0000
,
1000
0001
1000
0001
,
0100
0001
1000
0001
,
1000
0010
1000
0100
,
1000
0000
0010
0000
,
0100
0000
0001
0000
,
0010
0001
0100
0001
,
1000
0001
0100
0001
,
0010
0001
0100
0001
,
1000
0000
0001
0000
,
1000
0000
0010
0000
,
0100
0010
0100
0000
,
0001
1000
0001
0000
,
1000
0100
0010
0001
,
1000
0001
0100
0010
,
1000
0000
0000
0000
,
0000
0000
0000
0000
,
1001
0000
0100
0010
,
1000
0001
0100
0000
,
1001
0000
1000
0100
,
0010
0001
1000
0000
,
1001
0000
0100
0001
,
1000
0100
0010
0000
,
1001
0000
0010
1000
,
0010
0100
0001
0000
,
1000
0000
0001
0000
,
0100
0000
0000
0000
,
0010
0000
1000
0000
,
0001
0000
0000
0000
,
0010
0000
0001
0000
,
0100
0000
0000
0000
,
0010
0000
0000
0000
,
1000
0000
0000
0000
,
0001
1000
0100
0010
,
0001
1000
0001
0000
,
1000
0010
0100
0010
,
1000
0100
1000
0000
,
0001
1000
0001
0010
,
0001
0100
0010
0000
,
0100
0001
1000
0100
,
0010
0001
1000
0000
,
0001
0100
1000
0100
,
0001
0000
0000
0000
,
1000
0010
0001
0010
,
1000
0000
0000
0000
,
0001
0100
1000
0100
,
0001
0000
0000
0000
,
1000
0010
0001
0010
,
1000
0000
0000
0000
,
0100
0000
0100
0000
,
0100
0000
0100
0000
,
1000
0000
1000
0000
,
1000
0000
1000
0000
,
0001
0000
0001
0000
,
0001
0000
0001
0000
,
0010
0000
0010
0000
,
0001
0100
0010
1010
,
1001
0000
0000
0000
;
