#TITLE:Just The Way You Are;
#SUBTITLE:;
#ARTIST:Bruno Mars;
#TITLETRANSLIT:;
#SUBTITLETRANSLIT:;
#ARTISTTRANSLIT:;
#CREDIT:;
#BANNER:Just The Way You Are-bn.png;
#BACKGROUND:Just The Way You Are-bg.png;
#LYRICSPATH:;
#CDTITLE:;
#MUSIC:Just The Way You Are.mp3;
#OFFSET:1.080;
#SAMPLESTART:43.467;
#SAMPLELENGTH:17.180;
#SELECTABLE:YES;
#BPMS:0.000=108.970,84.000=109.040;
#STOPS:;
#BGCHANGES:3.500=Just The Way You Are DDR Cut.avi=1.000=1=0=1,
99999=-nosongbg-=1.000=0=0=0 // don't automatically add -songbackground-
;

//---------------dance-single - ----------------
#NOTES:
     dance-single:
     :
     Beginner:
     1:
     0.072,0.086,0.017,0.000,0.000: // measure 1
0000
0000
0000
0000
,  // measure 2
0000
0000
0000
0000
,  // measure 3
0000
0000
0000
0000
,  // measure 4
1000
0000
0000
0000
,  // measure 5
0010
0000
0000
0000
,  // measure 6
0100
0100
0000
0100
,  // measure 7
0000
0000
0000
0000
,  // measure 8
0001
0001
0000
0001
,  // measure 9
0000
0000
0000
0000
,  // measure 10
0010
0000
0000
0000
,  // measure 11
0001
0000
0000
0000
,  // measure 12
1000
0000
0000
0000
,  // measure 13
0010
0000
0000
0000
,  // measure 14
1000
1000
0000
1000
,  // measure 15
0000
0000
0000
0000
,  // measure 16
0100
0100
0000
0100
,  // measure 17
0000
0000
0000
0000
,  // measure 18
1000
0000
0000
0000
,  // measure 19
0010
0000
0000
0000
,  // measure 20
0001
0000
0000
0000
,  // measure 21
0100
0000
0000
0000
,  // measure 22
0010
0000
0010
0000
,  // measure 23
0010
0000
0000
0000
,  // measure 24
1000
0000
1000
0000
,  // measure 25
1000
0000
0000
0000
,  // measure 26
0100
0100
0000
0000
,  // measure 27
0100
0000
0100
0000
,  // measure 28
0100
0000
0000
0000
,  // measure 29
0000
0000
0000
0000
,  // measure 30
0001
0000
0001
0000
,  // measure 31
0001
0000
0000
0000
,  // measure 32
1000
0000
1000
0000
,  // measure 33
1000
0000
0000
0000
,  // measure 34
0010
0010
0000
0000
,  // measure 35
0010
0000
0010
0000
,  // measure 36
0010
0000
0000
0000
,  // measure 37
0000
0000
0000
0000
,  // measure 38
1001
0000
0000
0000
,  // measure 39
0000
0000
0000
0000
,  // measure 40
0110
0000
0000
0000
,  // measure 41
0000
0000
0000
0000
,  // measure 42
0001
0001
0000
0000
,  // measure 43
0001
0000
0001
0000
,  // measure 44
0001
0000
0000
0000
,  // measure 45
0000
0000
0000
0000
,  // measure 46
1000
0000
0000
0000
,  // measure 47
0010
0000
0000
0000
,  // measure 48
0100
0000
0000
0000
,  // measure 49
0010
0000
0000
0000
,  // measure 50
1000
0000
0000
0000
,  // measure 51
0001
0000
0000
0000
,  // measure 52
0100
0000
0000
0000
,  // measure 53
0010
0000
0000
0000
;

//---------------dance-single - ----------------
#NOTES:
     dance-single:
     :
     Medium:
     6:
     0.340,0.328,0.066,0.099,0.000:
0000
0000
0000
0000
,
0000
0000
0000
0000
,
0000
0000
0000
0000
,
0001
0000
0100
0010
0000
0010
0000
0100
,
0001
0000
0010
0100
0000
0100
0000
0010
,
0001
0000
1000
0000
0010
1000
0100
0000
,
1000
0001
1000
0000
0010
0100
0010
0000
,
0100
0000
0001
0000
1000
0100
0010
0000
,
0001
0010
0001
0000
1000
0100
1000
0000
,
0020
0130
1000
0100
,
2000
0000
3001
0000
0010
0001
0100
0000
,
0002
0103
0010
0100
,
0020
0000
0031
0000
1000
0100
1000
0100
,
1000
0000
0010
0000
0100
0010
0100
0000
,
0001
0100
0010
0000
1000
0001
1000
0001
,
0100
0000
0010
0000
1000
0100
0010
0000
,
0001
1000
0001
0000
1000
0100
1000
0100
,
1000
0000
0010
0000
0100
0010
1000
0000
,
0100
1000
0001
0000
0100
0001
1000
0000
,
0002
0000
0103
0000
0010
0001
0100
0000
,
2000
0000
3100
0000
1000
0100
1000
0000
,
0010
0000
0100
0001
0000
1000
0000
0100
,
0010
0000
0001
0100
0000
1000
0000
0010
,
0100
0000
0010
1000
0000
0001
0000
0010
,
0001
0000
1000
0100
1000
0010
1000
0100
,
0010
0000
0001
0010
0000
0100
0000
1000
,
0001
0000
0100
0010
0000
0100
0000
0001
,
0010
0000
0100
0010
0000
0001
0000
1000
,
0100
0000
1000
0001
0000
0010
0000
0100
,
0010
0000
0001
0100
0001
0010
0100
0010
,
0001
0000
1000
0001
1000
0010
0100
0010
,
1000
0000
0100
1000
0001
1000
0010
0100
,
0010
0000
1000
0100
1000
0001
0010
0100
,
0010
0000
0001
0010
0001
1000
0100
1000
,
0010
0000
0100
0010
0100
0001
1000
0100
,
0010
0000
0001
0010
1000
0010
0001
1000
,
0100
0000
1000
0001
0100
0010
0100
0000
,
2002
0000
0000
3003
,
0010
0000
0100
0001
0100
1000
0100
0000
,
2002
0000
0000
3003
,
0010
0000
1000
0100
1000
0001
0100
0001
,
1000
0000
0010
0000
0100
0010
1000
0000
,
1100
1001
0101
1010
,
1001
0000
0010
0000
0001
0010
0100
0000
,
1000
0001
1000
0010
0100
0010
1000
0000
,
0001
0000
0100
0010
0000
0010
0000
0100
,
0001
0000
0010
0100
0000
0100
0000
0010
,
0001
0000
1000
0010
0000
0010
0000
1000
,
0001
0000
0010
0001
0000
0001
0000
0100
,
0010
0000
1000
0100
0000
0100
0000
1000
,
0001
0000
0010
0001
0000
0001
0000
0100
,
0010
0000
1000
0100
0000
0100
0000
1000
,
0010
0000
0100
0001
0000
0202
0000
0303
;

//---------------dance-single - ----------------
#NOTES:
     dance-single:
     :
     Hard:
     9:
     0.598,0.570,0.157,0.033,0.529:
0000
0000
0000
0000
,
0000
0000
0000
0000
,
0000
0000
0000
0000
,
0010
0000
1000
0001
0000
0001
0000
0100
,
0010
0000
0000
0000
0100
0000
0001
0000
0000
0000
1000
0100
1000
0100
1000
0000
,
0000
0000
1010
0000
1001
0000
0000
0000
0101
0000
1001
0000
0000
0000
0010
0100
,
0010
0000
1000
0100
0000
1000
0000
0001
0000
0100
0000
0010
1000
0000
0001
0000
,
1000
0000
1100
0000
1001
0000
0000
0000
0110
0000
0101
0000
0000
0000
0010
1000
,
0010
0000
1000
0100
0000
1000
0000
0001
0000
0100
0000
0010
0100
0000
0001
0000
,
1000
0010
1000
0000
0001
0000
0010
0000
0100
0000
0010
0000
0001
1000
0001
0000
,
0100
0010
0100
0000
0001
0000
0010
0000
0100
0000
1000
0000
0010
1000
0010
0000
,
1000
0001
1000
0000
0010
0000
0100
0000
0001
0000
0010
0000
0100
0010
0100
0000
,
1000
0100
1000
0000
0001
0000
0100
0010
0100
0001
1000
0000
1000
0010
1000
0000
,
0001
0000
0101
0000
1001
0000
0000
0000
1100
0000
1001
0000
0000
0000
0010
0100
,
0010
0000
1000
0010
0000
1000
0000
0001
0100
0000
0010
0000
0100
0000
0001
0000
,
1000
0000
1100
0000
1001
0000
0000
0000
0101
0000
0011
0000
0000
0000
0100
0010
,
0100
0000
0010
1000
0000
0100
0000
1000
0000
0001
0000
0100
0010
0000
0100
0000
,
0001
1000
0100
0000
1000
0000
0010
0000
0100
0000
0010
0000
1000
0001
1000
0000
,
0010
0100
0001
0000
0010
0000
0100
0000
0010
0000
0001
0000
1000
0010
0100
0000
,
0010
1000
0100
0000
1000
0000
0001
0000
0100
0000
0010
0000
1000
0001
0100
0000
,
0010
1000
0100
0000
1000
0000
0001
0100
0010
1000
0001
0000
1000
0010
0100
0001
,
0100
0000
0010
1000
0010
0000
1000
0100
1000
0000
0001
1000
0001
0000
0100
0010
,
0100
0000
0001
0010
0001
0000
1000
0100
1000
0100
1000
0100
1000
0000
0010
0100
,
0010
0000
1000
0100
1000
0000
0001
0010
0001
0000
0100
0010
0100
0000
0001
0010
,
0001
0000
1000
0100
1000
0000
0001
0100
0001
0100
0001
0100
0001
0000
1000
0010
,
1000
0000
0010
0100
0010
0000
1000
0100
1000
0000
0001
0100
0001
0000
1000
0100
,
1000
0000
0010
0100
0010
0000
1000
0100
1000
0100
1000
0100
1000
0000
0010
0100
,
0010
0000
1000
0100
1000
0000
0001
0100
0001
0000
0010
0100
0010
0000
0001
0010
,
0001
0000
1000
0100
1000
0000
0001
1000
0001
1000
0001
1000
0001
0000
0100
0010
,
0100
0000
0001
0000
1000
0100
0000
0100
1000
0000
0010
0100
0010
0000
1000
0100
,
1000
0000
0001
0000
0010
0001
0000
0001
0100
0000
0010
0100
0010
0000
1000
0100
,
1000
0000
0001
0000
0100
0010
0000
0010
0100
0000
0001
1000
0100
0000
1000
0001
,
0100
0000
0010
0000
1000
0100
0000
0100
1000
0000
0010
0100
0001
0000
0010
0100
,
1000
0000
0001
0000
1000
0010
0000
0010
0100
0000
0001
0100
0010
0000
1000
0100
,
1000
0000
0001
0000
1000
0100
0000
0100
1000
0000
0001
0010
0100
0000
0010
0001
,
1000
0000
0010
0000
0100
0001
0000
0001
0100
0000
0010
0100
0001
0000
0010
0100
,
1000
0000
0001
0000
1000
0001
0000
0001
1000
0000
0010
0100
0010
0000
1000
0100
,
2000
0100
0010
0100
0001
0100
0010
0100
,
0010
0001
0010
0100
0010
0001
0010
0100
,
3002
0100
0010
1000
0100
1000
0100
0010
,
0100
0000
0010
0000
0100
0000
1000
0000
0100
0000
1000
0000
0100
0000
0010
0003
,
0100
0000
0001
0100
0001
0000
1000
0100
1000
0000
0010
0000
0100
0010
1000
0001
,
1000
0000
0100
1000
0100
0000
1000
0001
1000
0000
0010
0000
0100
0010
0100
0001
,
1000
0000
0001
0010
0001
0000
1000
0100
1000
0000
0001
0000
1000
0010
0100
0001
,
1000
0000
0010
0100
0010
0000
1000
0100
1000
0000
0001
0000
0100
0010
0100
0000
,
1001
0000
1000
0010
0000
0010
0000
1000
,
0001
1000
0100
0010
0000
0010
0001
1000
,
0001
0100
1000
0100
0000
0100
0010
1000
,
0100
1000
0001
0010
0001
1000
0001
0100
,
0010
1000
0100
1000
0000
1000
0010
0100
,
0001
0010
0100
0010
0000
0010
0001
1000
,
0010
0100
0001
1000
0001
1000
0010
0100
,
0001
1000
0010
1010
0100
2002
0000
0000
,
3003
0000
0000
0000
;

//---------------dance-single - ----------------
#NOTES:
     dance-single:
     :
     Easy:
     4:
     0.255,0.282,0.066,0.314,0.000:
0000
0000
0000
0000
,
0000
0000
0000
0000
,
0000
0000
0000
0000
,
0010
1000
0100
0000
,
1000
0001
0100
0000
,
0020
0130
0020
0130
,
0001
0100
1000
0100
,
0002
1003
0002
1003
,
0010
1000
0001
0010
,
0200
0310
0200
0310
,
0001
0100
1000
0010
,
2000
3100
2000
3100
,
1000
0010
0100
0010
,
2000
3100
2000
3100
,
1000
0010
0100
0001
,
0020
0031
0020
0031
,
0100
0010
0100
0001
,
2000
3100
2000
3100
,
1000
0010
0001
0010
,
0002
1003
0002
1003
,
0010
1000
0100
1000
,
1100
0000
1001
0000
,
0100
0100
0100
0000
,
0011
0000
1001
0000
,
0100
0100
0100
0000
,
0020
1030
0200
0301
,
0020
1030
0200
0301
,
0020
0031
0200
1300
,
0020
0031
0200
1300
,
2002
0000
0000
3003
,
0100
0010
0100
0001
,
2002
0000
0000
3003
,
1000
0010
0100
0001
,
2000
3100
0002
0013
,
2000
3100
0002
0013
,
0200
0310
0200
0301
,
0200
0310
0200
0301
,
2000
0100
0100
0100
,
3100
0000
1000
0001
,
0002
0100
0100
0100
,
0103
0000
0010
0100
,
0110
0000
0001
0100
,
1000
0100
0001
0010
,
1000
0010
0001
1000
,
0001
0000
1000
0100
,
1001
0000
0000
0000
,
0100
0010
0100
0010
,
0100
0000
0001
1000
,
0001
0000
1000
1000
,
1000
0001
0001
0000
,
0100
0000
0000
0000
,
0010
0010
0000
0000
,
1000
0001
0100
0000
;
