#TITLE:Hysteria;
#SUBTITLE:;
#ARTIST:Muse;
#TITLETRANSLIT:;
#SUBTITLETRANSLIT:;
#ARTISTTRANSLIT:;
#CREDIT:;
#BANNER:Hysteria-bn.png;
#BACKGROUND:Hysteria-bg.png;
#LYRICSPATH:;
#CDTITLE:;
#MUSIC:Hysteria.mp3;
#OFFSET:-0.190;
#SAMPLESTART:61.928;
#SAMPLELENGTH:17.280;
#SELECTABLE:YES;
#BPMS:0.000=93.170;
#STOPS:;
#BGCHANGES:;

//---------------dance-single - ----------------
#NOTES:
     dance-single:
     :
     Beginner:
     1:
     0.080,0.131,0.069,0.020,0.000:
0000
0000
0000
0000
,
0000
0000
0000
0000
,
0000
0000
0000
0000
,
0000
0000
0000
0000
,
2002
0000
0000
0000
,
0000
0000
0000
0000
,
0000
0000
0000
0000
,
0000
0000
0000
3003
,
0100
0000
0000
0000
,
0010
0000
0000
0000
,
1000
0000
0000
0000
,
0001
0000
0000
0000
,
1000
0000
0000
0000
,
0100
0000
0000
0000
,
0010
0000
0000
0000
,
0001
0000
0000
0000
,
1000
1000
0000
0000
,
0001
0001
0000
0000
,
0100
0100
0000
0000
,
0010
0010
0000
0000
,
1000
1000
0000
0000
,
0100
0100
0000
0000
,
0010
0010
0000
0000
,
0110
0000
0000
0000
,
1001
0000
0000
0000
,
1001
0000
0000
0000
,
0100
0100
0100
0100
,
0100
0000
0000
0000
,
0110
0000
0000
0000
,
0110
0000
0000
0000
,
1000
1000
1000
1000
,
1000
0000
0000
0000
,
0010
0000
0010
0000
,
0010
0000
0000
0000
,
0100
0000
0100
0000
,
0100
0000
0000
0000
,
0001
0000
0001
0000
,
0001
0000
0000
0000
,
1001
0000
0000
0000
;

//---------------dance-single - ----------------
#NOTES:
     dance-single:
     :
     Medium:
     6:
     0.305,0.355,0.079,0.187,0.039:
0000
0000
0000
0000
,
0000
0000
0000
0000
,
0000
0000
0000
0000
,
0000
0000
0000
0000
,
0010
1010
0000
1001
,
0100
0101
0000
0110
,
1000
1100
0000
1001
,
0100
0000
0110
0000
0000
0000
0001
1000
,
0001
0000
1000
0000
0010
0100
0010
1000
,
0100
0000
1000
0000
0001
1000
0001
0010
,
0100
0000
0010
0000
0001
0100
0001
1000
,
0100
0000
0010
0000
0100
1000
0010
1000
,
0010
0000
0100
0000
0010
1000
0010
0100
,
0001
0000
0010
0000
0001
1000
0001
1000
,
0100
0000
0010
0000
0001
0100
0001
1000
,
0010
0000
0100
0000
0010
1000
0100
1000
,
0002
2003
3100
1000
,
0020
0230
0301
1000
,
0002
0023
0032
2003
,
3200
0000
2300
0000
3020
0000
0130
0010
,
0200
0302
1003
0100
,
2000
3020
0130
0001
,
0020
0032
2003
3020
,
0130
0000
0000
0100
0000
0000
0100
0000
0000
0100
0000
0000
0100
0000
0100
0000
,
0100
0000
0010
0000
1000
0001
1000
0100
,
0100
0000
1000
0000
0010
0100
0010
1000
,
1000
0000
0001
0000
1000
0001
1000
0010
,
0100
0010
1000
0000
0100
0100
0100
0100
,
0100
0000
1000
0000
0010
1000
0010
0000
,
1000
0000
0001
0000
0100
0001
0100
0000
,
0010
1000
0001
1000
0100
0010
0001
1000
,
0010
0000
1000
0010
0100
0010
0110
0000
,
0001
1000
0100
0000
1000
0000
0010
0000
,
0100
0010
1000
0000
0001
0000
1000
0000
,
0010
0000
0010
0000
0100
0010
0000
0000
0100
0000
0100
0000
0010
0100
0000
0000
,
0001
0000
0001
0000
1000
0001
0000
0000
1000
0000
1000
0000
0001
1000
0000
0000
,
0010
0010
1000
0001
0100
0010
1000
0001
,
1000
0000
0100
0000
0010
0000
0001
0000
1000
0000
0010
0000
0100
0010
0100
0010
,
0100
0000
0000
0000
;

//---------------dance-single - ----------------
#NOTES:
     dance-single:
     :
     Hard:
     10:
     0.620,0.637,0.305,0.020,0.678:
0000
0000
0000
0000
,
0000
0000
0000
0000
,
0000
0000
0000
0000
,
0000
0000
0000
0000
,
0010
1000
1100
1000
0010
0100
0110
0100
,
0001
1000
1001
0010
0001
0100
0101
0100
,
0010
1000
1100
0010
0001
1000
1001
1000
,
0010
0000
0100
0000
0110
0000
0100
0000
0001
0000
1000
0000
0010
0100
0010
0100
,
0010
0000
1000
0100
1000
0000
0001
0100
0001
1000
0100
1000
0001
0000
0100
0000
,
0010
0000
1000
0010
1000
0000
0001
0010
0001
1000
0100
1000
0001
0000
0100
0000
,
0010
0000
1000
0100
1000
0000
0010
0100
0010
1000
0001
1000
0010
0000
0100
0000
,
0001
0000
1000
0100
1000
0000
0001
0010
0001
1000
0010
0100
0010
0100
0010
0100
,
0001
0000
1000
0100
1000
0000
0010
0100
0010
1000
0001
0010
0001
0000
1000
0000
,
0010
0000
1000
0100
1000
0000
0001
0100
0001
1000
0100
0001
0100
0000
1000
0000
,
0010
0000
0100
0010
0100
0000
0001
0010
0001
1000
0100
1000
0001
0000
0100
0000
,
0010
0000
1000
0100
1000
0000
0010
0100
0010
0000
1000
0001
1000
0001
1000
0001
,
1000
0000
0001
0000
0100
0010
0100
0000
0001
0000
1000
0000
0100
1000
0100
0000
,
1000
0000
0010
0000
1000
0001
1000
0000
0010
0000
0100
0000
0001
0100
0001
0000
,
0010
0000
0100
0000
1000
0001
1000
0000
0010
0000
0100
0000
0010
1000
0010
0000
,
0100
0000
0001
0000
1000
0100
1000
0000
0010
0000
0100
0000
0001
1000
0001
1000
,
0001
0000
0100
0000
0010
1000
0100
0000
1000
0000
0010
0000
0100
0001
0010
0000
,
0100
0000
0010
0000
0001
1000
0010
0000
1000
0000
0001
0000
0100
0001
1000
0000
,
0100
0000
0010
0000
0001
1000
0010
0000
0100
0000
0001
0000
1000
0100
1000
0000
,
0001
0100
0100
0010
1000
1000
0100
0010
0010
0001
1000
1000
0010
0100
0001
0000
,
1001
0000
0101
0000
1010
0000
0010
1000
0100
1000
0001
0100
0010
1000
0001
0000
,
1100
0000
0101
0000
1001
0000
0010
1000
0001
1000
0100
0010
0001
1000
0010
0000
,
1001
1100
0101
0010
1100
1001
0110
1001
,
1000
0100
1000
0000
0010
0000
1000
0001
1000
0010
0100
0001
0010
0100
1000
0000
,
1010
0000
1001
0000
0101
0000
0010
0100
0001
0010
0100
0010
0001
1000
0010
0000
,
1010
0000
1001
0000
0101
0000
0010
0100
0010
1000
0001
1000
0100
0010
0001
1000
,
0010
1000
0001
0000
1100
0000
1000
0010
0100
0001
1000
0010
1000
0001
0100
0000
,
0001
1001
0000
1000
1001
0000
0100
0010
0100
0010
0100
0000
0110
0000
0000
0000
,
0001
1000
0010
0100
0010
0010
1000
0100
1000
0001
0001
0100
0010
0010
1000
0001
,
0001
1000
0010
1000
0100
0100
1000
0010
0100
0010
0010
1000
0001
0001
1000
0100
,
0100
1000
0010
1000
0001
0001
0100
0010
1000
0100
0100
1000
0010
0010
0100
0001
,
0001
0010
0100
0010
0001
0001
1000
0010
0100
0010
0010
1000
0100
0100
1000
0010
,
0010
1000
0100
1000
0001
0001
1000
0100
0001
0100
0100
1000
0010
0010
0100
0001
,
0001
0010
0100
0010
0001
1000
0010
0100
0001
0010
1000
0010
0001
1000
0010
0100
,
0220
0330
0000
0000
0000
0000
0000
0000
;

//---------------dance-single - ----------------
#NOTES:
     dance-single:
     :
     Easy:
     4:
     0.202,0.263,0.177,0.167,0.000: // measure 1
0000
0000
0000
0000
,  // measure 2
0000
0000
0000
0000
,  // measure 3
0000
0000
0000
0000
,  // measure 4
0000
0000
0000
0000
,  // measure 5
0000
1001
0000
1001
,  // measure 6
0000
1001
0000
1001
,  // measure 7
0000
1001
0000
1001
,  // measure 8
0000
1001
0000
1001
,  // measure 9
0100
0010
2000
3000
,  // measure 10
0010
1000
0002
0003
,  // measure 11
0100
0001
0020
0030
,  // measure 12
0001
0010
0200
0300
,  // measure 13
0010
0001
2000
3000
,  // measure 14
0010
1000
0200
0300
,  // measure 15
1000
0001
2000
3000
,  // measure 16
0010
0100
0002
0003
,  // measure 17
0100
0010
1000
0001
,  // measure 18
1000
0001
0100
0000
,  // measure 19
0010
1000
0100
0010
,  // measure 20
0001
1000
0001
0000
,  // measure 21
0100
0010
1000
0100
,  // measure 22
0001
0100
1000
0000
,  // measure 23
0010
1000
0001
0010
,  // measure 24
0011
1001
1100
0110
,  // measure 25
2002
3003
0010
0100
,  // measure 26
0202
0303
0010
0100
,  // measure 27
0010
1000
0001
1000
,  // measure 28
0100
0000
1000
0010
,  // measure 29
2020
3030
0100
0010
,  // measure 30
0220
0330
0010
1000
,  // measure 31
0001
1000
0100
0010
,  // measure 32
0001
1000
1001
1001
,  // measure 33
0100
0000
0100
0000
,  // measure 34
0010
0000
0010
0000
,  // measure 35
1000
0100
0001
0100
,  // measure 36
1000
0100
0001
0100
,  // measure 37
1000
0100
0001
0100
,  // measure 38
1000
0100
0001
0100
,  // measure 39
0020
0030
0000
0000
;
