#TITLE:Hot N Cold;
#SUBTITLE:;
#ARTIST:Katy Perry;
#TITLETRANSLIT:;
#SUBTITLETRANSLIT:;
#ARTISTTRANSLIT:;
#CREDIT:;
#BANNER:Hot N Cold-bn.png;
#BACKGROUND:Hot N Cold-bg.png;
#LYRICSPATH:;
#CDTITLE:;
#MUSIC:Hot N Cold.mp3;
#OFFSET:-0.080;
#SAMPLESTART:32.027;
#SAMPLELENGTH:16.500;
#SELECTABLE:YES;
#BPMS:0.000=132.000;
#STOPS:;
#BGCHANGES:-0.500=Hot N Cold.avi=1.000=1=0=0,
99999=-nosongbg-=1.000=0=0=0 // don't automatically add -songbackground-
;

//---------------dance-single - ----------------
#NOTES:
     dance-single:
     :
     Beginner:
     1:
     0.106,0.147,0.024,0.000,0.000:
0000
0000
0000
0000
,
0000
0000
0000
0000
,
0010
0000
0000
0000
,
0100
0000
0000
0000
,
0010
0000
0000
0000
,
0100
0000
0000
0000
,
0001
0000
0000
0000
,
1000
0000
0000
0000
,
0001
0000
0000
0000
,
1000
0000
0000
0000
,
0001
0000
0000
0000
,
0100
0000
0000
0000
,
0001
0000
0000
0000
,
0100
0000
0000
0000
,
0010
0000
0000
0000
,
1000
0000
0000
0000
,
0010
0000
0000
0000
,
1000
0000
0000
0000
,
0001
0001
0000
0000
,
0001
0001
0000
0000
,
1000
1000
0000
0000
,
1000
1000
0000
0000
,
0100
0100
0000
0000
,
0100
0100
0000
0000
,
0010
0010
0000
0000
,
0010
0010
0000
0000
,
1000
1000
0000
0000
,
0001
0001
0000
0000
,
0100
0100
0000
0000
,
0100
0100
0000
0000
,
0010
0010
0000
0000
,
1000
1000
0000
0000
,
0001
0001
0000
0000
,
0010
0010
0000
0000
,
1001
0000
0000
0000
,
0100
0000
0000
0000
,
1001
0000
0000
0000
,
0010
0000
0000
0000
,
1000
1000
0000
0000
,
0001
0001
0000
0000
,
0010
0010
0000
0000
,
0100
0100
0100
0000
;

//---------------dance-single - ----------------
#NOTES:
     dance-single:
     :
     Medium:
     4:
     0.243,0.244,0.024,0.000,0.000:
0000
0000
0000
0000
,
0000
0000
0000
0000
,
0001
0000
0000
0000
0000
1000
0100
1000
,
0000
0000
0000
0000
0000
0010
0100
0010
,
0000
0000
0000
0000
0000
0100
0001
0100
,
0000
0000
0000
0010
,
0010
0000
0000
0000
0000
1000
0001
1000
,
0000
0000
0000
0000
0000
0001
0100
0001
,
0000
0000
0000
0000
0000
1000
0100
1000
,
0000
0000
0000
0001
,
0001
0000
0000
0000
0000
0010
0100
0010
,
0000
0000
0000
0000
0000
0001
0010
0001
,
0000
0000
0000
0000
0000
1000
0100
1000
,
0000
0000
0000
0000
0000
0100
1000
0100
,
0000
0000
0000
0000
0000
0000
1000
0001
,
0000
0000
0100
0010
0000
0000
0001
0100
,
0000
0000
0000
0000
0000
0000
0010
1000
,
0000
0000
0000
0000
,
0001
1000
0100
1000
,
0001
0000
0100
0000
0010
0000
1000
0001
,
0000
0001
1000
0000
0010
0000
0100
0001
,
0000
0001
0100
0000
0010
0000
1000
0000
,
0001
0010
0100
1000
,
0010
0000
0100
0000
0010
0000
1000
0100
,
0000
0100
1000
0000
0010
0000
1000
0001
,
0000
0001
1000
0000
0010
0000
0100
0000
,
0001
1000
0010
1000
,
0001
0000
0010
0000
0100
0000
1000
0010
,
0000
0010
1000
0000
0001
0000
0010
0100
,
0000
0100
0010
0000
0001
0000
1000
0000
,
0010
0100
0010
1000
,
0100
0000
1000
0000
0001
0000
0100
0010
,
0000
0010
0100
0000
0001
0000
1000
0100
,
0000
0100
1000
0000
0010
0000
0000
0000
,
1001
0000
0100
0010
,
0100
0001
1000
0000
,
0110
0000
0001
1000
,
0100
1000
0001
0000
,
1000
0010
0100
0001
,
1000
0000
0100
0000
0010
0000
0001
0100
,
0000
0100
0001
0000
0010
0000
0100
1000
,
0000
1000
0100
0000
0000
0000
0000
0000
;

//---------------dance-single - ----------------
#NOTES:
     dance-single:
     :
     Hard:
     7:
     0.479,0.419,0.413,0.142,0.000: // measure 1
0000
0000
0000
0000
,  // measure 2
0000
0000
0000
0000
,  // measure 3
0002
0000
0103
0000
0010
1000
0010
0000
,  // measure 4
2000
0000
3001
0000
0100
0010
0100
0010
,  // measure 5
0200
0000
0310
0000
1000
0001
1000
0000
,  // measure 6
0002
0000
0103
0000
0010
1000
0010
1000
,  // measure 7
0200
0000
0310
0000
0001
1000
0001
0000
,  // measure 8
2000
0000
3100
0000
0010
0100
0010
0100
,  // measure 9
0002
0000
0103
0000
0010
0100
0010
0000
,  // measure 10
2000
0000
3001
0000
1000
0100
1000
0000
,  // measure 11
1010
0000
1001
0000
0100
0010
1000
0000
,  // measure 12
1001
0000
1100
0000
1000
0001
0100
0000
,  // measure 13
0101
0000
1100
0000
0010
0001
0100
0000
,  // measure 14
0110
0000
0101
0000
0010
0001
1000
0001
,  // measure 15
1000
0000
0100
1000
0001
0000
1000
0010
,  // measure 16
0100
0001
0100
0010
1000
0001
1000
0100
,  // measure 17
0020
0001
0100
0031
,  // measure 18
2000
0000
0100
0000
3010
0100
0010
1000
,  // measure 19
0001
1000
1001
0000
1100
0000
1000
0001
,  // measure 20
0100
0010
0110
0000
0101
0000
0010
0001
,  // measure 21
1000
0001
1001
0000
1100
0000
1000
0010
,  // measure 22
0100
0010
0110
0000
1010
0000
1000
0001
,  // measure 23
0010
0001
0011
0000
1100
0000
0010
1000
,  // measure 24
0001
1000
1001
0000
1100
0000
1000
0010
,  // measure 25
0100
0001
0101
0000
1001
0000
0010
0001
,  // measure 26
1000
0001
1001
0000
1100
0000
0010
0001
,  // measure 27
0000
1000
0001
1000
0010
0000
0100
0010
,  // measure 28
0000
0100
0010
0100
0001
0000
0010
0001
,  // measure 29
1000
0001
1000
0100
1000
0000
0010
1000
,  // measure 30
0001
1000
0001
0100
0001
0000
0010
0100
,  // measure 31
0000
1000
0001
1000
0010
0000
0100
0001
,  // measure 32
0000
1000
0100
0010
0001
0000
1000
0001
,  // measure 33
1000
0100
0010
0001
1000
0000
0010
1000
,  // measure 34
0001
1000
0010
0100
0001
0000
0100
0000
,  // measure 35
0110
0000
0001
0100
1000
0100
0001
1000
,  // measure 36
0002
0000
1003
0100
2000
0000
3010
0000
,  // measure 37
1001
0000
0100
0001
1000
0100
0001
0100
,  // measure 38
1000
0010
0100
0001
1000
0010
0100
0010
,  // measure 39
1000
0001
1001
0000
1100
0000
1000
0001
,  // measure 40
0010
0001
0011
0000
1100
0000
1000
0001
,  // measure 41
0100
0010
0110
0000
0101
0000
0010
0001
,  // measure 42
1000
0001
1001
0000
1100
0000
0011
0000
;

//---------------dance-single - ----------------
#NOTES:
     dance-single:
     :
     Easy:
     3:
     0.194,0.197,0.024,0.024,0.000:
0000
0000
0000
0000
,
0000
0000
0000
0000
,
0010
0000
1000
0001
,
0100
0000
0010
0100
,
0001
0000
0010
0100
,
1000
0000
0000
0010
,
0010
0000
1000
0010
,
0100
0000
0001
0010
,
0001
0000
1000
0010
,
0100
0000
0000
0001
,
0001
0000
0010
0100
,
1000
0000
1000
0001
,
0100
0000
0010
0100
,
0001
0000
1000
0100
,
1000
0000
0010
1000
,
0010
0000
1000
0001
,
2000
0000
0000
3000
,
0020
0000
0030
0000
,
0100
0100
0100
0000
,
0001
0001
0001
0000
,
1000
0100
0010
0000
,
0001
0100
0010
0000
,
1000
1000
1000
0000
,
0010
0010
0010
0000
,
1000
0001
0100
0000
,
0001
0010
0100
0000
,
0010
0010
0010
0000
,
0001
0001
0001
0000
,
1000
0010
0100
0000
,
0010
0100
0010
0000
,
1000
1000
1000
0000
,
0100
0100
0100
0000
,
1000
0001
1000
0000
,
0010
0100
0010
0000
,
1001
0000
0010
1000
,
0100
0000
0000
0000
,
1001
0000
0010
0001
,
0100
0000
0000
0000
,
0010
0010
0010
0000
,
1000
1000
1000
0000
,
0001
0100
0010
0000
,
1000
0100
0010
0001
;
