#TITLE:Here In Your Arms;
#SUBTITLE:;
#ARTIST:Hellogoodbye;
#TITLETRANSLIT:;
#SUBTITLETRANSLIT:;
#ARTISTTRANSLIT:;
#CREDIT:;
#BANNER:Here In Your Arms-bn.png;
#BACKGROUND:Here In Your Arms-bg.png;
#LYRICSPATH:;
#CDTITLE:;
#MUSIC:Here In Your Arms.mp3;
#OFFSET:-0.340;
#SAMPLESTART:78.020;
#SAMPLELENGTH:13.680;
#SELECTABLE:YES;
#BPMS:0.000=126.000;
#STOPS:;
#BGCHANGES:-0.500=Here In Your Arms.avi=1.000=1=1=0,
99999=-nosongbg-=1.000=0=0=0 // don't automatically add -songbackground-
;

//---------------dance-single - ----------------
#NOTES:
     dance-single:
     :
     Beginner:
     1:
     0.082,0.123,0.026,0.000,0.000:
0000
0000
0000
0000
,
0000
0000
0000
0000
,
0000
0000
0000
0000
,
0000
0000
0000
0000
,
0000
0000
0000
0000
,
0000
0000
0000
0000
,
0010
0000
0000
0000
,
1000
0000
0000
0000
,
0001
0000
0000
0000
,
0010
0000
0000
0000
,
0100
0000
0000
0000
,
0010
0000
0000
0000
,
0001
0000
0000
0000
,
1000
0000
0000
0000
,
0010
0000
0010
0000
,
0010
0000
0000
0000
,
1000
0000
1000
0000
,
1000
0000
0000
0000
,
0001
0000
0001
0000
,
0001
0000
0000
0000
,
0100
0000
0100
0000
,
0100
0000
0000
0000
,
0010
0000
0000
0000
,
0000
0000
0000
0000
,
1001
0000
0000
0000
,
0100
0000
0000
0000
,
1000
0000
0000
0000
,
0001
0000
0000
0000
,
0010
0000
0010
0000
,
0010
0000
0000
0000
,
0001
0000
0000
0000
,
1000
0000
0000
0000
,
0100
0000
0000
0000
,
1000
0000
0000
0000
,
0001
0000
0000
0000
,
0100
0000
0000
0000
,
0010
0000
0000
0000
,
0001
0000
0000
0000
,
1000
0000
0000
0000
,
0000
0000
0000
0000
,
1001
0000
0000
0000
,
0010
0000
0010
0000
,
0010
0000
0000
0000
,
1000
0000
1000
0000
,
1000
0000
0000
0000
,
0100
0000
0100
0000
,
0100
0000
0000
0000
,
0001
0000
0001
0000
,
0001
0000
0000
0000
,
0100
0000
0100
0000
,
0100
0000
0000
0000
,
0010
0000
0010
0000
,
0010
0000
0000
0000
,
1000
0000
1000
0000
,
1000
0000
0000
0000
,
0001
0000
0001
0000
,
0001
0000
0000
0000
,
1001
0000
0000
0000
;

//---------------dance-single - ----------------
#NOTES:
     dance-single:
     :
     Hard:
     6:
     0.425,0.476,0.208,0.381,0.017: // measure 1
0000
0000
0000
0000
,  // measure 2
0000
0000
0000
0000
,  // measure 3
0000
0000
0000
0000
,  // measure 4
0000
0000
0000
0000
,  // measure 5
0001
0000
0100
0001
0000
0001
0010
0000
,  // measure 6
0001
0000
1000
0001
1000
0000
0010
0000
,  // measure 7
0110
0000
1000
0000
0010
0000
1000
0100
,  // measure 8
1000
0000
0010
0000
1000
0000
0001
0100
,  // measure 9
0001
0000
0010
0000
0001
0000
1000
0010
,  // measure 10
1000
0000
0001
0000
1000
0000
0010
0100
,  // measure 11
0010
0000
0100
0000
0001
0000
1000
0100
,  // measure 12
1000
0000
0010
0000
1000
0000
0001
0100
,  // measure 13
0001
0010
0001
0100
,  // measure 14
2020
0000
0000
3030
,  // measure 15
0002
0100
0000
1003
0200
0000
0310
0001
,  // measure 16
0010
0001
0100
0000
0010
1000
0001
0000
,  // measure 17
2000
0100
0000
3010
0200
0000
0310
1000
,  // measure 18
0010
1000
0100
0000
0010
0001
1000
0000
,  // measure 19
0020
0001
0000
0130
2000
0000
3010
0100
,  // measure 20
0010
1000
0100
0010
0001
0100
0010
0000
,  // measure 21
0200
0010
0000
0301
2000
0000
3100
0020
,  // measure 22
0000
0000
0032
0000
0000
0000
0103
0000
0101
0000
0000
1010
0000
0000
0011
0000
,  // measure 23
0020
0001
0100
0031
,  // measure 24
2100
0100
0010
3001
,  // measure 25
0100
0100
0010
0010
1000
1000
0100
0100
,  // measure 26
2000
0000
0010
0000
3100
0000
0010
1000
,  // measure 27
0020
0000
0100
0000
1030
0000
0100
0001
,  // measure 28
2000
0000
0001
0000
3100
0000
0001
1000
,  // measure 29
0200
0000
1000
0000
0310
0000
1000
0100
,  // measure 30
0002
0000
0100
0000
1003
0000
1000
0100
,  // measure 31
2000
0000
0010
0000
3100
0000
1000
0010
,  // measure 32
0200
0010
1000
0310
,  // measure 33
1000
0000
0000
0000
0001
0000
0000
0000
1000
0000
0000
0000
0010
0000
0100
0010
,  // measure 34
0100
0000
0001
0100
0010
0000
0101
0000
,  // measure 35
1000
0000
0001
1000
0100
0000
1001
0000
,  // measure 36
0101
0000
1000
0001
0100
0000
1010
0000
,  // measure 37
0001
0000
0010
0001
0100
0000
0101
0000
,  // measure 38
1100
0000
0010
1000
0001
0000
1100
0000
,  // measure 39
0010
0000
0100
0010
1000
0000
1010
0000
,  // measure 40
0101
0000
0010
0001
0100
0000
0101
0000
,  // measure 41
2002
0000
0000
3003
,  // measure 42
2000
0010
0000
3001
0020
0000
0130
1000
,  // measure 43
0100
1000
0010
0000
0100
0001
1000
0000
,  // measure 44
0002
0010
0000
0103
0020
0000
0130
0001
,  // measure 45
0100
0001
0010
0000
0100
1000
0001
0000
,  // measure 46
0200
1000
0000
0310
0002
0000
0103
0010
,  // measure 47
0100
0001
0010
0100
1000
0010
0100
0000
,  // measure 48
0020
0100
0000
1030
0002
0000
0013
0200
,  // measure 49
0000
0000
2300
0000
0000
0000
3010
0000
1010
0000
0000
0101
0000
0000
1100
0000
,  // measure 50
0100
0000
1000
0100
1000
0010
0200
0000
,  // measure 51
0320
1000
0100
1030
,  // measure 52
0001
0000
1000
0100
1000
0001
0020
0000
,  // measure 53
0032
0100
1000
0103
,  // measure 54
1010
0000
0001
1000
0001
0100
0020
0000
,  // measure 55
2030
0000
3100
1000
0010
1000
0002
0000
,  // measure 56
0023
0000
0031
0100
0010
0100
0002
0000
,  // measure 57
0003
0000
0000
0000
0100
0000
0000
0000
1010
0000
0000
1001
0000
0000
0201
0000
,  // measure 58
0000
0020
0000
0000
0000
0000
0000
0330
;

//---------------dance-single - ----------------
#NOTES:
     dance-single:
     :
     Medium:
     5:
     0.293,0.300,0.078,0.112,0.000:
0000
0000
0000
0000
,
0000
0000
0000
0000
,
0000
0000
0000
0000
,
0000
0000
0000
0000
,
0010
1000
0001
0100
,
0001
0100
1000
0000
,
0010
1000
0100
1000
,
0001
0010
0001
0000
,
0100
0010
1000
0100
,
1000
0001
0100
0000
,
0010
0100
0001
1000
,
0100
1000
0001
0000
,
0010
0001
1000
0020
,
0200
0000
0000
0330
,
0001
0001
0000
1000
1000
0000
0100
0100
,
0000
1000
1000
0000
0010
0010
0010
0000
,
1000
1000
0000
0001
0001
0000
0010
0010
,
0000
0001
0001
0000
0100
0100
0100
0000
,
0001
0001
0000
1000
1000
0000
0100
0100
,
0000
1000
1000
0000
0010
0010
0010
0000
,
1000
1000
0000
0001
0001
0000
0010
0010
,
0000
0001
0000
0100
0010
0000
1000
0000
,
0002
1000
1000
1003
,
2000
0100
0100
3100
,
2002
0000
0000
3003
,
0010
1000
0100
0010
,
0001
0100
0010
0000
,
0100
0001
0010
0001
,
1000
0100
0010
0000
,
0001
0100
1000
0010
,
1000
0100
1000
0000
,
0010
1000
0001
0100
,
0020
0000
0000
0030
,
0100
0000
0001
0100
0000
0000
0101
0000
,
0010
0000
1000
0100
0000
0000
1100
0000
,
0010
0000
1000
0001
0000
0000
1001
0000
,
0010
0000
0001
0010
0000
0000
0011
0000
,
0100
0000
0010
1000
0000
0000
1010
0000
,
0100
0000
1000
0100
0000
0000
1100
0000
,
0001
0000
1000
0001
0000
0000
1001
0000
,
0202
0000
0000
0303
,
0010
0010
0000
1000
1000
0000
0001
0001
,
0000
0010
0010
0000
0100
0100
0100
0000
,
0010
0010
0000
0001
0001
0000
1000
1000
,
0000
0010
0010
0000
1000
1000
1000
0000
,
0100
0100
0000
1000
1000
0000
0010
0010
,
0000
0100
0100
0000
0001
0001
0001
0000
,
1000
1000
0000
0001
0001
0000
0010
0010
,
0000
0001
0000
0100
0100
0000
0010
0000
,
1000
0000
1000
0001
0000
0001
0100
0000
,
0020
0000
0030
0000
,
0100
0000
0100
0001
0000
0001
1000
0000
,
0200
0000
0300
0000
,
1000
0000
1000
0010
0000
0010
0100
0000
,
0001
0000
0001
0100
0000
0100
0001
0000
,
0010
0000
0010
0001
0000
0001
1000
0000
,
0100
1000
0010
0200
,
0002
0000
0000
0303
;

//---------------dance-single - ----------------
#NOTES:
     dance-single:
     :
     Easy:
     4:
     0.180,0.225,0.061,0.087,0.000:
0000
0000
0000
0000
,
0000
0000
0000
0000
,
0000
0000
0000
0000
,
0000
0000
0000
0000
,
0000
0000
0000
0000
,
0000
0000
0000
0000
,
0000
0000
0000
0000
0000
0000
0010
0100
,
0000
0000
0000
0000
0000
0000
0010
1000
,
0000
0000
0000
0000
0000
0000
0001
0010
,
0000
0000
0000
0000
0000
0000
0001
0100
,
0000
0000
0000
0000
0000
0000
0010
1000
,
0000
0000
0000
0000
0000
0000
0100
0010
,
0000
0000
0000
0000
,
2002
0000
3003
0000
,
0010
1000
0100
0000
,
1000
0001
0100
0000
,
0010
0100
0001
0000
,
0010
0100
1000
0000
,
0010
1000
0001
0000
,
1000
0100
0010
0000
,
0001
0100
0001
0000
,
1000
0001
0100
0000
,
2020
0000
0000
3030
,
2002
0000
0000
3003
,
0010
0100
0001
0100
,
0010
0000
0000
0000
0000
0000
1000
0100
,
0000
0000
0000
0000
0000
0001
0100
0001
,
0000
0000
0000
0000
0000
0100
0010
0100
,
0000
0000
0000
0000
0000
0010
1000
0010
,
0000
0000
0000
0000
0000
0000
1000
0100
,
0000
0000
0000
0000
0000
1000
0001
1000
,
0000
0000
0000
0000
,
0110
0000
0000
0000
,
0010
0100
0001
0000
,
0001
1000
0100
0000
,
1000
0100
0010
0000
,
0001
0100
0010
0000
,
0100
0010
0100
0000
,
0001
1000
0100
0000
,
1000
0010
1000
0000
,
2002
0000
3003
0000
,
0010
1000
0100
1000
,
0010
1000
0100
0000
,
0001
1000
0001
0100
,
0001
1000
0001
0000
,
0010
0001
0010
0100
,
0010
0001
0010
0000
,
0100
1000
0100
0010
,
0100
1000
0100
0000
,
1000
0000
0000
0001
0000
0000
0100
0000
,
0100
0000
0000
0000
,
0001
0000
0000
0010
0000
0000
0001
0000
,
1000
0000
0000
0000
,
0010
0000
0000
1000
0000
0000
0100
0000
,
0100
0000
0000
0000
,
1000
0000
0000
0010
0000
0000
0100
0000
,
0100
0000
1001
0000
,
0220
0000
0000
0330
;
