#TITLE:遥か彼方;
#SUBTITLE:;
#ARTIST:Asian Kung-Fu Generation;
#TITLETRANSLIT:Haruka Kanata;
#SUBTITLETRANSLIT:;
#ARTISTTRANSLIT:;
#CREDIT:;
#BANNER:Haruka Kanata-bn.png;
#BACKGROUND:Haruka Kanata-bg.png;
#LYRICSPATH:;
#CDTITLE:;
#MUSIC:Haruka Kanata.mp3;
#OFFSET:-0.050;
#SAMPLESTART:76.267;
#SAMPLELENGTH:14.700;
#SELECTABLE:YES;
#BPMS:0.000=175.000,208.000=87.500,216.000=175.000,288.000=112.320;
#STOPS:;
#BGCHANGES:-0.400=Haruka Kanata.avi=1.000=1=0=0,
99999=-nosongbg-=1.000=0=0=0 // don't automatically add -songbackground-
;

//---------------dance-single - ----------------
#NOTES:
     dance-single:
     :
     Beginner:
     1:
     0.100,0.174,0.047,0.000,0.000:
0000
0000
0000
0000
,
0000
0000
0000
0000
,
0000
0000
0000
0000
,
0000
0000
0000
0000
,
1000
0000
0000
0000
,
0000
0000
0000
0000
,
0010
0000
0000
0000
,
0000
0000
0000
0000
,
0100
0000
0000
0000
,
0000
0000
0000
0000
,
0001
0000
0000
0000
,
0000
0000
0000
0000
,
0010
0000
0000
0000
,
0000
0000
0000
0000
,
0001
0000
0000
0000
,
0000
0000
0000
0000
,
1000
0000
0000
0000
,
0000
0000
0000
0000
,
0010
0000
0000
0000
,
0000
0000
0000
0000
,
1000
0000
0000
0000
,
1000
0000
0000
0000
,
0001
0000
0000
0000
,
0001
0000
0000
0000
,
0100
0000
0000
0000
,
0100
0000
0000
0000
,
0010
0000
0000
0000
,
0010
0000
0000
0000
,
1000
0000
0000
0000
,
0001
0000
0000
0000
,
0010
0000
0000
0000
,
0100
0000
0000
0000
,
0010
0000
0000
0000
,
0001
0000
0000
0000
,
1000
0000
0000
0000
,
0010
0000
0000
0000
,
1000
0000
1000
0000
,
1000
0000
0000
0000
,
0010
0000
0010
0000
,
0010
0000
0000
0000
,
0100
0000
0100
0000
,
0100
0000
0000
0000
,
0010
0000
0010
0000
,
0010
0000
0000
0000
,
1000
0000
1000
0000
,
1000
0000
0000
0000
,
0001
0000
0001
0000
,
0001
0000
0000
0000
,
1001
0000
0000
0000
,
0000
0000
0100
0100
,
0100
0000
0000
0000
,
0000
0000
0000
0000
,
1001
0000
0000
0000
,
0000
0000
0000
0000
,
0100
0000
0000
0000
,
0000
0000
0000
0010
,
0010
0010
0000
0000
,
0000
0000
0000
0000
,
1000
0000
0000
0000
,
0001
0000
0000
0000
,
1000
0000
0000
0000
,
0100
0000
0000
0010
,
0010
0010
0000
0000
,
0000
0000
0000
0001
,
0001
0001
0000
0000
,
0000
0000
0000
0000
,
1000
0000
0000
0000
,
0001
0000
0000
0000
,
0100
0000
0000
0000
,
0010
0000
0000
0000
,
1001
0000
0000
0000
,
0000
0000
0000
0000
,
0110
0000
0000
0001
,
0000
0000
1001
0000
;

//---------------dance-single - ----------------
#NOTES:
     dance-single:
     :
     Medium:
     6:
     0.415,0.488,0.171,0.114,0.000:
0000
0000
0000
0000
,
0000
0000
0000
0000
,
0000
0000
0000
0000
,
0000
0000
0000
0000
,
0010
0100
0000
0000
0000
0000
0010
0100
,
0000
0000
0000
0000
,
0001
1000
0000
0000
0000
0000
0001
1000
,
0000
0000
0000
0000
0001
1000
0001
0000
,
0100
0000
0010
0000
0100
0000
0001
1000
,
0000
1000
0001
0000
1000
0100
1000
0000
,
0010
0000
1000
0000
0001
0000
0010
0001
,
0000
0001
0100
0000
0010
0010
0000
0000
,
1000
0001
1000
0001
,
0100
0010
0100
0010
,
1000
0010
1000
0010
,
1000
0001
1000
0001
1000
0001
1000
0001
,
1000
0000
0000
0000
0010
0000
0100
0001
,
0000
0001
0100
0000
0010
0000
0100
0000
,
0001
0000
0000
0000
0010
0000
0001
1000
,
0000
1000
0001
0000
1000
1000
0000
0000
,
0010
0000
0000
0100
0001
0000
0000
0010
,
0100
0000
0010
0000
0001
0000
0000
1000
,
0010
0000
0000
1000
0001
0000
0000
1000
,
0100
0010
0001
1000
,
0001
0000
0100
0000
0010
0100
0010
0000
,
1000
0001
1000
0000
0100
0010
0100
0000
,
1000
0001
1000
0010
,
0100
0000
0001
0000
1000
0000
0001
0100
,
0001
0000
0000
1000
0100
0000
0000
0010
,
0001
0000
1000
0000
0010
0000
0000
0100
,
0010
0000
0000
1000
0100
0000
0000
0010
,
0001
1000
0010
0100
,
0001
0100
0001
0000
1000
0000
0001
0000
,
1000
0100
1000
0000
0010
1000
0010
0000
,
0100
0010
1000
0001
,
0010
0100
1000
0001
,
1000
1000
1000
1000
,
1000
0000
1000
0000
1000
0000
1000
0001
,
0010
0010
0010
0010
,
0010
0000
0010
0000
0010
0000
0010
0001
,
0100
0100
0100
0100
,
0100
0000
0100
0000
0100
0000
0100
0010
,
1000
0001
1000
0010
,
0100
0000
0001
0000
1000
0001
1000
0000
,
0020
0100
0100
0100
,
0100
0100
0100
0130
,
0002
1000
1000
1000
,
1000
1000
1000
1003
,
1010
0000
0000
0110
0000
0000
0101
0000
,
0000
1001
0000
0000
0110
0000
0110
0000
,
0101
0000
0000
1100
0000
0000
1010
0000
,
0000
1001
0000
0000
0110
0000
1001
0000
,
2200
0000
0000
0000
,
0000
0000
0300
0000
0010
0010
0010
0010
,
3010
2002
0000
0000
,
0000
0000
3003
0000
0000
0000
0010
0100
,
0010
2002
0000
0000
,
0000
0000
0000
0000
3003
0000
0010
1000
,
0010
0000
1000
0100
0000
0000
1000
0001
,
1000
0000
0010
0001
0000
0000
0100
0010
,
0100
0000
0001
0100
0001
0000
1000
0100
,
1000
0000
0001
1000
0001
0000
1000
0010
,
1000
2002
0000
0000
,
0000
0000
0000
0000
3003
0000
0010
0100
,
0010
2002
0000
0000
,
0000
0000
0000
0000
3003
0000
0010
1000
,
0010
0000
1000
0100
0000
0000
1000
0001
,
1000
0000
0010
0100
0000
0000
0001
0100
,
0001
0000
1000
0100
1000
0000
0010
0100
,
0010
0000
1000
0100
1000
0000
0001
1000
,
0001
0000
0000
0000
,
0000
0000
0000
0000
,
0010
0000
1000
1000
0000
0001
0001
0000
,
0010
0010
0000
1000
1001
0000
0000
0000
;

//---------------dance-single - ----------------
#NOTES:
     dance-single:
     :
     Hard:
     9:
     0.695,0.907,0.598,0.066,0.119: // measure 1
0000
0000
0000
0000
,  // measure 2
0000
0000
0000
0000
,  // measure 3
0000
0000
0000
0000
,  // measure 4
0000
0000
0000
0000
,  // measure 5
1001
1001
0000
0000
0100
0000
1001
1001
,  // measure 6
0000
0000
0000
1000
,  // measure 7
0110
0110
0000
0000
0001
0000
0110
0110
,  // measure 8
0000
0000
0000
0000
0000
0000
0000
0000
0001
1000
0001
1000
0001
0000
0000
0000
,  // measure 9
0101
0000
0110
0000
1000
0001
0100
0010
,  // measure 10
0000
1000
0100
1000
0001
0100
1000
0000
,  // measure 11
0110
0000
1001
0000
0010
0001
1000
0001
,  // measure 12
0000
1000
0001
0100
0110
0110
0000
0000
,  // measure 13
1000
0100
1000
0100
1000
0100
1000
0100
,  // measure 14
0010
0100
0010
0100
0010
0100
0010
0100
,  // measure 15
0010
0001
0010
0001
0010
0001
0010
0001
,  // measure 16
0100
0000
0001
0000
0100
0000
0001
0000
0100
0010
0100
0010
0100
0000
0000
0000
,  // measure 17
0101
0000
1010
0000
0001
1000
0100
1000
,  // measure 18
0001
0100
0010
1000
0001
1000
0010
0000
,  // measure 19
1010
0000
1001
0000
1000
0001
0100
0010
,  // measure 20
0100
0001
0010
1000
1010
1010
0000
0001
,  // measure 21
0100
0000
0010
1000
0001
0000
1000
0100
,  // measure 22
0010
0001
1000
0001
0100
0000
0010
0100
,  // measure 23
0001
0000
0010
0100
1000
0000
0001
1000
,  // measure 24
0010
0000
0001
0000
0010
0000
1000
0000
0001
1000
0001
1000
0001
0000
0000
0000
,  // measure 25
0100
0010
1000
0001
0010
0001
1001
0000
,  // measure 26
1100
0011
1001
0110
,  // measure 27
0102
0100
0100
0103
,  // measure 28
0010
1000
1010
0000
0001
1000
0001
0100
,  // measure 29
0010
0000
1000
0100
0010
0000
0001
1000
,  // measure 30
0100
1000
0001
0010
0100
0000
0010
0001
,  // measure 31
1000
0000
0010
0100
0001
0000
1000
0001
,  // measure 32
1000
0000
0010
0000
0100
0000
0001
0000
1000
0010
1000
0010
1000
0000
0000
0000
,  // measure 33
0010
0100
0001
0100
0010
1000
1001
0000
,  // measure 34
1100
0011
1100
0110
,  // measure 35
1002
1000
1000
1003
,  // measure 36
0010
0000
0100
0000
0110
0000
0000
0000
0001
0000
1000
0010
1000
0000
0100
0000
,  // measure 37
0010
0000
0010
0000
0010
0000
0010
0001
,  // measure 38
0100
0010
1001
1100
,  // measure 39
0001
0000
0001
0000
0001
0000
0001
1000
,  // measure 40
0010
0100
1010
0101
,  // measure 41
1000
0000
1000
0000
1000
0000
1000
0010
,  // measure 42
0100
0110
1001
1100
,  // measure 43
0012
0100
0100
0100
,  // measure 44
0103
0000
0000
0000
0110
0000
0000
0000
1000
0100
1000
0100
1000
0000
0000
0000
,  // measure 45
0001
0100
1000
0100
0001
0100
1000
0100
,  // measure 46
0010
0100
1000
0100
0010
0100
1000
0000
,  // measure 47
0001
0010
1000
0010
0001
0010
1000
0010
,  // measure 48
0001
0010
0100
0010
0001
0010
0100
0000
,  // measure 49
1001
0000
0010
1010
0000
0100
0101
0000
,  // measure 50
0010
0110
0000
0001
0101
0000
1100
0000
,  // measure 51
0001
0100
0001
0100
0001
0000
1000
0010
1000
0010
1000
0000
0100
0010
0100
0010
,  // measure 52
0100
0000
0001
1000
0001
1000
0001
0000
0101
0000
0000
0000
0110
0000
0000
0000
,  // measure 53
2002
0000
0000
0000
,  // measure 54
0000
0000
0000
0000
0000
0000
0000
0000
3003
0000
0000
0000
0000
0000
0000
0000
0100
0000
0100
0000
0100
0000
0100
0000
0010
0001
0010
0001
0010
0000
0000
0000
,  // measure 55
0101
0100
0001
1000
0100
1000
0001
0100
,  // measure 56
0010
1000
0001
1000
0100
0010
0110
0000
,  // measure 57
0011
0000
1001
1000
0100
1000
0010
0100
,  // measure 58
0001
0010
0100
1000
0001
0000
1000
0100
,  // measure 59
0001
1000
0010
0100
0001
0000
1000
0001
,  // measure 60
1000
0010
0100
0001
0000
0100
0001
0100
,  // measure 61
0010
1000
0001
0010
1000
0010
0001
1000
,  // measure 62
0010
1000
1000
0001
0001
0100
0100
0010
,  // measure 63
1010
0000
1001
1000
0100
0010
0001
1000
,  // measure 64
0010
0100
0001
0010
0100
0010
0011
0000
,  // measure 65
1100
0000
1001
1000
0010
0100
0001
0010
,  // measure 66
0100
0010
0001
1000
0010
0000
1000
0001
,  // measure 67
0100
1000
0010
0100
0001
0000
0010
0100
,  // measure 68
0010
0001
1000
0010
0100
0001
1000
0010
,  // measure 69
1000
0001
0100
0010
0100
0001
1000
0010
,  // measure 70
0010
0000
1000
0000
1000
0000
0001
0000
0001
0000
0010
0000
0010
0000
0100
0010
,  // measure 71
0100
0000
0000
0000
,  // measure 72
0000
0000
0000
1001
,  // measure 73
0010
1000
0001
1000
0010
0100
0001
0010
,  // measure 74
0100
0000
0000
0010
0000
0000
0001
0000
0000
1000
0000
0000
2020
3030
0000
0000
0000
0000
0000
0000
0000
0000
0000
0000
;

//---------------dance-single - ----------------
#NOTES:
     dance-single:
     :
     Easy:
     4:
     0.220,0.244,0.019,0.019,0.000:
0000
0000
0000
0000
,
0000
0000
0000
0000
,
0000
0000
0000
0000
,
0000
0000
0000
0000
,
0010
0010
0000
0000
0000
0000
0010
0010
,
0000
0000
0000
0000
,
0010
0010
0000
0000
0000
0000
0010
0010
,
0000
0000
0000
0000
,
1000
0000
0001
0000
,
0100
0001
0100
0000
,
0010
0000
1000
0000
,
0001
0000
1000
0000
0001
0001
0000
0000
,
0100
0000
0010
0000
,
1000
0000
0001
0000
,
1000
0000
0100
0000
,
0010
0010
0010
0000
,
0001
0000
1000
0000
,
0010
0000
1000
0000
,
0001
0000
0100
0000
,
0010
0000
1000
0000
0010
0010
0000
0000
,
1000
0000
0001
0000
,
0010
0001
0100
0000
,
0001
0000
0010
0000
,
0100
1000
0001
0000
,
0100
0000
0001
0000
,
1000
0000
0010
0000
,
1000
0000
0001
0000
,
1000
0000
0100
0000
,
1000
0000
0010
0000
,
1000
0001
0010
0000
,
0001
0000
1000
0000
,
0001
0010
0100
0000
,
0010
0000
0001
0000
,
1000
0000
0010
0000
,
1000
0000
0001
0000
,
0100
0000
0010
0000
,
1000
1000
1000
0000
,
1000
1000
1000
0000
,
0001
0001
0001
0000
,
0001
0001
0001
0000
,
0010
0010
0010
0000
,
0010
0010
0010
0000
,
0100
0100
0100
0000
,
0100
0100
0100
0000
,
1000
0001
1000
0000
,
0010
0100
0010
0000
,
0100
0001
0100
0000
,
0001
1000
0001
0000
,
1000
0000
0000
0100
0000
0000
0001
0000
,
0000
0100
0000
0000
1000
0000
0000
0000
,
0010
0000
0000
1000
0000
0000
0001
0000
,
0000
0010
0000
0000
0001
0000
0000
0000
,
2002
0000
0000
0000
,
0000
0000
0000
0000
3003
0000
0000
0100
,
0100
0100
0000
0000
,
0000
0000
0000
0010
,
0010
0010
0000
0000
,
0000
0000
0000
1000
,
0001
0000
1000
0000
,
0010
0000
1000
0000
,
0001
0010
0001
0000
,
1000
0100
1000
0000
,
0010
0010
0000
0000
,
0000
0000
0000
1000
,
1000
1000
0000
0000
,
0000
0000
0000
0001
,
0001
0000
1000
0000
,
0010
0000
1000
0000
,
0001
0100
0001
0000
,
1000
0100
1000
0000
,
0010
0000
0000
0000
,
0000
0000
0000
0000
,
1000
0000
0000
0001
,
0000
0000
0110
0000
;
