#TITLE:Gotta Be Somebody;
#SUBTITLE:;
#ARTIST:Nickelback;
#TITLETRANSLIT:;
#SUBTITLETRANSLIT:;
#ARTISTTRANSLIT:;
#CREDIT:;
#BANNER:Gotta Be Somebody-bn.png;
#BACKGROUND:Gotta Be Somebody-bg.png;
#LYRICSPATH:;
#CDTITLE:;
#MUSIC:Gotta Be Somebody.mp3;
#OFFSET:-0.080;
#SAMPLESTART:43.507;
#SAMPLELENGTH:17.180;
#SELECTABLE:YES;
#BPMS:0.000=116.030;
#STOPS:147.000=-0.020
;
#BGCHANGES:0.700=Gotta Be Somebody.avi=1.000=1=0=1,
99999=-nosongbg-=1.000=0=0=0 // don't automatically add -songbackground-
;

//---------------dance-single - ----------------
#NOTES:
     dance-single:
     :
     Beginner:
     1:
     0.093,0.125,0.037,0.000,0.000:
0000
0000
0000
0000
,
0000
0000
0000
0000
,
0000
0000
0000
0000
,
0000
0000
0000
0000
,
0010
0000
0000
0000
,
1000
0000
0000
0000
,
0001
0000
0000
0000
,
0010
0000
0000
0000
,
0100
0000
0100
0000
,
0100
0000
0000
0000
,
0001
0000
0001
0000
,
0001
0000
0000
0000
,
1000
0000
1000
0000
,
1000
0000
0000
0000
,
0010
0000
0010
0000
,
0010
0000
0000
0000
,
1001
0000
0000
0000
,
0100
0000
0000
0000
,
0110
0000
0000
0000
,
0001
0000
0000
0000
,
1001
0000
0000
0000
,
0100
0100
0100
0000
,
0100
0000
0000
0000
,
0001
0001
0001
0000
,
0001
0000
0000
0000
,
1000
1000
1000
0000
,
1000
0000
0000
0000
,
0010
0010
0010
0000
,
0010
0000
0000
0000
,
1000
1000
1000
0000
,
1000
0000
0000
0000
,
0001
0001
0001
0000
,
0001
0000
0000
0000
,
0100
0100
0100
0000
,
0100
0000
0000
0000
,
0010
0010
0010
0000
,
0010
0000
0000
0000
,
1000
0000
1000
0000
,
0000
0000
0000
0000
,
0001
0000
0001
0000
,
0000
0000
0000
0000
,
0100
0000
0100
0000
,
0000
0000
0000
0000
,
0010
0010
0010
0000
,
0010
0010
0010
0000
,
1001
0000
0000
0000
;

//---------------dance-single - ----------------
#NOTES:
     dance-single:
     :
     Medium:
     5:
     0.284,0.312,0.204,0.065,0.000:
0000
0000
0000
0000
,
0000
0000
0000
0000
,
0000
0000
0000
0000
,
0000
0000
0000
0000
,
0002
0000
0000
0000
,
2003
0000
0000
0000
,
3200
0000
0000
0000
,
2300
0000
0000
0000
,
3010
0100
0001
1000
,
1001
0000
0000
0000
0100
1000
0100
1000
,
0100
1000
0010
0100
,
0101
0000
0000
0000
0010
0100
0010
0100
,
0010
1000
0001
0010
,
0011
0000
0000
0000
0001
0100
0001
0100
,
0001
0000
0000
0000
1000
0001
1000
0001
,
1000
0000
0000
0000
0010
0100
0010
0000
,
0110
0000
0000
0000
0001
0100
0001
0100
,
0001
0000
1000
0000
0100
1000
0100
1000
,
0100
0000
0000
0000
1000
0010
1000
0000
,
0001
1000
0010
0100
,
1001
0000
0000
0000
,
0010
0100
0010
0100
0000
0000
0001
0100
,
0001
0101
1001
0000
,
0100
1000
0100
1000
0000
0000
0010
1000
,
0010
1010
1001
0000
,
0100
0010
0100
0010
0000
0000
0100
0001
,
0100
1010
1001
0000
,
0010
0001
0010
0001
0000
0000
1000
0001
,
1000
1010
0110
0000
,
1000
0100
1000
0100
0000
1000
0001
1000
,
0001
1000
0010
0000
,
0100
0010
0100
0010
0000
0100
0001
0100
,
0001
1000
0100
0000
,
1000
0010
1000
0010
0000
1000
0100
1000
,
0010
1000
0001
0000
,
0010
0001
0010
0001
0000
0100
0001
0010
,
0001
1000
1001
0110
,
0010
1000
0100
1000
0000
0010
0010
1000
,
1000
0100
1100
0000
,
0010
0001
0100
0001
0000
0010
0010
0001
,
0001
0100
0101
0000
,
0010
1000
0001
0100
0000
0010
0010
0100
,
0100
0001
1100
0000
,
1000
0100
0010
0100
0000
0010
0010
0001
,
0001
0101
1001
1010
,
0220
0000
0000
0000
,
0000
0000
0330
0000
0001
0100
0001
1000
,
2000
0000
0000
0000
,
3001
0000
0000
0000
;

//---------------dance-single - ----------------
#NOTES:
     dance-single:
     :
     Hard:
     6:
     0.370,0.364,0.232,0.111,0.014: // measure 1
0000
0000
0000
0000
,  // measure 2
0000
0000
0000
0000
,  // measure 3
0000
0000
0000
0000
,  // measure 4
0000
0000
0000
0000
,  // measure 5
0020
0000
0000
0000
,  // measure 6
2030
0000
0000
0000
,  // measure 7
3002
0000
0000
0000
,  // measure 8
2003
0000
0000
0000
,  // measure 9
3020
0000
0100
0000
1000
0000
0130
0001
,  // measure 10
0100
0000
0010
1000
0100
1000
0001
0010
,  // measure 11
0200
0000
0010
0000
0001
0000
0310
0001
,  // measure 12
0010
0000
0001
0100
0001
1000
0100
1000
,  // measure 13
2000
0000
0010
0000
0001
0000
3010
0100
,  // measure 14
0010
0000
1000
0100
1000
0001
0010
0100
,  // measure 15
0100
0000
0010
0001
1000
0010
0100
0001
,  // measure 16
0001
1000
1000
0010
0100
0010
1000
0000
,  // measure 17
1001
0000
0010
0000
1000
0100
0001
0000
,  // measure 18
1000
0000
0010
0100
0010
1000
0001
0010
,  // measure 19
0001
0000
0100
0010
0100
0001
1000
0010
,  // measure 20
0100
0001
0010
1000
0010
0001
1000
0000
,  // measure 21
0110
0000
0000
0000
0000
0000
0000
0000
0000
0000
0010
0100
0010
0100
0010
0100
,  // measure 22
0010
1000
0100
1000
0000
0001
0010
0100
,  // measure 23
0010
0001
0011
0000
1001
0000
0010
0000
,  // measure 24
1000
0100
1000
0001
0000
0100
0010
0100
,  // measure 25
0001
1000
1100
0000
1001
0000
0010
0100
,  // measure 26
0010
1000
0001
0010
0000
0001
0010
0100
,  // measure 27
1000
0100
1100
0000
1001
0000
0010
0100
,  // measure 28
0010
1000
0001
0010
0000
0001
0100
0010
,  // measure 29
1000
0001
1001
0000
0110
0000
0000
0000
,  // measure 30
0010
1000
0001
0100
0000
0100
0010
0100
,  // measure 31
0001
1000
0100
0000
1001
0000
0110
0000
,  // measure 32
0102
0000
0000
0000
1003
0100
1000
0010
,  // measure 33
0100
0000
0001
0100
0101
0000
1001
0000
,  // measure 34
2010
0000
0000
0000
3010
0100
0010
1000
,  // measure 35
0001
0000
1000
0001
1001
0000
1010
0000
,  // measure 36
0120
0000
0000
0000
0130
0010
0100
0001
,  // measure 37
1000
1001
0110
0101
,  // measure 38
0010
0001
1000
0001
0000
0100
0010
0100
,  // measure 39
0001
0010
0100
1000
0010
0100
0010
0000
,  // measure 40
1000
0001
1000
0100
0000
0010
0001
0010
,  // measure 41
0100
1000
0001
1000
0010
0100
0001
0000
,  // measure 42
0100
0010
1000
0100
0000
1000
0100
1000
,  // measure 43
0001
0010
0100
0010
0001
1000
0010
0000
,  // measure 44
0100
0001
1000
0010
0000
1000
0100
1000
,  // measure 45
1100
0000
0000
0110
0001
1000
0010
0100
,  // measure 46
0102
0000
0000
0100
0000
0000
0000
1000
,  // measure 47
0000
0000
0010
0010
,  // measure 48
0100
0000
0000
0010
0000
0000
0000
1000
,  // measure 49
0000
0000
0100
0200
,  // measure 50
0303
0000
0000
0000
;

//---------------dance-single - ----------------
#NOTES:
     dance-single:
     :
     Easy:
     2:
     0.177,0.218,0.084,0.037,0.000:
0000
0000
0000
0000
,
0000
0000
0000
0000
,
0000
0000
0000
0000
,
0000
0000
0000
0000
,
0001
0000
0000
0000
,
1000
0000
0000
0010
,
0010
0000
0000
0100
,
0100
0000
0000
0000
,
0001
1000
0100
0000
,
1000
0001
0100
0000
,
0010
1000
0100
0000
,
1000
0001
0010
0000
,
0001
0100
0001
0000
,
1000
0010
0100
0000
,
0010
1000
0100
0000
,
1000
0001
0100
0000
,
1001
0000
0100
0100
,
0100
0000
0010
0010
,
0010
0000
1000
1000
,
1000
0001
0010
0100
,
0110
0000
0000
0000
,
0001
0001
0001
0000
,
0100
0010
1000
0000
,
0100
0100
0100
0000
,
1000
0010
0100
0000
,
0010
0010
0010
0000
,
1000
0001
1000
0000
,
0001
0001
0001
0000
,
0010
0100
0010
0000
,
0100
1000
0001
1000
,
0010
0010
0010
0000
,
1000
0010
1000
0001
,
0100
0100
0100
0000
,
0001
0010
0100
1000
,
0001
0001
0001
0000
,
0100
0010
0100
0001
,
1000
1000
1000
0000
,
1001
1001
1001
0000
,
0100
0000
0010
0000
,
0100
0010
0100
0000
,
0001
1000
0001
0000
,
1100
1100
1100
0000
,
1000
0000
0001
0000
,
0100
0010
0100
0001
,
1000
0200
0020
0330
,
2002
0000
0000
0000
,
0000
0000
0000
0000
,
3003
0000
0000
0000
;
