#TITLE:First Date;
#SUBTITLE:;
#ARTIST:blink-182;
#TITLETRANSLIT:;
#SUBTITLETRANSLIT:;
#ARTISTTRANSLIT:;
#CREDIT:;
#BANNER:First Date-bn.png;
#BACKGROUND:First Date-bg.png;
#LYRICSPATH:;
#CDTITLE:;
#MUSIC:First Date.mp3;
#OFFSET:-0.100;
#SAMPLESTART:52.840;
#SAMPLELENGTH:13.460;
#SELECTABLE:YES;
#BPMS:0.000=191.180;
#STOPS:105.000=0.620
,107.000=0.620
,117.000=0.620
,119.000=0.640
,257.000=0.640
,259.000=0.620
,269.000=0.640
,271.000=0.620
;
#BGCHANGES:-0.950=First Date.avi=1.000=1=1=0,
99999=-nosongbg-=1.000=0=0=0 // don't automatically add -songbackground-
;

//---------------dance-single - ----------------
#NOTES:
     dance-single:
     :
     Beginner:
     2:
     0.135,0.213,0.036,0.081,0.000:
0000
0000
0000
0000
,
0000
0000
0000
0000
,
1000
0000
0000
0000
,
0010
0000
0000
0000
,
0100
0000
0000
0000
,
0010
0000
0000
0000
,
1000
0000
0000
0000
,
0001
0000
0000
0000
,
0010
0000
0000
0000
,
0001
0000
0000
0000
,
0100
0000
0000
0000
,
0100
0000
0000
0000
,
0010
0000
0000
0000
,
0010
0000
0000
0000
,
1000
0000
0000
0000
,
1000
0000
0000
0000
,
0001
0000
0000
0000
,
0001
0000
0000
0000
,
1000
0000
1000
0000
,
1000
0000
0000
0000
,
0010
0000
0010
0000
,
0010
0000
0000
0000
,
0100
0000
0100
0000
,
0100
0000
0000
0000
,
0001
0000
0001
0000
,
0001
0000
0000
0000
,
2002
0000
0000
0000
,
0000
0000
0000
0000
,
0000
0000
3003
0000
,
0220
0000
0000
0000
,
0000
0000
0000
0000
,
0000
0000
0330
0000
,
0001
0000
0000
0000
,
1000
0000
0000
0000
,
0010
0000
0010
0000
,
0010
0000
0010
0000
,
0010
0000
0000
0000
,
1000
0000
0000
0000
,
0100
0000
0100
0000
,
0100
0000
0100
0000
,
0100
0000
0000
0000
,
1000
0000
0000
0000
,
0001
0000
0000
0000
,
0100
0000
0100
0000
,
0100
0000
0000
0000
,
0010
0000
0000
0000
,
1000
0000
0000
0000
,
0001
0000
0001
0000
,
0001
0000
0000
0000
,
1000
0000
0000
0000
,
0010
0000
0000
0000
,
1000
0000
0000
0000
,
0100
0000
0000
0000
,
0100
0000
0000
0000
,
0010
0000
0000
0000
,
0001
0000
0000
0000
,
0100
0000
0100
0000
,
0100
0000
0000
0000
,
0010
0000
0010
0000
,
0010
0000
0000
0000
,
0100
0000
0100
0000
,
0100
0000
0000
0000
,
0001
0000
0001
0000
,
0001
0000
0000
0000
,
2002
0000
0000
0000
,
0000
0000
0000
0000
,
0000
0000
3003
0000
,
0220
0000
0000
0000
,
0000
0000
0000
0000
,
0000
0000
0330
0000
,
0001
0000
0001
0000
,
0001
0000
0001
0000
,
0001
0000
0001
0000
,
0001
0000
0001
0000
,
1000
0000
1000
0000
,
1000
0000
1000
0000
,
1000
0000
1000
0000
,
0100
0100
0100
0000
,
0200
0000
0000
0300
;

//---------------dance-single - ----------------
#NOTES:
     dance-single:
     :
     Medium:
     6:
     0.514,0.532,0.189,0.379,0.000:
0000
0000
0000
0000
,
0000
0000
0000
0000
,
0001
0200
0001
0000
0001
0000
0301
0000
,
0010
2000
0010
0000
0010
0000
3010
0000
,
0000
2200
0000
3300
0202
0000
0303
0000
,
0010
1000
0010
0000
0100
0001
0100
0000
,
0001
2000
0001
0000
0001
0000
3001
0000
,
0010
0200
0010
0000
0010
0000
0310
0000
,
0000
0202
0000
0303
2020
0000
3030
0000
,
0001
0100
0001
0000
1000
0100
1000
0000
,
0010
1000
0100
1000
,
0001
0000
0100
0000
0010
0100
0000
0100
,
0010
1000
0100
1000
,
0001
0000
0010
0000
0001
0100
0000
0100
,
0001
0010
0100
1000
,
0010
0000
0100
0000
0010
1000
0000
1000
,
0010
1000
0100
1000
,
0001
0000
0010
0000
0001
0100
0000
0100
,
0001
0101
0000
1100
,
0000
0000
1001
0000
0000
0010
0000
0010
,
0000
1100
0000
0011
,
0000
0000
0101
0000
0000
1000
0000
1000
,
0000
1010
0000
0110
,
0000
0000
0101
0000
0000
1000
0000
1000
,
0000
1100
0000
0110
,
0000
1001
0000
0000
,
0001
0010
0002
0003
1000
0001
2000
3000
,
0010
1000
0100
1000
,
0001
0100
0010
1000
,
0001
0100
0002
0003
0100
0010
0200
0300
,
0001
1000
0100
0001
,
0100
1000
0001
0100
,
0020
1000
0100
0130
,
2000
0100
0010
3010
,
1000
0000
0001
0000
0010
0001
0010
0000
,
1000
0001
1000
0000
0100
0010
0100
0000
,
2000
0100
0010
3010
,
0020
0100
1000
1030
,
0100
0000
0010
0000
1000
0001
1000
0000
,
0001
0100
0001
0000
0010
0100
0010
0000
,
1000
0020
1000
0000
1000
0000
1030
0000
,
0100
0002
0100
0000
0100
0000
0103
0000
,
0000
0022
0000
0033
2020
0000
3030
0000
,
0100
0001
0100
0000
0010
1000
0010
0000
,
1000
0002
1000
0000
1000
0000
1003
0000
,
0100
0020
0100
0000
0100
0000
0130
0000
,
0000
2020
0000
3030
0202
0000
0303
0000
,
1000
0010
1000
0000
0001
0100
0001
0000
,
1000
0100
1000
0010
,
0100
0000
0001
0000
0010
0001
0000
0001
,
0100
0010
1000
0100
,
1000
0000
0001
0000
0100
0010
0000
0010
,
1000
0100
1000
0001
,
0010
0000
0100
0000
1000
0010
0000
0010
,
1000
0010
0100
0001
,
0010
0000
1000
0000
0010
0001
0000
0001
,
0100
0010
1000
0100
,
1000
0000
0001
0000
1000
0100
1000
0100
,
1000
0010
0100
0001
,
1000
0000
0010
0000
0100
0001
0100
0001
,
0100
0010
1000
0001
,
0010
0000
0100
0000
1000
0100
1000
0100
,
1000
0010
0100
0001
,
1000
0000
0010
0000
1000
0001
1000
0001
,
0100
0010
0200
0300
0010
1000
0020
0030
,
0100
0001
0010
0001
,
1000
0010
0100
0001
,
1000
0010
2000
3000
0010
0100
0020
0030
,
1000
0001
0010
1000
,
0010
0001
1000
0010
,
0200
0001
0010
0310
,
0002
0010
0100
0103
,
0001
0000
1000
0000
0100
1000
0100
0000
,
0001
1000
0001
0000
0010
0100
0010
0000
,
0002
0010
0100
0103
,
0200
0010
0001
0301
,
0010
0000
0100
0000
0001
1000
0001
0000
,
1000
0010
1000
0000
0100
0010
0100
0000
,
0202
0000
0000
0303
;

//---------------dance-single - ----------------
#NOTES:
     dance-single:
     :
     Hard:
     9:
     0.740,0.710,0.523,0.216,0.054: // measure 1
0000
0000
0000
0000
,  // measure 2
0000
0000
0000
0000
,  // measure 3
0010
1000
0200
0000
2300
0000
3001
0000
,  // measure 4
0010
0001
0200
0000
0320
0000
0130
0000
,  // measure 5
0001
0101
0000
1000
2100
0000
3001
0000
,  // measure 6
1000
0100
0010
0001
0100
0010
0100
0000
,  // measure 7
0001
0100
0020
0000
2030
0000
3100
0000
,  // measure 8
1000
0010
0200
0000
0302
0000
1003
0000
,  // measure 9
0010
1010
0000
1000
1002
0000
0013
0000
,  // measure 10
0100
0010
1000
0100
0001
0100
1000
0000
,  // measure 11
0101
0000
0010
1000
0100
0000
1000
0000
,  // measure 12
0001
1000
0100
0010
0000
0011
0000
1001
,  // measure 13
1000
0000
0001
0100
0010
0000
1000
0000
,  // measure 14
0100
1000
0010
0100
0000
1010
0000
1100
,  // measure 15
0100
0000
0010
0001
0100
0000
0010
0010
,  // measure 16
1000
0100
1000
0001
0000
0101
0000
1010
,  // measure 17
0010
0000
1000
0001
1000
0000
0100
0001
,  // measure 18
1000
0100
0010
0001
0000
0110
0000
1001
,  // measure 19
0000
0010
1000
0100
0000
1000
0001
0100
,  // measure 20
0000
0010
0100
0001
0000
0101
0100
0101
,  // measure 21
0000
0010
1000
0100
0000
1000
0001
0100
,  // measure 22
0000
0010
1000
0100
0000
1100
1000
1100
,  // measure 23
0000
0010
1000
0001
0000
0010
0001
0100
,  // measure 24
0000
0010
1000
0001
0000
0110
0100
0110
,  // measure 25
0000
0001
0100
0010
0000
1000
0100
1000
,  // measure 26
0000
0001
0100
0010
1000
0001
1000
0010
,  // measure 27
0100
0001
0100
0000
0001
1000
0001
0000
,  // measure 28
0110
0000
0000
0000
0101
0000
0000
0000
1100
0000
0000
0000
1001
0000
0000
0010
,  // measure 29
1000
0000
0100
0000
1000
0000
0001
0000
0010
0001
0010
0000
0001
1000
0001
0000
,  // measure 30
1000
0010
1000
0000
0001
1000
0001
0000
,  // measure 31
0100
0001
1000
0010
0001
0010
0100
0001
,  // measure 32
1000
0000
0010
1000
0010
0000
0100
0000
0001
1000
0001
0000
0100
0010
0100
0000
,  // measure 33
0001
0100
0010
0100
0001
1000
0100
1000
,  // measure 34
0010
0001
0010
1000
0100
1000
0001
0100
,  // measure 35
0010
1000
0001
1000
0010
0100
0001
1000
,  // measure 36
1100
0101
0011
1010
,  // measure 37
0001
1000
0100
1000
0010
0100
0001
0010
,  // measure 38
1000
0010
0001
1000
0010
1000
0001
0100
,  // measure 39
0010
1000
0100
1000
0001
0100
0010
1000
,  // measure 40
1010
0101
0011
0110
,  // measure 41
0100
0001
0020
0000
0032
0000
1003
0000
,  // measure 42
0100
1000
0020
0000
0230
0000
0310
0000
,  // measure 43
1000
1010
0000
0001
0012
0000
1003
0000
,  // measure 44
0001
0010
0100
1000
0010
0100
0010
0000
,  // measure 45
1000
0010
0200
0000
0302
0000
0013
0000
,  // measure 46
0001
0100
0020
0000
2030
0000
3001
0000
,  // measure 47
0100
0101
0000
1000
1020
0000
0130
0000
,  // measure 48
0010
1000
0100
0010
0001
1000
0001
0100
,  // measure 49
0010
0000
1000
0100
1000
0000
0001
0000
,  // measure 50
1100
0000
0011
0000
0100
0010
0100
0010
,  // measure 51
1000
0000
0001
1000
0001
0000
0010
0000
,  // measure 52
1100
0000
0101
0000
1000
0001
1000
0001
,  // measure 53
0100
0000
0010
1000
0001
0000
0100
0100
,  // measure 54
0001
0001
0010
0010
0200
0000
1300
0000
,  // measure 55
0010
0000
0100
0001
1000
0000
0010
0010
,  // measure 56
1000
1000
0100
0100
0020
0000
0031
0000
,  // measure 57
0100
0010
1000
0010
0001
0010
1000
0010
,  // measure 58
0100
0010
1000
0010
0000
0110
0000
1001
,  // measure 59
1000
0010
0001
0010
0100
0010
1000
0010
,  // measure 60
0001
0010
0100
0010
0000
0101
0000
1010
,  // measure 61
1000
0100
0010
0001
0100
0010
1000
0001
,  // measure 62
1000
0100
0010
0001
0000
0110
0000
1001
,  // measure 63
0001
0010
0001
0100
0010
1000
0100
1000
,  // measure 64
0010
0100
0001
0100
0010
1000
0001
1000
,  // measure 65
0010
0100
0010
0000
0100
0001
0100
0000
,  // measure 66
0101
0000
0000
0000
1010
0000
0000
0000
1001
0000
0000
0000
0011
0000
0000
0100
,  // measure 67
0010
0000
1000
0000
0100
0000
1000
0000
0010
0100
0010
0000
1000
0001
1000
0000
,  // measure 68
0001
0100
0001
0000
1000
0010
1000
0000
,  // measure 69
0010
1000
0100
0010
0001
0100
0010
1000
,  // measure 70
0100
0000
0010
0001
0010
0000
0100
0000
1000
0001
1000
0000
0001
0100
0001
0000
,  // measure 71
1000
1000
0100
1000
0010
0100
0001
0010
,  // measure 72
0100
1000
0010
1000
0001
0100
0010
1000
,  // measure 73
0100
0001
0100
1000
0010
0100
0001
0010
,  // measure 74
0011
1001
1100
0110
,  // measure 75
0001
0001
0100
0010
1000
0100
1000
0010
,  // measure 76
0100
0001
0010
0100
1000
0001
0100
1000
,  // measure 77
0100
0001
0010
0100
1000
0010
1000
0001
,  // measure 78
0101
1001
1010
0110
,  // measure 79
2002
0000
0000
3003
;

//---------------dance-single - ----------------
#NOTES:
     dance-single:
     :
     Easy:
     4:
     0.263,0.319,0.108,0.009,0.000:
0000
0000
0000
0000
,
0000
0000
0000
0000
,
0010
0000
0100
0000
,
0001
0000
0100
0000
,
0001
1000
0001
0000
,
1000
0100
1000
0000
,
0010
0000
1000
0000
,
0001
0000
0010
0000
,
0001
0100
0001
0000
,
1000
0100
1000
0000
,
0010
0000
1000
0000
,
0100
0000
0000
0000
0000
1000
0000
1000
,
0000
0000
0010
0000
,
1000
0000
0000
0000
0000
0001
0000
0001
,
0000
0000
0010
0000
,
0001
0000
0000
0000
0000
0100
0000
0100
,
0000
0000
0010
0000
,
1000
0000
0000
0000
0000
0100
0000
0100
,
0000
0000
1000
0000
,
0001
0000
0000
0000
0000
1001
0000
1001
,
0000
0000
0010
0000
,
0100
0000
0000
0000
0000
0110
0000
0110
,
0000
0000
0001
0000
,
0100
0000
0000
0000
0000
0101
0000
0101
,
0000
0000
1000
0000
,
0010
0000
0100
0000
,
0001
0001
1000
1000
,
0010
0000
1000
0000
,
0100
0000
0010
0000
,
0001
0001
1000
1000
,
0010
0000
1000
0000
,
0100
0000
0010
0000
,
0001
0100
0001
0000
,
1000
0100
1000
0000
,
0010
1000
0010
0100
,
0010
1000
0010
0100
,
0010
1000
0010
0000
,
1000
0100
1000
0000
,
0001
0100
0001
1000
,
0001
0100
0001
1000
,
0001
0000
1000
0000
,
0100
0000
1000
0000
,
0010
1000
0010
0000
,
0100
0001
0100
0000
,
0001
0000
1000
0000
,
0100
0000
0010
0000
,
0001
0010
0001
0000
,
1000
0010
1000
0000
,
0001
0000
1000
0000
,
0100
0000
0000
0000
0000
1000
0000
1000
,
0000
0000
0010
0000
,
1000
0000
0000
0000
0000
0001
0000
0001
,
0000
0000
0010
0000
,
0001
0000
0000
0000
0000
0100
0000
0100
,
0000
0000
0010
0000
,
1000
0000
0000
0000
0000
0100
0000
0100
,
0000
0000
1000
0000
,
0100
0000
0000
0000
0000
1100
0000
1100
,
0000
0000
0010
0000
,
0001
0000
0000
0000
0000
0011
0000
0011
,
0000
0000
0100
0000
,
0010
0000
0000
0000
0000
0110
0000
0110
,
0000
0000
0100
0000
,
0001
0000
1000
0000
,
0100
0100
0010
0010
,
0001
0000
1000
0000
,
0010
0000
1000
0000
,
0100
0100
1000
1000
,
0010
0000
1000
0000
,
0100
0000
0010
0000
,
0000
0001
0100
0001
,
0000
1000
0100
1000
,
0000
0010
1000
0010
,
0100
0001
0100
0001
,
0000
0010
0001
0010
,
0000
0100
1000
0100
,
0000
1000
0100
1000
,
0001
1000
0001
0100
,
0020
0000
0000
0030
;
