#TITLE:Everybody Loves Me;
#SUBTITLE:;
#ARTIST:OneRepublic;
#TITLETRANSLIT:;
#SUBTITLETRANSLIT:;
#ARTISTTRANSLIT:;
#CREDIT:;
#BANNER:Everybody Loves Me-bn.png;
#BACKGROUND:Everybody Loves Me-bg.png;
#LYRICSPATH:;
#CDTITLE:;
#MUSIC:Everybody Loves Me.mp3;
#OFFSET:-0.040;
#SAMPLESTART:62.140;
#SAMPLELENGTH:13.540;
#SELECTABLE:YES;
#BPMS:0.000=85.000;
#STOPS:;
#BGCHANGES:;

//---------------dance-single - ----------------
#NOTES:
     dance-single:
     :
     Beginner:
     1:
     0.066,0.084,0.028,0.000,0.000:
0000
0000
0000
0000
,
0000
0000
0000
0000
,
0010
0000
0000
0000
,
0100
0000
0000
0000
,
0001
0000
0000
0000
,
0010
0000
0000
0000
,
0100
0000
0100
0000
,
0100
0000
0000
0000
,
1000
0000
1000
0000
,
1000
0000
0000
0000
,
0010
0000
0010
0000
,
0010
0000
0000
0000
,
1001
0000
0000
0000
,
0100
0000
0000
0000
,
0010
0000
0000
0000
,
0001
0000
0000
0000
,
1000
0000
0000
0000
,
0100
0000
0000
0000
,
0010
0000
0010
0000
,
0010
0000
0000
0000
,
0110
0000
0000
0000
,
0001
0000
0000
0000
,
1000
1000
0000
0000
,
0001
0001
0000
0000
,
0010
0010
0000
0000
,
0100
0000
0000
0000
,
0100
0100
0000
0000
,
1000
1000
0000
0000
,
0001
0001
0000
0000
,
0010
0000
0000
0000
,
1001
0000
0000
0000
,
0100
0000
0100
0000
,
0100
0000
0000
0000
,
0010
0000
0000
0000
,
1000
0000
0000
0000
,
0001
0000
0000
0100
;

//---------------dance-single - ----------------
#NOTES:
     dance-single:
     :
     Medium:
     3:
     0.190,0.186,0.189,0.123,0.000:
0000
0000
0000
0000
,
0000
0000
0000
0000
,
0010
1010
0000
1001
,
0100
0110
0000
0101
,
0001
1001
0000
1100
,
1000
1010
0000
0110
,
0100
0000
0001
0000
1000
0100
1000
0000
,
0010
0000
1000
0000
0001
0100
0001
0000
,
0010
0000
0001
0000
0100
0010
0100
0000
,
0010
0000
1000
0000
0001
1000
0001
0000
,
2000
0000
3200
0000
,
0320
0000
0031
0001
,
0100
0110
0000
0101
,
0000
1100
0000
1001
,
0001
1000
0100
0000
,
1000
0010
0100
0000
,
0010
0100
0001
0000
,
0010
0001
1000
0000
,
0002
0000
0023
0000
,
0230
0000
1300
1000
,
1000
1010
0000
0110
,
0000
0101
0000
1001
,
1000
0100
1000
0000
0010
0000
0000
0000
,
0100
0001
0100
0000
0010
0000
0000
0000
,
1000
0001
1000
0000
0001
0000
0000
0000
,
0220
0000
0000
0330
,
0001
0100
0001
0000
1000
0000
0000
0000
,
1000
0100
1000
0000
0001
0000
0000
0000
,
0100
0010
0100
0000
0010
0000
0000
0000
,
2002
0000
0000
3003
,
0010
0000
1000
0000
0001
1000
0001
0000
,
0000
0110
0000
0101
,
0100
0000
0010
0000
1000
0100
1000
0000
,
0002
0000
0000
0103
,
0200
0000
0000
0310
,
0020
0000
0000
0130
;

//---------------dance-single - ----------------
#NOTES:
     dance-single:
     :
     Hard:
     5:
     0.305,0.339,0.198,0.179,0.000:
0000
0000
0000
0000
,
0000
0000
0000
0000
0000
0000
0001
1000
,
0010
0100
0001
0000
0100
0010
0110
0000
,
0001
1000
0100
0000
1000
0010
1010
0000
,
0100
0010
0100
0000
0001
0010
0011
0000
,
1000
0001
0100
0000
0010
1000
1010
0000
,
0001
1000
0001
0100
0010
0100
0001
0000
,
0010
0001
1000
0100
1000
0010
0100
0000
,
0010
0000
0101
0000
0000
0001
1000
0000
,
0010
0000
1100
0000
0010
0100
0001
0000
,
1000
0001
0100
1000
0100
0010
1000
0100
,
0020
0000
0000
0000
0031
0100
0010
1000
,
0100
0000
1001
0000
0000
0001
0011
0000
,
0001
1010
0000
0110
,
0010
1000
0100
0000
1000
0001
0100
0000
,
0010
0100
0001
0000
0010
0001
0100
0000
,
0001
0001
0100
0000
1000
1000
0010
0000
,
1000
0100
0001
0000
0010
0001
0100
0000
,
0010
1000
0100
1000
0001
0010
0001
1000
,
0020
0000
0000
0000
0130
0001
1000
0100
,
0010
1001
0000
0110
,
1000
0001
0101
0000
0000
0000
1100
0000
,
1002
0000
0203
0000
0310
0010
1000
0100
,
2100
0000
3002
0000
0013
0010
0001
0100
,
0210
0000
0302
0000
1003
0100
1000
0010
,
0200
0010
0000
0310
,
0102
0000
0023
0000
0031
0001
0100
0010
,
2010
0000
3200
0000
1300
1000
0010
0100
,
0210
0000
0320
0000
1030
1000
0001
0010
,
0002
1000
0000
0103
,
0010
1000
0100
0001
0100
1000
0010
0000
,
1000
0001
0100
0001
0010
0001
1000
0000
,
0010
0100
0001
0000
0000
0000
1010
0000
,
0002
0100
1000
0013
,
2000
0100
0010
3001
,
0020
0000
0100
0000
1000
0000
0100
0130
;

//---------------dance-single - ----------------
#NOTES:
     dance-single:
     :
     Easy:
     2:
     0.121,0.169,0.132,0.038,0.000:
0000
0000
0000
0000
,
0000
0000
0000
0000
,
0010
0000
1000
0000
,
0001
0000
1000
0000
,
0100
0000
1000
0000
,
0010
0000
0100
0000
,
0001
0000
0001
0000
,
1000
0000
1000
0000
,
0010
0000
0010
0000
,
0100
0000
0100
0000
,
0001
0010
0100
1000
,
2000
0000
0000
0000
,
3001
0000
1000
0000
,
0100
0000
1000
0000
,
0010
0010
0010
0000
,
0100
0100
0100
0000
,
0001
0001
0001
0000
,
0100
0100
0100
0000
,
1000
0100
0010
0001
,
0002
0000
0000
0000
,
0103
0000
0010
0000
,
0100
0000
0001
0000
,
1001
1001
0000
0000
,
0101
0101
0000
0000
,
1010
1010
0000
0000
,
0200
0000
0000
0300
,
0110
0110
0000
0000
,
0101
0101
0000
0000
,
1001
1001
0000
0000
,
0200
0000
0000
0300
,
1000
0000
0001
0000
,
0100
0000
0010
0000
,
0100
0000
0001
0000
,
1001
0000
0000
0100
,
0100
0000
0000
0001
,
0001
0000
0000
1001
;

//---------------dance-single - ----------------
#NOTES:
     dance-single:
     :
     Challenge:
     7:
     0.465,0.441,0.415,0.132,0.326: // measure 1
0000
0000
0000
0000
,  // measure 2
0000
0000
0000
0000
0000
0000
0000
0000
0000
0000
0000
0000
0001
1000
0001
1000
,  // measure 3
0010
0000
0100
0000
0110
0000
0000
0001
0000
0100
0100
0000
0101
0000
0000
0000
,  // measure 4
0010
0000
1000
0000
1100
0000
0000
0010
0000
1000
1000
0000
1010
0000
0000
0000
,  // measure 5
0100
0000
0010
0000
0110
0000
0000
0001
0000
1000
1000
0000
1001
0000
0000
0000
,  // measure 6
0100
0000
1000
0000
0010
0000
0000
1000
0000
0100
0100
0000
0110
0000
0000
0000
,  // measure 7
0001
0000
0100
0000
0010
0000
1000
0000
0001
1000
0001
1000
0001
0000
1000
0000
,  // measure 8
0000
0000
1000
0000
0010
0000
0100
0000
0001
1000
0001
1000
0001
1000
0001
0000
,  // measure 9
0000
0000
0010
0000
0001
0000
0100
0000
0010
1000
0010
1000
0010
0000
1000
0000
,  // measure 10
0000
0000
0100
0000
1000
0000
0001
0000
0100
0001
0100
0001
0100
0000
0001
0000
,  // measure 11
0101
1000
0010
0100
0001
0010
0100
1000
,  // measure 12
2100
0000
0010
0000
3001
0100
0010
0100
,  // measure 13
0001
0000
0100
0000
0101
0000
0000
1000
0000
0010
0010
0000
1010
0000
0000
0000
,  // measure 14
0100
0000
0010
0000
0110
0000
0000
0001
0000
1000
1000
0000
1001
0000
0000
0000
,  // measure 15
0010
0000
1000
0000
0100
0000
0010
0000
0001
0100
0001
0100
0001
0100
0001
0000
,  // measure 16
0000
0000
0010
0000
0100
0000
0001
0000
1000
0100
1000
0100
1000
0100
1000
0000
,  // measure 17
0000
0000
0010
0000
1000
0000
0001
0000
0100
0010
0100
0010
0100
0010
0100
0000
,  // measure 18
0000
0000
0001
0000
0010
0000
0100
0000
1000
0001
1000
0001
1000
0001
1000
0000
,  // measure 19
0101
0010
1000
0100
0010
0001
0100
0010
,  // measure 20
0120
0000
0100
0000
0130
0010
1000
0100
,  // measure 21
1000
0000
0001
0000
0101
0000
0000
0010
0000
1000
1000
0000
1100
0000
0000
0000
,  // measure 22
0010
0000
1000
0000
1001
0000
0000
0100
0000
0010
0010
0000
0001
0100
0001
0000
,  // measure 23
1100
1100
1001
0000
0010
0100
0001
1000
,  // measure 24
1001
1001
0101
0000
0010
1000
0001
1000
,  // measure 25
1100
1100
0101
0000
0010
1000
0001
0100
,  // measure 26
0010
0000
0010
0000
1000
0000
0001
1000
0100
0010
0001
0000
0101
0000
0000
0000
,  // measure 27
1010
0000
1001
0000
0101
0000
0000
0000
0010
0100
0010
0000
1000
0100
1000
0000
,  // measure 28
1100
0000
0101
0000
1001
0000
0000
0000
0010
0100
0010
0000
0100
0001
0100
0000
,  // measure 29
0101
0000
1100
0000
1001
0000
0000
0000
0010
1000
0010
0000
0100
0001
0100
0000
,  // measure 30
0010
0000
1000
0000
1010
0000
0100
0001
0000
1000
0100
0000
1000
0001
1000
0010
,  // measure 31
0100
0000
0001
0000
0101
0000
0010
1000
0000
1000
0001
0000
1100
0000
0010
0100
,  // measure 32
0001
0000
1000
0000
1001
0000
0010
0100
0000
0100
0001
0000
1100
0000
0010
1000
,  // measure 33
0001
0000
0100
0000
0110
0000
0010
1000
0000
1000
0100
0000
1100
0000
0010
0100
,  // measure 34
0002
0000
0000
2003
0000
0000
3200
0000
0000
0320
0000
0000
0031
0000
0100
0000
,  // measure 35
0020
0000
0000
2030
0000
0000
3002
0000
0000
2003
0000
0000
3100
0000
0010
0000
,  // measure 36
0002
0000
0000
0203
0000
0000
0320
0000
0000
2030
0000
0000
3010
0100
0010
0100
;
