#TITLE:Don't You Want Me;
#SUBTITLE:;
#ARTIST:Glee Cast;
#TITLETRANSLIT:;
#SUBTITLETRANSLIT:;
#ARTISTTRANSLIT:;
#CREDIT:;
#BANNER:Don't You Want Me-bn.png;
#BACKGROUND:Don't You Want Me-bg.png;
#LYRICSPATH:;
#CDTITLE:;
#MUSIC:Don't You Want Me.mp3;
#OFFSET:-0.090;
#SAMPLESTART:72.068;
#SAMPLELENGTH:17.280;
#SELECTABLE:YES;
#BPMS:0.000=120.000,128.000=60.000,136.000=120.000;
#STOPS:135.500=-0.010
;
#BGCHANGES:;

//---------------dance-single - ----------------
#NOTES:
     dance-single:
     :
     Beginner:
     1:
     0.097,0.160,0.046,0.000,0.000:
0000
0000
0000
0000
,
0000
0000
0000
0000
,
0010
0000
0000
0000
,
1000
0000
0000
0000
,
0001
0000
0000
0000
,
0100
0000
0000
0000
,
0001
0000
0000
0000
,
1000
1000
1000
0000
,
1000
0000
0000
0000
,
0100
0000
0000
0000
,
1000
0000
0000
0000
,
0010
0000
0000
0000
,
1000
0000
0000
0000
,
0001
0000
0000
0000
,
0010
0000
0000
0000
,
0001
0000
0000
0000
,
0100
0000
0000
0100
,
0100
0000
0000
0000
,
0010
0000
0000
0010
,
0010
0000
0000
0000
,
1000
0000
0000
1000
,
1000
0000
0000
0000
,
0010
0000
0000
0010
,
0010
0000
0000
0000
,
1001
0000
0000
0000
,
0100
0000
0000
0000
,
0010
0000
0000
0000
,
1000
0000
1000
0000
,
1001
0000
0000
0000
,
0010
0000
0000
0000
,
1000
0000
0000
0000
,
0100
0000
0000
0000
,
0010
0000
0001
0000
,
1000
0000
0010
0010
,
0110
0000
0000
0000
,
0010
0000
0010
0000
,
0010
0000
0000
0000
,
1000
1000
1000
0000
,
1001
0000
0000
0000
,
0100
0000
0100
0000
,
0100
0000
0000
0000
,
0010
0010
0010
0000
,
0001
0000
0001
0000
,
0001
0000
0000
0000
,
1000
0000
1000
0000
,
1000
0000
0000
0000
,
0100
0000
0100
0000
,
0100
0000
0000
0000
,
0010
0000
0010
0000
,
0010
0000
0000
0000
,
1001
0000
0000
0000
;

//---------------dance-single - ----------------
#NOTES:
     dance-single:
     :
     Medium:
     6:
     0.327,0.491,0.247,0.009,0.046:
0000
0000
0000
0000
,
0000
0000
0000
0000
,
0001
0000
1000
0000
0010
0100
0000
0000
,
0001
0100
0001
0100
0000
0000
0000
0000
,
0001
0000
0010
0000
0100
1000
0000
0000
,
0010
1000
0010
1000
0000
0000
0000
0000
,
0100
0000
1000
0000
0010
0100
0000
0000
,
0001
1000
0001
1000
0001
0000
1000
0000
0000
0000
0000
0000
0000
0000
0000
0000
,
0010
0000
1000
0000
0001
1000
0001
0000
,
1000
0000
0010
0000
0100
0010
0100
0000
,
0001
0000
1000
0000
0100
1000
0100
0000
,
1000
0000
0001
0000
0010
0001
0010
0000
,
0100
0100
0100
0000
0010
0010
0010
0000
,
0001
1000
0010
0100
,
0010
0100
0010
0000
1000
0100
1000
0000
,
0001
0100
0001
0000
1000
0000
0001
0000
,
0101
0000
0010
1010
,
1001
0000
0100
0110
,
0101
0000
1000
1001
,
1100
0000
0000
0000
0010
0001
1000
0000
,
1010
0000
0000
0000
1000
0010
0100
0000
,
0110
0000
0000
0000
0010
1000
0001
0000
,
1001
0000
0000
0000
1000
0001
0100
0000
,
0101
0000
0000
0000
0010
0100
0010
0000
,
1100
0000
0000
1001
0000
0000
0100
0010
,
0100
0010
0000
0000
0000
0000
0000
0000
,
1000
0001
1000
0010
,
0100
0001
0010
0100
,
0110
0000
0000
1100
0000
0000
0010
0100
,
0010
0100
0000
0000
0000
0000
0000
0000
,
0010
1000
0001
0010
,
0100
1000
0010
0100
,
0001
1000
0001
1000
0010
0100
0010
0100
,
0001
0000
0010
0000
0001
0000
0010
0000
0100
1000
0100
1000
0100
1000
0100
1000
,
0100
1000
1010
1001
,
0100
0000
0010
0000
0100
0001
0100
0001
,
0100
0010
1000
0010
,
1001
0000
0000
0000
0000
0000
0100
0001
0100
0000
0000
0000
0000
0000
0000
0000
,
0010
1000
1001
0110
,
0100
0000
0001
0000
1000
0100
1000
0100
,
1000
0010
1000
0001
,
0101
0000
0000
0000
0000
0000
0001
1000
0001
0000
0000
0000
0000
0000
0000
0000
,
0010
0001
0101
1001
,
0010
0000
0100
0000
0010
1000
0010
1000
,
0010
0100
0001
0100
,
1001
0000
0000
0000
0000
0000
0010
1000
0010
0000
0000
0000
0000
0000
0000
0000
,
0100
0001
1001
0110
,
0010
0000
1000
0000
0001
0010
0001
0010
,
0001
0100
0001
1000
,
1010
0000
0000
0000
0000
0000
1000
0001
1000
0000
0000
0000
0000
0000
0000
0000
,
1000
0000
0001
0000
0100
0000
0010
2000
,
0000
3001
0000
0000
0000
0000
0000
0000
;

//---------------dance-single - ----------------
#NOTES:
     dance-single:
     :
     Hard:
     7:
     0.445,0.562,0.137,0.027,0.087: // measure 1
0000
0000
0000
0000
,  // measure 2
0000
0000
0000
0000
,  // measure 3
0010
0000
0000
0000
0010
0000
0000
1000
0100
0000
0010
0000
0000
0000
0000
0000
,  // measure 4
0001
1000
0001
1000
0000
0000
0000
0000
,  // measure 5
1000
0000
0000
0000
1000
0000
0000
0001
0100
0000
0010
0000
0000
0000
0000
0000
,  // measure 6
1000
0100
1000
0100
0000
0000
0000
0000
,  // measure 7
1000
0000
0000
0000
1000
0000
0000
0010
0100
0000
0010
0000
0000
0000
0000
0000
,  // measure 8
1000
0001
1000
0001
1000
0000
0001
0000
0000
0000
0000
0000
0001
0000
1000
0000
,  // measure 9
0100
0010
0001
1000
0010
0010
0100
0001
,  // measure 10
1000
0100
1000
0001
0100
0010
0100
0000
,  // measure 11
0001
0000
1001
1000
0100
1000
0001
0000
,  // measure 12
0010
0000
0101
0100
0001
0000
1000
0010
,  // measure 13
0100
0000
0001
1000
0000
0000
0100
0000
1000
0000
0001
0100
0000
0000
0001
0000
,  // measure 14
1000
0100
1000
0001
0010
0100
1000
0000
,  // measure 15
0010
1000
0001
0100
0010
0100
0001
1000
,  // measure 16
0100
0000
1001
0000
0100
0010
0010
0000
,  // measure 17
0001
1000
0100
0000
1000
0000
1001
1000
,  // measure 18
0010
0000
0100
0000
0001
0100
1000
0100
,  // measure 19
0001
0000
1000
0100
1000
0001
0010
0100
,  // measure 20
0010
0000
1001
0000
0100
0000
0001
1000
,  // measure 21
0100
1000
0001
0000
1000
0010
0100
0000
,  // measure 22
0101
0100
0001
0000
1000
0001
1000
0100
,  // measure 23
0010
0001
1000
0000
0010
1000
0001
0000
,  // measure 24
1000
0010
0100
0001
0010
0001
1000
0000
,  // measure 25
0101
0000
1000
1100
0000
0000
0100
1000
,  // measure 26
0001
1000
0100
0000
0000
0000
1000
0001
,  // measure 27
1000
0010
0100
0001
1000
0001
0010
0100
,  // measure 28
0010
0001
1000
0010
0100
0001
0100
0000
,  // measure 29
1010
0000
0100
0110
0000
0000
0001
1000
,  // measure 30
0100
1000
0001
0000
0000
0000
1000
0001
,  // measure 31
1000
0010
0100
0010
1000
0001
0010
0100
,  // measure 32
0010
0001
1000
0010
0100
0001
1000
0000
,  // measure 33
0001
1000
0100
0010
0001
1000
0010
0100
,  // measure 34
0001
1000
0001
0000
1000
0100
1000
0000
0010
0100
0010
0100
0010
0100
0010
0100
,  // measure 35
0101
1000
0001
0000
1100
1000
0001
1000
,  // measure 36
0010
0100
0001
0000
0010
0100
0010
0000
,  // measure 37
0001
0010
0100
1000
0001
1000
0100
0000
,  // measure 38
1001
0000
0000
0000
0000
0000
0100
0001
0100
0000
0000
0000
0000
0000
0000
0000
,  // measure 39
1010
0001
1000
0000
0011
0001
1000
0001
,  // measure 40
0100
0010
1000
0000
0100
0010
0100
0000
,  // measure 41
1000
0100
0010
0001
1000
0001
0010
0000
,  // measure 42
0001
0000
1000
0000
0100
0000
1000
0000
0010
0100
0000
0100
0010
0000
0000
0000
,  // measure 43
0001
1000
0001
1000
0010
0100
0001
1000
,  // measure 44
0100
0001
0100
0000
1000
0010
0100
0000
,  // measure 45
0001
0010
1000
0010
0001
1000
0100
0010
,  // measure 46
0002
0000
0000
0000
0000
0000
0103
0010
2000
0000
0000
0000
0000
0000
0000
0000
,  // measure 47
3100
1000
0001
0000
0010
0001
0100
1000
,  // measure 48
0100
0010
1000
0100
0010
0001
1000
0000
,  // measure 49
0010
1000
0001
0010
0100
0010
0001
0000
,  // measure 50
1000
0000
0010
0000
0100
0000
0001
0000
1000
0010
0000
0010
1000
0000
0100
0000
,  // measure 51
1000
0000
0001
0000
0100
0000
0010
2000
,  // measure 52
0000
3001
0000
0000
0000
0000
0000
0000
;

//---------------dance-single - ----------------
#NOTES:
     dance-single:
     :
     Easy:
     4:
     0.279,0.328,0.055,0.641,0.000:
0000
0000
0000
0000
,
0000
0000
0000
0000
,
0020
0000
0230
0000
0301
0001
0000
0000
,
0020
0230
0300
0000
,
0020
0000
0032
0000
1003
1000
0000
0000
,
0200
2300
3000
0000
,
2000
0000
3002
0000
0103
0100
0000
0000
,
0020
2030
3000
0000
,
0002
0100
0000
0103
,
0000
0010
0000
1000
,
0200
0010
0000
0310
,
0000
0001
0000
0010
,
2000
0100
0000
3100
,
0000
1000
0000
0010
,
0200
0001
0000
0301
,
0000
0010
0000
0001
,
0200
0300
0000
0020
,
2030
3000
0000
0002
,
0023
0030
0000
0200
,
0320
0030
0000
0002
,
2003
3000
0000
0020
,
0230
0300
0000
0020
,
2030
3000
0000
0200
,
0320
0030
0000
0000
,
2002
0000
3003
0000
,
0010
0100
0010
0000
,
1000
0001
1000
0000
,
0001
0100
0001
0000
,
2002
0000
3003
0000
,
0010
0100
0010
0000
,
1000
0100
1000
0000
,
0001
1000
0001
0000
,
0200
0010
0320
1000
,
2030
0000
0001
0000
3001
0001
0001
0001
,
0200
0302
2003
3100
,
1000
1000
0001
0001
,
0020
0032
2003
3000
,
2002
0000
3003
0000
,
0020
2030
3200
1300
,
0010
0010
0100
0100
,
0002
2003
3020
0030
,
2002
0000
3003
0000
,
0020
2030
3002
0013
,
0001
0001
1000
1000
,
0200
2300
3002
0003
,
2002
0000
3003
0000
,
0200
0302
0023
0031
,
0100
0100
0010
0010
,
2000
3002
0203
0300
,
2002
0000
3003
0000
,
0010
0000
1000
0000
0001
0000
0010
0100
,
0000
0100
0000
0000
0000
0000
0000
0000
;
