#TITLE:Don't Stop Movin';
#SUBTITLE:;
#ARTIST:S Club 7;
#TITLETRANSLIT:;
#SUBTITLETRANSLIT:;
#ARTISTTRANSLIT:;
#CREDIT:;
#BANNER:Don't Stop Movin'-bn.png;
#BACKGROUND:Don't Stop Movin'-bg.png;
#LYRICSPATH:;
#CDTITLE:;
#MUSIC:Don't Stop Movin'.mp3;
#OFFSET:-0.040;
#SAMPLESTART:65.407;
#SAMPLELENGTH:14.880;
#SELECTABLE:YES;
#BPMS:0.000=117.000;
#STOPS:199.500=0.020
,202.000=0.020
,203.000=0.020
;
#BGCHANGES:;

//---------------dance-single - ----------------
#NOTES:
     dance-single:
     :
     Beginner:
     1:
     0.086,0.142,0.018,0.000,0.000: // measure 1
0000
0000
0000
0000
,  // measure 2
0000
0000
0000
0000
,  // measure 3
0000
0000
0000
0000
,  // measure 4
0000
0000
0000
0000
,  // measure 5
0010
0000
0000
0000
,  // measure 6
1000
0000
0000
0000
,  // measure 7
0001
0000
0000
0000
,  // measure 8
0100
0100
0100
0000
,  // measure 9
0100
0000
0000
0000
,  // measure 10
0001
0000
0000
0000
,  // measure 11
1000
0000
0000
0000
,  // measure 12
0010
0000
0000
0000
,  // measure 13
1000
0000
1000
0000
,  // measure 14
1000
0000
0000
0000
,  // measure 15
0001
0000
0001
0000
,  // measure 16
0001
0000
0000
0000
,  // measure 17
0110
0000
0000
0000
,  // measure 18
0010
0000
0000
0000
,  // measure 19
1000
0000
0000
0000
,  // measure 20
0100
0000
0000
0000
,  // measure 21
1000
0000
1000
0000
,  // measure 22
1000
0000
0000
0000
,  // measure 23
0010
0000
0000
0000
,  // measure 24
0100
0100
0100
0000
,  // measure 25
0100
0000
0000
0000
,  // measure 26
0001
0000
0000
0000
,  // measure 27
0010
0000
0000
0000
,  // measure 28
0001
0000
0000
0000
,  // measure 29
1000
0000
0000
0000
,  // measure 30
0010
0000
0000
0000
,  // measure 31
0100
0000
0100
0000
,  // measure 32
0100
0000
0100
0000
,  // measure 33
0100
0000
0000
0000
,  // measure 34
0010
0000
0000
0000
,  // measure 35
1000
0000
0000
0000
,  // measure 36
0001
0000
0000
0000
,  // measure 37
0100
0000
0000
0000
,  // measure 38
0010
0000
0000
0000
,  // measure 39
0100
0000
0000
0000
,  // measure 40
0001
0000
0000
0000
,  // measure 41
1001
0000
0000
0000
,  // measure 42
1000
0000
0000
0000
,  // measure 43
0100
0000
0000
0000
,  // measure 44
0010
0000
0010
0000
,  // measure 45
0010
0000
0000
0000
,  // measure 46
1000
0000
0000
0000
,  // measure 47
0001
0000
0000
0000
,  // measure 48
0010
0000
0010
0000
,  // measure 49
0010
0010
0010
0010
,  // measure 50
0010
0000
0000
0000
,  // measure 51
1000
0000
0000
0000
,  // measure 52
0001
0000
0000
0000
,  // measure 53
0100
0100
0100
0000
;

//---------------dance-single - ----------------
#NOTES:
     dance-single:
     :
     Medium:
     4:
     0.280,0.285,0.181,0.063,0.000:
0000
0000
0000
0000
,
0000
0000
0000
0000
,
0000
0000
0000
0000
,
0000
0000
0000
0000
,
0010
1000
0001
0010
,
0100
0100
0100
0100
0100
0000
0000
0000
,
0010
0001
1000
0010
,
1000
0001
0100
0000
,
0010
0100
0001
0000
,
0010
0001
1000
0000
,
0010
1000
0001
1000
,
0100
0010
0001
0000
,
2001
0000
3100
0000
,
1002
0000
0103
0000
,
0010
1000
0001
1000
,
0010
0100
0010
0100
0010
0000
0000
0000
,
0101
0000
0010
1000
,
0001
0010
0100
0000
,
0010
0001
1000
0010
,
0100
0010
1000
0000
,
2010
0000
3100
0000
,
0012
0000
0103
0000
,
0010
1000
0001
0100
,
0001
0100
0001
0100
0001
0000
0000
0000
,
1010
0000
0100
0000
1000
0010
1000
0000
,
0010
0000
1000
0000
0001
0010
0001
0000
,
0100
0000
0010
0000
1000
0001
1000
0000
,
0020
1000
0130
0000
,
1001
0000
0000
0000
0100
1000
0100
1000
,
0100
0010
0001
1000
,
0010
0000
0100
0100
0100
0000
0010
0010
,
0010
0000
1000
1000
1000
0000
0000
1001
,
0000
0000
1001
0000
0100
0010
0100
0000
,
1000
0000
0001
0000
,
1000
0001
0100
0010
,
1000
0000
0000
0000
0001
0000
0000
1001
,
0000
0000
1001
0000
0100
0001
0100
0000
,
0010
0000
1000
0001
1000
0000
0000
0000
,
0100
1000
0010
0100
,
0001
0000
1000
0000
0001
0000
0000
0110
,
0000
0000
0110
0000
0100
0010
0100
0000
,
0001
0100
0001
0000
1000
0100
1000
0000
,
0001
0000
1000
0000
0010
0000
0100
0001
,
0000
0000
0000
1000
0000
0000
0000
1001
,
0000
0000
1001
0000
0100
0010
0100
0000
,
1000
0100
1000
0000
0001
0100
0001
0000
,
0010
0001
1000
0000
,
1001
1001
1001
1001
,
0010
0100
0010
0100
0010
0100
0010
0100
,
0020
0000
0100
1000
,
0200
0000
0000
0330
,
0001
0000
1000
0000
0010
0100
0010
1000
,
0001
1000
1001
0000
;

//---------------dance-single - ----------------
#NOTES:
     dance-single:
     :
     Hard:
     7:
     0.435,0.427,0.217,0.117,0.000:
0000
0000
0000
0000
,
0000
0000
0000
0000
,
0000
0000
0000
0000
,
0000
0000
0000
0000
,
0102
0000
1003
0000
0010
1000
0100
0000
,
1000
1000
0001
0001
0100
0000
0101
0000
,
2001
0000
3100
0000
1000
0010
0100
0100
,
0010
0100
0001
0000
1000
0001
1000
0000
,
0020
0000
0130
0000
0001
0100
1000
0000
,
0010
1000
0100
1000
0001
0000
0100
0000
,
0010
0100
0001
0000
0010
0001
1000
0000
,
0001
0100
1000
0100
0010
1000
0100
0010
,
0002
0000
0100
0000
1003
0000
1000
0010
,
0200
0000
0010
0000
1300
0000
0010
1000
,
0100
0000
1100
0000
0010
0000
1000
0001
,
1000
0010
0100
0001
1000
0000
1001
0000
,
0201
0000
0310
0000
1000
0010
0001
0000
,
0100
0001
0010
0001
1000
0000
0010
0000
,
0100
0010
1000
0000
0100
1000
0001
0000
,
1000
0010
0001
0010
0100
0001
0010
0100
,
2000
0000
0010
0000
3001
0000
0001
0100
,
0020
0000
0100
0000
0031
0000
0100
0001
,
0010
0000
0011
0000
0100
0000
0010
0001
,
1000
0001
0100
0000
0001
1000
0010
0002
,
0100
0000
1000
0000
0103
0010
0100
0001
,
1000
0100
0010
0000
0001
1000
0001
0000
,
1000
0100
1000
0000
0100
0010
0100
0000
,
0010
0001
0010
0001
0100
0001
1000
0020
,
0100
0000
1000
0000
0100
0000
1030
0100
,
1000
0001
0010
0001
1000
0010
0100
0000
,
0001
0010
0100
1000
1000
0010
0100
0010
,
0010
1000
0001
1000
1000
0001
0010
1001
,
0000
0000
0110
0000
0001
0100
1000
0000
,
0010
1000
0001
1000
0100
0010
0001
0000
,
0100
0010
0100
0001
0010
0100
1000
1001
,
0000
0001
0100
0101
0000
0010
0100
1001
,
0000
0000
0110
0000
1000
0010
0001
0000
,
0100
0001
1000
0001
0010
0100
1000
0000
,
0010
0100
0010
1000
0100
0010
0000
0101
,
0000
1100
0000
1001
0000
0110
0010
0101
,
0000
0000
1010
0000
0001
1000
0100
0000
,
1000
0001
0010
1000
0010
0001
1000
0000
,
0010
1000
0100
1000
0001
0100
0010
0100
,
0002
0000
2003
0000
3200
0010
0310
1001
,
0000
0000
1010
0000
0001
1000
0100
0000
,
1000
0001
0010
1000
0010
0001
1000
0000
,
0010
1000
0100
1000
0001
0100
0010
0000
,
1000
0001
0100
0010
1000
0001
0010
0100
,
1000
0001
0100
1000
0100
0001
1000
0100
,
1100
0000
1001
0000
0010
0100
0001
1000
,
0010
0100
0010
0100
0010
0000
0000
0000
,
0001
1000
0100
0000
1000
0001
0010
0100
,
0110
0010
0001
1000
0100
0000
0000
0000
;

//---------------dance-single - ----------------
#NOTES:
     dance-single:
     :
     Easy:
     2:
     0.168,0.190,0.108,0.000,0.000:
0000
0000
0000
0000
,
0000
0000
0000
0000
,
0000
0000
0000
0000
,
0000
0000
0000
0000
,
0001
0000
1000
0000
,
0010
0010
0010
0000
,
1000
0000
0001
0000
,
0100
0100
0100
0000
,
0010
0000
1000
0000
,
0001
0000
1000
0000
,
0100
0000
0010
0000
,
0001
0000
1000
0000
,
0010
0010
0010
0000
,
0100
0100
0100
0000
,
0010
0000
1000
0000
,
0001
0000
0000
0000
,
1001
0000
1000
0000
,
0010
0010
0010
0000
,
1000
0000
0001
0000
,
1000
1000
1000
0000
,
0100
0000
1000
0000
,
0010
0000
1000
0000
,
0001
0000
0010
0000
,
0001
0001
0001
0000
,
1001
0000
0000
0000
,
0100
0100
0100
0100
,
0100
0000
0001
0000
,
1000
0000
0000
0000
,
0110
0000
0000
0000
,
0010
0010
0010
0010
,
0010
0000
1000
0000
,
0001
1000
0001
1000
,
0010
0000
1001
0000
,
0100
0010
0100
0000
,
0001
1000
0001
0000
,
1000
0000
0001
0000
,
0110
0000
0110
0000
,
0100
0100
0100
0000
,
0001
0000
1000
0000
,
0010
0010
0010
0000
,
1001
0000
1001
0000
,
0100
0001
0100
0000
,
0010
0010
0010
0000
,
1000
0000
0010
0000
,
1001
0000
1001
0000
,
0100
0100
0100
0000
,
0001
0000
1000
0000
,
0100
0100
0100
0100
,
0100
0100
0100
0100
,
0110
0000
0000
0000
,
0001
1000
0001
0000
,
0110
0000
0000
0000
,
0100
0001
1000
0000
;
