#TITLE:Don't Stop Believing;
#SUBTITLE:;
#ARTIST:Glee Cast;
#TITLETRANSLIT:;
#SUBTITLETRANSLIT:;
#ARTISTTRANSLIT:;
#CREDIT:;
#BANNER:Don't Stop Believing-bn.png;
#BACKGROUND:Don't Stop Believing-bg.png;
#LYRICSPATH:;
#CDTITLE:;
#MUSIC:Don't Stop Believing.mp3;
#OFFSET:-0.030;
#SAMPLESTART:92.907;
#SAMPLELENGTH:12.200;
#SELECTABLE:YES;
#BPMS:0.000=124.000;
#STOPS:;
#BGCHANGES:;

//---------------dance-single - ----------------
#NOTES:
     dance-single:
     :
     Beginner:
     2:
     0.103,0.224,0.027,0.000,0.000: // measure 1
0000
0000
0000
0000
,  // measure 2
0000
0000
0000
0000
,  // measure 3
0000
0000
0000
0000
,  // measure 4
0000
0000
0000
0000
,  // measure 5
1000
0000
0000
0000
,  // measure 6
0010
0000
0010
0000
,  // measure 7
0010
0000
0000
0000
,  // measure 8
1000
0000
0000
0000
,  // measure 9
0001
0000
0000
0000
,  // measure 10
0100
0100
0100
0000
,  // measure 11
0100
0000
0000
0000
,  // measure 12
0001
0000
0000
0000
,  // measure 13
1000
0000
1000
0000
,  // measure 14
1000
0000
0000
0000
,  // measure 15
0010
0000
0000
0000
,  // measure 16
1000
0000
0000
0000
,  // measure 17
0001
0000
0000
0000
,  // measure 18
1000
0000
0000
0000
,  // measure 19
0100
0000
0000
0000
,  // measure 20
1000
0000
0000
0000
,  // measure 21
0010
0000
0000
0000
,  // measure 22
0100
0000
0100
0000
,  // measure 23
0100
0000
0100
0000
,  // measure 24
0100
0100
0100
0100
,  // measure 25
0100
0000
0000
0000
,  // measure 26
0010
0000
0000
0000
,  // measure 27
1000
0000
0000
0000
,  // measure 28
0001
0000
0000
0000
,  // measure 29
1000
0000
0000
0000
,  // measure 30
0100
0000
0000
0000
,  // measure 31
1000
1000
1000
1000
,  // measure 32
1000
1000
1000
1000
,  // measure 33
1000
0000
0000
0000
,  // measure 34
0010
0000
0000
0000
,  // measure 35
1000
0000
1000
0000
,  // measure 36
1000
0000
0000
0000
,  // measure 37
0001
0000
0000
0000
,  // measure 38
0010
0000
0000
0000
,  // measure 39
0001
0000
0001
0000
,  // measure 40
0001
0000
0000
0000
,  // measure 41
1001
0000
0000
0000
,  // measure 42
0100
0000
0000
0000
,  // measure 43
0010
0000
0000
0000
,  // measure 44
1000
0000
0000
0000
,  // measure 45
0001
0000
0000
0000
,  // measure 46
1000
0000
0000
0000
,  // measure 47
1001
0000
0000
0000
,  // measure 48
1001
0000
0000
0000
,  // measure 49
0100
0100
0000
0000
,  // measure 50
0100
0100
0000
0000
,  // measure 51
0010
0000
0000
0000
,  // measure 52
1000
0000
0000
0000
,  // measure 53
0001
0001
0000
0000
,  // measure 54
0001
0001
0000
0000
,  // measure 55
1000
0000
1000
0000
,  // measure 56
1000
1000
1000
1000
,  // measure 57
1000
0000
0000
0000
;

//---------------dance-single - ----------------
#NOTES:
     dance-single:
     :
     Medium:
     6:
     0.284,0.426,0.089,0.169,0.000:
0000
0000
0000
0000
,
0000
0000
0000
0000
,
0000
0000
0000
0000
,
0000
0000
0000
0000
,
0010
0000
1000
0000
0100
0000
1000
0001
,
1000
0010
1000
0000
,
0002
0000
0000
2003
0000
0000
3200
0000
,
0000
0000
0300
0000
,
0010
0000
0001
0000
1000
0000
0010
0100
,
0010
1000
0001
0000
,
1000
0000
0100
0000
1000
0001
1000
0000
,
0010
1000
0100
0000
,
1000
0000
0001
0000
0100
0010
0100
0000
,
0001
1000
0100
0000
,
2000
0000
0000
3002
0000
0000
0203
0000
,
0000
0000
0300
0000
,
0010
1000
0100
1000
,
0001
0010
0001
0000
,
0100
0001
1000
0100
,
0010
0001
1000
0000
,
0010
1000
0100
1000
,
0010
0100
0001
0000
,
1000
0001
1000
0010
,
0100
0000
0001
0000
1000
0000
0010
1000
,
0000
0000
0000
0000
0100
0010
0100
0001
,
0100
0010
1000
0000
,
0001
0000
1000
0000
0100
1000
0100
0000
,
1000
0010
0100
0000
,
0010
0000
0100
0001
0100
0000
0001
0000
,
1000
0100
0010
0000
,
0001
1000
0001
1000
0001
1000
0001
1000
,
0001
1000
0001
1000
0001
1000
0001
1000
,
0002
0000
0000
1003
0000
0000
0000
0000
,
0020
0000
0000
0130
0000
0000
0000
0000
,
0001
0000
1000
0000
0100
0010
0100
0000
,
1000
0001
1000
0000
,
0020
0000
0000
1030
0000
0000
0000
0000
,
0200
0000
0000
0310
0000
0000
0000
0000
,
0001
1000
0010
0100
,
0010
0000
1000
0000
0001
1000
0001
1000
,
0200
0000
0000
1300
0000
0000
0000
0000
,
0020
0000
0000
0130
0000
0000
0000
0000
,
0010
0000
1000
0000
0001
1000
0001
1000
,
0001
0100
0010
0000
,
0200
0000
0000
0301
0000
0000
0000
0000
,
0020
0000
0000
0031
0000
1000
0100
1000
,
0010
0000
0000
2020
0000
0000
3030
0000
,
0100
0000
0002
0200
0000
0000
0303
0000
,
1010
0000
0000
1001
0000
0000
0000
0100
,
1100
0000
0000
0101
0000
0000
0010
0000
,
0100
0000
0001
0000
1000
0100
1000
0000
,
0010
1000
0001
0000
,
1010
0000
0000
0110
0000
0000
0000
0001
,
0101
0000
0000
1001
0000
0100
1000
0100
,
1000
0010
0100
0001
,
1000
0001
1000
0001
1000
0001
1000
0001
,
0200
0000
0300
1001
0000
0000
0000
0000
;

//---------------dance-single - ----------------
#NOTES:
     dance-single:
     :
     Hard:
     8:
     0.554,0.633,0.223,0.534,0.085:
0000
0000
0000
0000
,
0000
0000
0000
0000
,
0000
0000
0000
0000
,
0000
0000
0000
0000
,
0002
0000
2003
0000
3010
0100
0010
1000
,
0001
1000
0100
0000
1000
0001
1000
0010
,
0200
0000
0310
2000
0000
3100
0020
0000
,
0001
0000
0100
0000
0031
1000
0001
1000
,
0200
0000
0000
0000
0300
0000
0010
0001
,
1000
0001
0010
0000
0100
1000
0100
0000
,
2000
0000
3020
0000
0130
0010
0100
0001
,
1000
0000
0001
0010
0100
0010
0001
0000
,
2000
0000
3002
0000
1003
0100
1000
0010
,
0100
0001
1000
0000
0001
0010
0100
0010
,
0002
0000
0103
0020
0000
1030
0200
0000
,
1000
0000
0010
0000
1300
0001
1000
0010
,
0200
0000
0320
0000
1030
0001
1000
0001
,
2000
0000
3020
0000
0130
0010
0100
0010
,
2000
0000
3002
0000
0013
0001
0010
0001
,
2000
0000
3020
0000
1030
0001
1000
0001
,
0200
0000
0320
0000
0130
0010
0100
0010
,
1000
0100
0010
0001
1000
0100
0010
0001
,
1000
0001
0100
0010
0100
0001
0010
1000
,
0010
0001
1000
0020
0000
0030
0110
0110
,
0000
0000
0000
0000
0001
0100
0001
1000
,
0100
1000
0001
0010
1000
0010
0001
0000
,
1000
0001
1000
0100
1000
0010
0100
0000
,
0110
0000
0001
0100
0010
0100
0001
0000
,
1000
0000
0100
1000
0010
1000
0001
0010
,
1000
0000
0010
0000
0001
0000
1000
0000
0000
0000
0100
0000
0000
0010
0000
0000
,
0001
1000
0100
1000
0010
0100
0001
0010
,
1000
0000
0010
0000
0001
0000
1000
0000
0010
0000
0100
0000
0001
0100
0001
0100
,
0002
0100
0103
0020
0000
0030
1001
0000
,
2000
0100
3100
0020
0000
0030
1001
0000
,
0110
0000
0101
0000
1000
0001
1000
0010
,
0100
0010
1000
0100
0010
0001
1000
0000
,
0020
1000
1030
0200
0000
0300
1100
0000
,
2000
0010
3010
0200
0000
0310
0100
0001
,
1000
0000
1100
1000
0001
0000
0110
0000
,
0001
0100
1000
0100
0010
0100
0001
0010
,
0220
0000
0330
2002
0000
3003
0100
1000
,
2200
0000
3300
2002
0000
3003
0010
0100
,
0001
0100
0010
0000
1000
0100
0001
0100
,
1000
0010
0100
0010
1000
0001
0010
0000
,
2200
0000
3300
0022
0000
0033
0100
0010
,
0220
0000
0330
0202
0000
0303
1000
0010
,
1010
0000
0100
0000
0100
0000
1001
0000
0000
0000
0010
0100
0010
0100
0010
0100
,
0010
1000
0001
2002
0000
0003
3100
0100
,
2000
0010
0010
3020
0100
0130
0100
0010
,
0210
0010
0010
0302
1000
1003
1000
0001
,
1000
0001
0100
1000
0100
0010
1000
0100
,
0010
0000
0001
0000
1000
0000
0010
0000
1000
0001
1000
0001
1000
0000
0000
0000
,
2100
0000
0001
0000
0001
3000
0002
0000
0100
0000
0103
0000
0100
0000
0010
0000
,
1020
0100
0100
0230
0001
0301
0001
1000
,
0010
0100
0010
1000
0100
0001
0100
1000
,
0010
0100
0010
0100
0010
0100
0010
0100
0010
0100
0010
0100
0010
0100
0010
0100
,
0010
0000
0000
1000
0000
0000
0100
0000
0000
2002
0000
0000
0000
0000
0000
3003
0000
0000
0000
1000
0100
0010
0001
0000
;

//---------------dance-single - ----------------
#NOTES:
     dance-single:
     :
     Easy:
     4:
     0.229,0.326,0.169,0.000,0.000:
0000
0000
0000
0000
,
0000
0000
0000
0000
,
0000
0000
0000
0000
,
0000
0000
0000
0000
,
0001
1000
0100
0000
,
1000
1000
1000
0000
,
0010
0000
0000
1000
0000
0000
0001
0000
,
0000
0000
0000
0000
,
0010
0001
1000
0000
,
0001
0001
0001
0000
,
0100
0010
1000
0000
,
0100
0100
0100
0000
,
0010
0001
0100
0000
,
0010
0010
0010
0000
,
1000
0000
0000
0100
0000
0000
0010
0000
,
0000
0000
0000
0000
,
0001
1000
0001
1000
,
0010
0100
0010
0100
,
0001
0100
0001
0100
,
0010
1000
0010
1000
,
0100
0010
0100
0010
,
0001
0010
0001
0010
,
0100
1000
0100
1000
,
0001
0000
1000
0000
0001
0000
0100
0100
,
0000
0000
0010
0100
,
0010
0000
1000
1000
,
1000
0000
0100
0010
,
0001
0000
0001
0001
,
0001
0000
1000
0000
,
0010
0000
0100
0000
,
0010
1000
0100
0010
,
0001
1000
0001
0100
,
0110
0000
0000
0110
0000
0000
0000
0000
,
1001
0000
0000
1001
0000
0000
0000
0000
,
0100
1000
0001
0000
,
1000
0010
0100
0001
,
0101
0000
0000
0101
0000
0000
0000
0000
,
1010
0000
0000
1010
0000
0000
0000
0000
,
0100
1000
0010
0000
,
1000
0010
0100
0000
,
0110
0000
0000
0110
0000
0000
0000
0000
,
0101
0000
0000
0101
0000
0000
0000
0000
,
0010
1000
0100
0000
,
1000
0001
0100
0000
,
0101
0000
0000
0101
0000
0000
0000
0000
,
1100
0000
0000
1100
0000
0000
0000
0000
,
1001
0000
0000
1001
0000
0000
0000
0000
,
0100
0000
0010
0100
0000
0000
0000
0000
,
0001
0100
0010
1000
,
0001
1000
0100
0000
,
1000
0100
0010
0001
,
1000
0010
1000
0000
,
0010
0100
0001
1000
,
0010
1000
0001
0000
,
0100
0010
0100
0010
,
0100
0010
0100
0010
0100
0010
0100
0010
,
0100
0000
0000
1001
0000
0000
0000
0000
;
