#TITLE:Desperate Girls & Stupid Boys;
#SUBTITLE:;
#ARTIST:Kimberly Caldwell;
#TITLETRANSLIT:;
#SUBTITLETRANSLIT:;
#ARTISTTRANSLIT:;
#CREDIT:;
#BANNER:Desperate Boys & Stupid Girls-bn.png;
#BACKGROUND:Desperate Boys & Stupid Girls-bg.png;
#LYRICSPATH:;
#CDTITLE:;
#MUSIC:Desperate Girls & Stupid Boys.mp3;
#OFFSET:-1.470;
#SAMPLESTART:45.948;
#SAMPLELENGTH:16.380;
#SELECTABLE:YES;
#BPMS:0.000=140.000;
#STOPS:;
#BGCHANGES:;

//---------------dance-single - ----------------
#NOTES:
     dance-single:
     :
     Beginner:
     1:
     0.115,0.213,0.008,0.000,0.000:
0000
0000
0000
0000
,
0000
0000
0000
0000
,
0010
0000
0000
0000
,
1000
0000
0000
0000
,
0001
0000
0000
0000
,
1000
0000
0000
0000
,
0010
0000
0000
0000
,
1000
0000
0000
0000
,
0001
0000
0000
0000
,
1000
0000
0000
0000
,
0100
0000
0000
0000
,
1000
0000
0000
0000
,
0010
0000
0000
0000
,
1000
0000
0000
0000
,
0001
0000
0000
0000
,
0010
0000
0000
0000
,
0001
0000
0000
0000
,
1000
0000
0000
0000
,
0100
0000
0100
0000
,
0100
0000
0000
0000
,
0010
0000
0010
0000
,
0010
0000
0000
0000
,
0001
0000
0001
0000
,
0001
0000
0000
0000
,
1000
0000
1000
0000
,
1000
0000
0000
0000
,
1001
0000
0000
0000
,
0100
0100
0000
0000
,
0100
0000
0000
0000
,
0010
0010
0000
0000
,
0010
0000
0000
0000
,
1000
0000
0000
0000
,
0001
0001
0001
0001
,
0001
0001
0001
0000
,
0001
0000
0000
0000
,
1000
1000
0000
0000
,
1000
0000
0000
0000
,
0010
0010
0000
0000
,
0010
0000
0000
0000
,
0100
0000
0000
0000
,
0010
0010
0010
0010
,
0010
0010
0010
0000
,
0010
0000
0000
0000
,
1000
0000
0000
0000
,
0001
0000
0000
0000
,
1000
0000
0000
0000
,
0100
0000
0000
0000
,
0010
0000
0000
0000
,
0001
0000
0000
0000
,
1000
0000
0000
0000
,
0010
0000
0010
0000
,
0010
0000
0000
0000
,
1000
0000
1000
0000
,
1000
0000
0000
0000
,
0001
0000
0000
0000
,
1000
0000
0000
0000
,
0100
0100
0100
0100
,
0100
0100
0100
0000
,
0100
0000
0000
0000
,
0010
0000
0000
0000
,
0001
0000
0000
0000
,
1000
0000
0000
0000
,
0001
0000
0000
0000
,
1000
0000
0000
0000
,
0010
0010
0010
0010
,
0010
0010
0010
0000
,
0010
0010
0010
0010
,
0010
0010
0010
0000
;

//---------------dance-single - ----------------
#NOTES:
     dance-single:
     :
     Medium:
     4:
     0.294,0.461,0.182,0.285,0.000:
0000
0000
0000
0000
,
0000
0000
0000
0000
,
2002
0000
3003
0000
,
0100
0010
1000
0000
,
0002
0003
2000
3000
,
0200
0300
2000
3000
,
2002
0000
3003
0000
,
0010
0100
0001
0000
,
2000
3000
0002
0003
,
2000
3000
0200
0300
,
0220
0000
0330
0000
,
0001
0000
1000
0000
,
0200
0300
2000
3000
,
0020
0030
2000
3000
,
0001
0000
0100
0001
0000
0000
0000
0000
,
1000
0000
0100
1000
0000
0000
0000
0000
,
0010
0000
1000
0001
1000
0000
0010
0000
,
0100
0000
0000
0000
,
0010
1000
0001
0000
,
1000
0000
0100
1000
0001
0000
1000
0000
,
0000
0010
1000
0000
,
0001
0000
0010
0001
0100
0000
0001
0000
,
0000
0010
0100
0000
,
1000
0000
0001
1000
0100
0000
1000
0000
,
2020
3030
2002
3003
,
0220
0330
2002
3003
,
0100
0001
1000
0100
,
0010
0001
1000
0000
,
0010
1000
0001
0100
,
0010
1000
0100
0000
,
1000
0001
0010
0100
,
1000
0001
1000
0000
,
0010
0010
1000
0001
,
0100
0010
0000
0010
0000
0000
0000
0000
,
0100
0001
1000
0100
,
0010
0001
1000
0000
,
0010
1000
0100
0010
,
0001
1000
0010
0000
,
1000
0001
0100
0010
,
0100
0001
1000
0000
,
0100
0100
1000
0001
,
0010
0100
0000
0100
0000
0000
0000
0000
,
0000
0011
1001
0000
,
0100
1000
0010
0000
,
0000
1010
1001
0000
,
1000
0001
0100
0000
,
0000
0110
0101
0000
,
0010
1000
0100
0000
,
2002
3003
0220
0330
,
0202
0303
2200
3300
,
0010
1000
0001
1000
,
0100
0000
0010
0001
0000
0001
0000
0000
,
0010
0001
0100
0010
,
1000
0000
0100
1000
0000
0000
0000
0000
,
0010
0000
1000
0001
0000
1000
0000
0000
,
0010
0000
0100
0010
0000
0000
0000
0000
,
1000
1000
0010
0100
,
0001
1000
0000
1000
0000
0000
0000
0000
,
0100
1000
0010
0100
,
0001
0000
1000
0100
0000
1000
0000
0000
,
0010
1000
0001
0100
,
0010
0000
0100
0010
0000
0000
0000
0000
,
0100
0010
1000
0001
,
1000
0000
0100
0010
0000
0001
0000
0000
,
0100
0100
0010
1000
,
0001
0100
0000
0100
0000
0000
0000
0000
,
1001
1010
1001
0000
,
0110
0101
2002
0000
,
0000
0000
0000
0000
0000
3003
0000
0000
;

//---------------dance-single - ----------------
#NOTES:
     dance-single:
     :
     Hard:
     6:
     0.420,0.488,0.632,0.245,0.000: // measure 1
0000
0000
0000
0000
,  // measure 2
0000
0000
0000
0000
,  // measure 3
0220
0000
0330
0000
,  // measure 4
0001
0100
0001
0000
1000
0100
1000
0000
,  // measure 5
2010
0000
3020
0000
,  // measure 6
0130
0001
1000
0010
,  // measure 7
2002
0000
3003
0000
,  // measure 8
0100
0001
0100
0000
1000
0001
1000
0000
,  // measure 9
0010
0100
0001
0000
,  // measure 10
0010
0100
1100
1010
,  // measure 11
0210
0000
0301
1001
,  // measure 12
0100
0010
0100
0000
0001
0100
0001
0000
,  // measure 13
2100
0000
3200
0000
,  // measure 14
0310
0001
1000
0001
,  // measure 15
0100
0000
0001
1000
0000
0000
1100
0000
,  // measure 16
1000
0000
0010
0100
0000
0000
0110
0000
,  // measure 17
1000
0000
0001
1000
0000
1001
0000
0101
,  // measure 18
0000
0000
0000
0000
,  // measure 19
0001
1100
1001
1000
,  // measure 20
0010
0100
0010
1000
0001
0000
1000
0000
,  // measure 21
0010
1100
1001
0100
,  // measure 22
0010
0100
0001
0100
0010
0000
1000
0000
,  // measure 23
0001
1001
0110
0001
,  // measure 24
1000
0100
1000
0001
0010
0000
0100
0000
,  // measure 25
0012
1003
2100
3001
,  // measure 26
2002
3003
0220
0330
,  // measure 27
1002
1000
0100
0103
,  // measure 28
0010
1000
0010
0000
1000
0000
0001
0000
,  // measure 29
2100
0100
0010
3010
,  // measure 30
0100
0010
0100
0000
0001
0100
0001
0000
,  // measure 31
1000
0001
0010
0100
,  // measure 32
1000
0010
0100
0000
,  // measure 33
0101
1100
1001
0010
,  // measure 34
1001
1100
0101
0000
,  // measure 35
2010
0010
0100
3100
,  // measure 36
0010
1000
0010
0000
1000
0001
1000
0000
,  // measure 37
0201
0001
0010
0310
,  // measure 38
0100
0001
0100
0000
0001
1000
0001
0000
,  // measure 39
1000
0001
0010
0100
,  // measure 40
1000
0010
0100
0000
,  // measure 41
0101
1001
1100
0010
,  // measure 42
0011
1001
1100
0000
,  // measure 43
0000
0000
0001
0000
0100
0000
0010
1000
,  // measure 44
0000
1000
0010
0000
0100
0000
0001
0000
,  // measure 45
0000
0000
0010
0000
0100
0000
1000
0100
,  // measure 46
0000
0100
1000
0000
0010
0000
0100
0000
,  // measure 47
0000
0000
0001
0000
0100
0000
0001
1000
,  // measure 48
0000
1000
0001
0000
0010
0000
0001
0000
,  // measure 49
1002
0013
2100
3010
,  // measure 50
0220
0330
2002
3003
,  // measure 51
0101
0101
1001
1001
,  // measure 52
0010
0000
1000
0000
0100
1000
0100
0000
,  // measure 53
1100
1100
1010
1010
,  // measure 54
0100
0010
0100
0000
0001
0000
0100
0000
,  // measure 55
1020
1030
0001
1000
,  // measure 56
0201
0310
0010
0000
,  // measure 57
1001
0110
1001
0100
,  // measure 58
0101
1100
1001
0000
,  // measure 59
1010
1010
1001
1001
,  // measure 60
0100
0010
0100
0000
0001
0100
0001
0000
,  // measure 61
1001
1001
1100
1100
,  // measure 62
0010
0001
0010
0000
0001
1000
0001
0000
,  // measure 63
2001
3010
0100
0001
,  // measure 64
0210
0310
0010
0000
,  // measure 65
1001
0110
0101
1000
,  // measure 66
1100
1010
1001
0000
,  // measure 67
0110
0101
1001
0010
,  // measure 68
1100
1001
0220
0000
,  // measure 69
0000
0000
0000
0000
0000
0330
0000
0000
;

//---------------dance-single - ----------------
#NOTES:
     dance-single:
     :
     Easy:
     2:
     0.191,0.244,0.008,0.198,0.000:
0000
0000
0000
0000
,
0000
0000
0000
0000
,
1000
0000
0000
0000
,
0001
0000
0001
0000
,
0001
0000
0000
0000
,
1000
0000
0000
0000
,
0010
0000
0000
0000
,
0100
0000
0100
0000
,
0100
0000
0000
0000
,
0010
0000
0000
0000
,
1001
0000
0000
0000
,
0100
0000
0100
0000
,
0100
0000
0000
0000
,
1000
0000
0000
0000
,
0010
0000
0000
0000
,
1000
0000
0000
0000
,
0001
0000
0001
0000
,
0001
0000
0000
0000
,
0000
1000
1000
0000
,
0010
0100
0010
0000
,
0000
0100
0100
0000
,
0001
1000
0001
0000
,
0000
1000
1000
0000
,
0100
0010
0100
0000
,
2000
3000
0020
0030
,
2000
3000
0002
0003
,
0200
0000
0010
0000
,
0302
0000
1000
0000
,
2003
0000
0100
0000
,
3020
0000
0100
0000
,
1030
0000
0001
0000
,
0010
0000
0100
0000
,
1000
1000
1000
0100
,
0001
0001
0001
0000
,
2000
0000
0010
0000
,
3002
0000
0100
0000
,
0023
0000
0100
0000
,
0032
0000
1000
0000
,
0103
0000
0010
0000
,
1000
0000
0001
0000
,
1000
1000
1000
0100
,
0001
0001
0001
0000
,
0000
0100
0100
0000
,
0010
1000
0010
0000
,
0000
1000
1000
0000
,
0001
1000
0001
0000
,
0000
0010
0010
0000
,
0100
0010
0100
0000
,
0020
0030
0002
0003
,
2000
3000
0020
0030
,
2000
0000
0001
0000
,
3020
0000
1000
0000
,
0230
0000
0001
0000
,
0320
0000
1000
0000
,
0130
0000
0001
0000
,
1000
0001
1000
0000
,
0001
0001
0001
0100
,
1000
1000
1000
0000
,
0020
0000
1000
0000
,
0230
0000
0010
0000
,
0302
0000
0010
0000
,
2003
0000
0100
0000
,
3010
0000
1000
0000
,
0001
0100
0001
0000
,
1000
1000
1000
0100
,
0001
0001
0001
0000
,
0001
0001
0001
0100
,
1000
1000
2000
0000
,
0000
0000
0000
0000
0000
3000
0000
0000
;
