#TITLE:Dame~!;
#SUBTITLE:;
#ARTIST:Rie Kugimiya;
#TITLETRANSLIT:;
#SUBTITLETRANSLIT:;
#ARTISTTRANSLIT:;
#CREDIT:;
#BANNER:Dame!-bn.png;
#BACKGROUND:Dame!-bg.png;
#LYRICSPATH:;
#CDTITLE:;
#MUSIC:Dame~!.mp3;
#OFFSET:-0.620;
#SAMPLESTART:79.147;
#SAMPLELENGTH:14.820;
#SELECTABLE:YES;
#BPMS:0.000=118.000;
#STOPS:25.500=1.020
,55.000=0.500
,150.750=1.080
,180.000=0.500
;
#BGCHANGES:;

//---------------dance-single - ----------------
#NOTES:
     dance-single:
     :
     Hard:
     8:
     0.498,0.494,0.351,0.240,0.236: // measure 1
0000
0000
0000
0000
,  // measure 2
0001
1000
0100
1000
0010
0100
0001
1000
,  // measure 3
0001
0000
0000
0100
0000
0000
0010
0000
2000
0000
0000
0000
3020
0000
0000
0000
,  // measure 4
0030
0000
0100
0010
0100
0010
0100
0000
0001
0000
1000
0000
0100
0000
0001
0000
,  // measure 5
0100
0000
0000
1000
0000
0000
0010
0000
0200
0000
0000
0000
0302
0000
0000
0000
,  // measure 6
0003
0000
1000
0100
1000
0000
0010
0000
1000
0000
0001
0000
0101
0000
1001
0000
,  // measure 7
0000
0000
0000
0000
0000
0000
0000
0000
1010
0000
0000
0000
0000
0000
0000
0000
0000
0000
0000
0000
0000
0000
0000
0000
0120
0030
0000
0000
0000
0000
0000
0000
1000
0000
0000
0000
0000
0000
0000
0000
0000
0000
0000
0000
0001
0000
0000
0000
0000
0000
0000
0000
0000
0000
0000
0000
1000
0000
0000
0000
0000
0000
0000
0000
,  // measure 8
0010
0000
0100
0000
0001
0000
0100
0000
0010
1000
0000
1000
0001
0000
1000
0000
,  // measure 9
0000
0000
0010
0000
0100
0000
0010
0000
1000
0000
0000
0001
0010
0000
0001
0000
,  // measure 10
0000
0000
1000
0000
0100
0000
1000
0000
0010
0100
0000
0100
0010
0000
1000
0000
,  // measure 11
1020
0000
0230
0000
0300
0001
1000
0100
,  // measure 12
1000
0000
0000
1000
0010
0000
0100
0000
0001
0000
0000
0000
0010
0000
0001
0000
,  // measure 13
1000
0000
0000
0000
0010
0000
0100
0010
0000
0000
1001
0000
1000
0001
0000
0000
,  // measure 14
0101
0000
1001
0000
0110
0110
0110
0000
,  // measure 15
1001
0000
0200
0010
0320
0001
0032
1000
,  // measure 16
1003
0000
0000
0000
0010
0000
0000
0000
0110
0000
0000
0000
0101
0000
0000
0001
,  // measure 17
1000
0000
0010
0100
0010
0000
0000
0010
1000
0000
0000
1000
0002
0000
0000
0000
,  // measure 18
0103
0000
0000
0000
1000
0000
0100
0000
0001
0000
0100
0000
1000
0000
0000
1000
,  // measure 19
0010
0000
0100
0000
0101
0000
0000
0000
0010
0000
1000
0000
0100
0000
0000
1000
,  // measure 20
0010
0000
1000
0000
1010
0000
0000
0000
1000
0000
0001
0000
0100
0000
0000
0010
,  // measure 21
0100
0001
2002
0000
0000
0000
0000
0000
,  // measure 22
0000
3003
0000
0000
0010
0000
0000
0010
0000
1000
0100
0000
0010
0000
0000
0000
,  // measure 23
2001
0000
3010
0000
1000
0001
1000
0100
,  // measure 24
0010
0000
0001
0000
0200
0000
0000
0302
0000
0000
2000
0000
0000
0000
3003
0000
,  // measure 25
0110
0000
0001
0100
1000
0100
0010
1000
,  // measure 26
0100
0000
1000
0000
1001
0000
0000
1100
0000
0000
0101
0000
0000
0000
0010
0000
,  // measure 27
0120
0000
0000
0000
1030
0000
0000
0001
0000
0000
1000
0000
0100
0000
0000
0010
,  // measure 28
0000
0000
0001
0000
1000
0000
0000
0010
0000
0000
0100
0000
0001
0000
0000
0100
,  // measure 29
0000
0000
1001
1000
0100
0010
0001
1000
,  // measure 30
0001
0000
0101
0100
0010
1000
0001
1000
,  // measure 31
0100
0000
1010
1000
0010
0100
0001
1000
,  // measure 32
0001
0000
0101
0100
0010
1000
0001
0010
,  // measure 33
0100
1000
0000
0000
0000
0000
0000
0000
,  // measure 34
0000
0000
0000
0000
0000
0000
0010
0001
0010
0000
0000
0000
0000
0000
0001
0000
,  // measure 35
0100
0000
0001
0000
2000
0000
0000
0200
0000
0000
0000
0000
0000
0000
0000
0000
,  // measure 36
3300
0000
0000
0000
0100
0000
0000
0010
0000
0000
0000
0000
0000
0000
0001
0000
,  // measure 37
1000
0000
0001
0000
0200
0000
0000
0002
0000
0000
0000
0000
0000
0000
0000
0000
,  // measure 38
0303
0000
0000
0000
1000
0001
0000
0000
0000
0000
0001
1000
0001
0000
0000
1000
,  // measure 39
0000
0000
0001
0000
0100
0000
0010
0000
1000
0000
0010
0000
0100
0001
0000
0001
,  // measure 40
1000
0000
0001
0000
0000
0000
0100
0000
0010
0000
0100
0000
0001
0000
0000
1000
,  // measure 41
0100
0000
1000
0000
0000
0000
0001
0000
0010
0000
0001
0000
0100
0010
0000
0010
,  // measure 42
0100
0001
0201
0000
0320
0000
0030
1000
,  // measure 43
0001
0000
0010
0000
0001
0000
0000
0001
0100
0000
0010
0000
1000
0000
0000
0000
,  // measure 44
0100
0000
1000
0000
0001
0000
0000
0000
0100
0000
0010
0100
0000
0000
1001
0000
,  // measure 45
0001
1000
0000
0000
1010
0000
0000
0000
1001
0000
0000
0000
0110
0000
0110
0000
,  // measure 46
0110
0000
1001
0000
0020
0100
0230
1000
,  // measure 47
2300
0001
3001
0000
0100
0000
0110
0000
,  // measure 48
1010
0000
0000
1000
0001
0000
0100
0010
0100
0000
0000
0100
0001
0000
0000
0001
,  // measure 49
2000
0000
3010
0000
0001
0010
1000
0010
,  // measure 50
0001
0000
0000
0001
0100
0000
0010
0000
1010
0000
0000
0000
0100
0000
0001
0000
,  // measure 51
0010
0000
0000
0001
0100
0000
0001
0000
1000
0000
0100
0000
1000
0000
0001
0000
,  // measure 52
0101
0000
0000
1100
0000
0000
1001
0000
1000
0000
0000
1000
0001
0000
0000
0001
,  // measure 53
0100
0000
0010
0100
0001
0000
0010
0100
,  // measure 54
1000
0000
0001
1000
0001
0000
1000
0100
,  // measure 55
1000
0000
0000
0000
0010
0000
1000
0000
0001
0100
0000
0000
0000
0000
1000
0010
;

//---------------dance-single - ----------------
#NOTES:
     dance-single:
     :
     Beginner:
     1:
     0.086,0.117,0.060,0.000,0.000:
0000
0000
0000
0000
,
1000
0000
0000
0000
,
0001
0000
0000
0000
,
0010
0000
0000
0000
,
0001
0000
0000
0000
,
0100
0000
0000
0000
,
1001
0000
0000
0000
,
0000
0000
1000
1000
,
0000
0000
0001
0000
,
0000
0000
0100
0000
,
0100
0000
0100
0000
,
0000
0000
0010
0000
,
0000
0000
0000
1001
,
0000
0000
1000
1000
,
0000
0001
0000
0000
,
0000
0001
0000
0000
,
0000
1000
0000
0000
,
0000
1000
0000
0000
,
0000
0010
0000
0000
,
0000
0010
0000
0000
,
0000
1001
0000
0000
,
0000
0000
0000
0000
,
0000
0100
0000
0100
,
0000
0100
0000
0000
,
0000
0001
0000
0001
,
0000
0001
0000
0000
,
0000
1000
0000
1000
,
0000
1000
0000
0000
,
0000
0010
0000
0010
,
0000
0010
0000
0000
,
0000
1001
0000
0000
,
0000
1001
0000
0000
,
0000
0100
0000
0000
,
0000
0100
0000
0000
,
0000
0100
0000
0000
,
0000
0100
0000
0000
,
0000
0100
0000
0000
,
0000
0100
0000
0000
,
0000
0000
0000
1000
,
1000
0000
0000
0010
,
0000
0000
0000
1000
,
0000
1000
0000
1000
,
0000
0000
0000
0100
,
0000
0000
0000
0000
,
1001
0000
0000
0100
,
0100
0000
0010
0000
,
0000
0000
1000
0000
,
0000
0000
0001
0000
,
0000
0000
1000
0000
,
0000
0000
0100
0000
,
0000
0000
1000
0000
,
0000
0000
0001
0000
,
0000
0000
1000
0000
,
0000
0000
0010
0000
,
0000
0000
1001
0000
;

//---------------dance-single - ----------------
#NOTES:
     dance-single:
     :
     Easy:
     4:
     0.215,0.212,0.051,0.034,0.000:
0000
0000
0000
0000
,
0010
1000
0100
1000
,
0002
0003
2000
3000
,
0100
0010
0001
1000
,
0020
0030
2000
3000
,
0001
0000
1000
0000
0100
0000
1000
1000
,
0000
1000
0000
1000
0010
0000
1000
0000
,
0001
0000
0000
0000
0100
0001
0100
0001
,
0000
0000
0100
0010
,
1000
0000
0000
0000
0100
1000
0100
1000
,
0000
0000
0010
1000
,
0001
0000
1000
0001
,
0100
0000
0000
0000
0000
0010
0100
0000
,
0001
0000
1000
0000
0100
0100
0100
0000
,
0000
1000
0010
1000
,
0000
0001
1000
0100
,
1000
0001
0010
0001
,
0000
0100
0010
1000
,
0000
0001
1000
0100
,
0000
1000
0001
0010
,
0000
0001
0100
0001
,
1000
0100
0000
0000
,
0000
0010
0001
0100
,
0000
0001
0001
0001
,
0000
0100
0010
1000
,
0000
0100
0100
0100
,
0000
1000
0001
0010
,
0001
1000
0100
0010
,
0001
1000
0010
0100
,
0010
1000
0100
0010
,
0000
1001
0000
0100
,
0010
0110
0000
0001
,
0100
0001
0000
0000
,
0000
1000
0000
0000
,
0000
0100
0000
0000
,
0000
1000
0000
0000
,
0000
0010
0000
0000
,
0000
0000
0110
0000
0000
0110
0100
0000
,
0001
0000
1000
0000
0000
0000
0010
1000
,
0010
1000
0000
0000
0000
0000
0010
0000
,
0100
0000
0001
0000
0000
0000
0010
0001
,
0010
0001
0000
0000
0000
0000
0100
0000
,
0001
1000
0000
0001
,
1000
0000
0010
0000
0000
0000
0000
0100
,
0010
0000
1000
0000
0001
0000
0010
0010
,
0010
0000
0001
0100
,
0001
0000
1000
0001
,
0010
0001
1000
0100
,
1000
0000
0010
0100
,
0001
0000
1000
0001
,
0010
0000
0001
1000
,
0100
0000
1000
0010
,
1000
0001
0010
0000
,
0000
0000
0100
1000
,
0010
0000
0000
0000
1001
0000
0000
1001
;

//---------------dance-single - ----------------
#NOTES:
     dance-single:
     :
     Medium:
     6:
     0.368,0.377,0.060,0.300,0.030:
0000
0000
0000
0000
,
0001
0100
1000
0000
0010
1000
0100
0000
,
2000
3002
0203
0300
,
0010
1000
0001
0000
1000
0100
0001
0000
,
0020
0032
0203
0300
,
0010
1000
0001
0000
1000
0100
0001
1000
,
0000
0001
0000
1001
0020
0000
2030
0000
,
3100
1000
0001
0000
0100
0010
0100
0001
,
0100
0000
0010
1000
0200
0000
2300
0000
,
3001
0001
0010
0000
0001
1000
0001
1000
,
0200
0000
2300
0000
3000
0000
0010
1000
,
0100
0000
1000
0000
0001
0000
0010
0001
,
0100
0000
0000
0000
0010
0000
0000
0000
1000
0000
0001
0000
1000
0001
0000
0000
,
0100
0000
0010
1000
0100
1000
0001
0000
,
1001
0200
1000
0310
,
0001
1000
0100
0010
,
0001
1000
0002
0000
0203
0000
0320
0000
,
1030
0000
0100
1000
0010
0000
1000
0001
,
1000
0001
1000
0000
0100
0000
0010
0000
,
0001
1000
0010
1000
0001
0000
0100
0010
,
0100
0001
1000
0000
0001
0000
1000
0000
,
0010
0200
0000
0300
,
1001
0000
0100
0000
0010
0000
0100
0001
,
1000
0100
1000
0001
,
1000
0000
0010
0000
1000
0000
0001
0010
,
0100
0010
0001
1000
,
0010
0000
1000
0001
0100
0000
0010
1000
,
0100
0000
1000
0001
0010
0000
0001
0100
,
1000
0000
0010
1000
0100
0000
1000
0000
,
0001
0000
0010
0001
0100
0000
0010
0000
,
0100
1001
0100
1000
,
0010
1001
0100
0001
,
0010
0100
0000
0000
,
0000
0000
0000
0000
0000
0000
0001
0010
0001
0000
0000
0000
0000
0000
0000
0000
,
0000
0200
0000
0000
,
0000
0000
0000
0300
0000
0000
0000
0000
0000
0000
0000
0000
0000
0000
0000
0000
,
0000
2000
0000
0000
,
0000
3000
0000
0000
0001
1000
0000
0000
0000
0000
0001
1000
0020
0000
0000
0000
,
2030
0000
3100
1000
0001
0000
0100
0010
,
0100
0001
0100
0000
0010
1000
0200
0000
,
2300
0000
3001
0000
0010
0000
0001
1000
,
0001
1000
0200
0000
2300
0000
3000
0000
,
0010
1000
0100
0000
1000
0000
0001
0000
,
0010
0001
0100
0000
0010
0000
1000
0001
,
1000
0001
0000
0000
0100
0000
0000
0000
0010
0000
1000
0000
0100
0000
1000
0000
,
0001
1001
0200
1000
,
0310
0001
1000
0100
,
0010
0000
0001
1000
0002
0000
0203
0000
,
0320
0000
1030
0000
0100
1000
0010
0000
,
1000
0001
1000
0001
2000
0000
3200
0000
,
0320
0000
0031
1000
0010
1000
0001
0000
,
0100
0010
0100
0001
2000
0000
3002
0000
,
0203
0301
1001
0100
,
0010
0001
1000
0001
1000
0000
0010
0000
,
0100
0000
0000
0000
0001
0000
1000
0000
0100
0010
0000
0000
0000
0000
0100
0010
;
