#TITLE:Charlie Brown;
#SUBTITLE:;
#ARTIST:Coldplay;
#TITLETRANSLIT:;
#SUBTITLETRANSLIT:;
#ARTISTTRANSLIT:;
#CREDIT:;
#BANNER:Charlie Brown-bn.png;
#BACKGROUND:Charlie Brown-bg.png;
#LYRICSPATH:;
#CDTITLE:;
#MUSIC:Charlie Brown.mp3;
#OFFSET:-0.120;
#SAMPLESTART:13.207;
#SAMPLELENGTH:14.480;
#SELECTABLE:YES;
#BPMS:0.000=69.000,15.000=138.000,199.000=69.000,214.000=138.000;
#STOPS:117.500=-0.010
,212.000=-0.020
,213.000=-0.020
;
#BGCHANGES:-0.300=Charlie Brown.avi=1.000=1=0=1,
99999=-nosongbg-=1.000=0=0=0 // don't automatically add -songbackground-
;

//---------------dance-single - ----------------
#NOTES:
     dance-single:
     :
     Beginner:
     1:
     0.096,0.139,0.036,0.000,0.000:
0000
0000
0000
0000
,
0000
0000
0000
0000
,
0000
1000
0000
0001
,
0000
1000
0000
0010
,
0000
0000
0000
1000
,
0000
1000
0000
0000
,
0000
0001
0000
0000
,
0000
0010
0010
0000
,
0000
0001
0001
0000
,
0000
1000
1000
0000
,
0000
0100
0100
0000
,
0000
1000
0000
0000
,
0000
0001
0000
0001
,
0000
0000
0000
0100
,
0000
0000
0000
0010
,
0000
0010
0000
0010
,
0000
0000
0000
1000
,
0000
1000
0000
1000
,
0000
0000
0000
0100
,
0000
0000
0000
1000
,
0000
1000
0000
0000
,
0000
0001
0000
0000
,
0000
0010
0000
0010
,
0000
0010
0000
0000
,
0000
0001
0000
0001
,
0000
0001
0000
0000
,
0000
1001
0000
0000
,
0000
0100
0000
0100
,
0000
0000
0000
0010
,
0000
0000
0000
1000
,
0000
0000
0000
0001
,
0000
0000
0000
1000
,
0000
0000
0000
0100
,
0000
0000
0000
1000
,
1000
0000
0000
0001
,
0001
0000
0000
0100
,
0000
0000
0000
0100
,
0000
0000
0000
0010
,
0010
0000
0000
1000
,
1000
0000
0000
0001
,
0000
0000
0000
0001
,
0000
0000
0000
0100
,
0100
0000
0000
0010
,
0010
0000
0000
1000
,
1000
0000
0000
0001
,
0001
0000
0000
0110
,
0000
0000
0000
0000
,
0000
0000
0000
1001
,
0000
0000
0000
0000
,
0000
0000
0000
0100
,
0000
0000
0000
0000
,
0000
0000
0010
0000
,
0010
0000
0010
0000
,
0010
0000
0010
0000
,
0000
0000
1000
0000
,
1000
0000
0000
0000
,
0001
0000
0000
0000
,
0100
0100
0000
0000
,
0100
0100
0000
0000
,
0010
0010
0000
0000
,
0010
0010
0000
0000
,
1001
0000
0000
0000
,
1001
0000
0000
0000
,
0000
0000
0100
0100
,
0100
0100
0100
0000
;

//---------------dance-single - ----------------
#NOTES:
     dance-single:
     :
     Medium:
     5:
     0.276,0.357,0.079,0.086,0.000:
0000
0000
0000
0000
,
0000
0000
0000
0000
,
0001
0100
0100
0010
,
1000
0001
0001
0100
,
0010
0000
1000
0000
0001
0100
0000
0000
,
0001
1000
0100
0010
,
0001
1000
0010
0100
,
0000
0000
0010
0100
0010
0000
0100
0010
,
0100
0000
0001
0000
0100
0010
0000
0000
,
1000
0001
1000
0100
,
0010
0000
0001
0000
1000
0001
0000
0000
,
0100
0010
1000
0100
,
1000
0001
0100
0010
,
0000
0100
0001
0010
,
0001
0000
0000
0000
1000
0010
1000
0000
,
0010
0100
0010
1000
,
0001
0000
0010
0000
0001
0100
0001
0000
,
0010
0001
1000
0010
,
0100
0010
1000
0100
,
0000
0000
1000
0000
0001
0100
0000
0000
,
0010
0000
0000
1000
0000
0000
0100
0000
,
1000
0010
0100
0010
,
1000
0100
1000
0000
0010
0000
1000
0000
,
0001
0010
0100
0010
,
0001
0010
0001
0000
0100
0000
0001
0000
,
1000
0010
0100
0010
,
0000
0101
0100
0010
,
1000
0001
0000
0000
1000
0000
0010
0000
,
0100
0010
1000
0001
,
0010
0000
0100
0000
0000
0000
0010
0001
,
0010
0000
0001
0100
0001
0000
1000
0100
,
1000
0000
0010
1000
0010
0000
1000
0000
,
0001
0100
0010
0100
,
0001
0000
1000
0000
0000
0000
0010
1000
,
0100
0000
1000
0000
0000
0000
0010
0100
,
0001
0000
0100
0000
0000
0000
0010
1000
,
0100
0000
1000
0000
0001
0000
0010
0001
,
1000
0000
0010
0000
0000
0000
0100
0010
,
0100
0000
0110
0000
0000
0000
0001
0100
,
0001
0000
0101
0000
0000
0000
1000
0100
,
1000
0000
1100
0000
1000
0000
0010
1000
,
0010
0000
1010
0000
0100
0010
0100
0010
,
0100
0000
0000
0000
0001
0100
0001
0100
,
0001
0000
0000
0000
1000
0100
1000
0000
,
0010
1000
0001
0100
,
0010
1000
0001
0220
,
0000
0000
0000
0000
,
0000
0330
0000
2002
,
0000
0000
0000
0000
,
0000
3003
0000
0200
,
0000
0000
0320
0000
,
0000
0000
2030
0000
,
3002
0000
2003
0000
,
3200
0000
0310
0001
,
0100
0000
0010
1000
0000
1000
0000
0100
,
1000
0010
0100
0001
,
1000
0001
0010
0000
,
0001
0010
0001
0000
1000
0001
1000
0000
,
0100
1000
0100
0000
1000
0000
0000
0000
,
0010
0100
0010
0000
1000
0100
1000
0000
,
0001
1000
0010
0100
,
0110
0000
0101
0000
,
1000
0001
1000
0001
0100
0000
0000
0000
,
1010
0000
0000
0000
0010
0100
0010
0100
,
0010
1000
0100
1000
0001
0000
0000
0000
,
0000
0000
0000
0000
,
0000
0000
1000
0000
,
0000
0000
0010
0000
,
0100
0000
2002
0000
,
0000
0000
0000
0000
,
0000
0000
0000
0000
,
3003
0000
0000
0000
;

//---------------dance-single - ----------------
#NOTES:
     dance-single:
     :
     Hard:
     8:
     0.467,0.484,0.201,0.036,0.068: // measure 1
0000
0000
0000
0000
,  // measure 2
0000
0000
0000
0000
0000
0000
0010
1000
,  // measure 3
0001
0000
0100
0000
0010
0000
1000
0100
0000
0010
0000
0000
0100
0000
1000
0000
,  // measure 4
0010
0000
1000
0000
0001
0000
0010
0001
0000
0100
0000
0000
1010
0000
0000
0000
,  // measure 5
1000
0000
0001
1000
0100
0010
0000
0001
,  // measure 6
0000
0101
0100
0000
0010
0000
1000
0001
,  // measure 7
1000
0100
0000
0000
1000
0000
0010
0100
,  // measure 8
0000
0110
0100
0010
1000
0000
0001
1000
,  // measure 9
0100
0000
1000
0001
0100
0010
0000
1000
,  // measure 10
0000
1100
1000
0010
0100
0000
0001
0010
,  // measure 11
0100
0000
0010
0001
1000
0010
0000
1010
,  // measure 12
0000
0101
0100
0000
0010
0000
1000
0001
,  // measure 13
1000
0100
0000
0010
0001
0100
0010
0000
,  // measure 14
1000
0000
0100
0000
1000
0010
0100
0010
,  // measure 15
1000
0000
0001
0000
1000
0001
0100
0000
,  // measure 16
0101
0000
1100
0000
0010
1000
0001
1000
,  // measure 17
0100
0010
0001
0000
0100
0001
1000
0000
,  // measure 18
1001
0000
0110
0000
0101
0000
1000
0001
,  // measure 19
0100
1000
0100
0001
0010
1000
0010
0000
,  // measure 20
0001
0000
1000
0000
0001
0100
0001
0010
,  // measure 21
0100
0010
0001
0000
1000
0000
0010
0000
,  // measure 22
0100
0010
0100
0010
1000
0000
0001
0000
,  // measure 23
1000
0100
0010
0000
0011
0000
1100
0000
,  // measure 24
1000
0001
0100
0010
1000
0100
1000
0000
,  // measure 25
0010
1000
0001
0000
1100
0000
0011
0000
,  // measure 26
1001
0000
0100
0001
0100
1000
0100
0010
,  // measure 27
1000
0000
1010
0000
0001
0000
1000
0001
,  // measure 28
0100
0010
0000
0100
0000
0101
0100
0000
,  // measure 29
0010
0000
1000
0001
1000
0100
0000
0000
,  // measure 30
0010
0000
0001
1000
0000
1100
1000
0010
,  // measure 31
0100
0000
0010
1000
0001
0000
0010
0001
,  // measure 32
1000
0010
0000
0100
0000
0101
0100
0010
,  // measure 33
1000
0000
0001
1000
0100
0000
0010
0001
,  // measure 34
1000
0000
0010
0000
0000
0000
0010
0000
0100
0000
0010
1000
0010
0000
1000
0000
,  // measure 35
0001
0000
0000
0000
1100
0000
0000
0000
1000
0000
0010
0100
0010
0000
1000
0000
,  // measure 36
0001
0000
0000
0000
1100
0000
0000
0000
0010
0000
0001
1000
0001
0000
0100
0000
,  // measure 37
0010
1000
0100
0010
0001
1000
0010
0001
,  // measure 38
0010
0000
1000
0000
0001
0000
0000
0000
0100
0010
0100
0010
0100
0000
0001
0000
,  // measure 39
1000
0000
0000
0000
1010
0000
0000
0000
0100
0000
0010
0100
0010
0000
0100
0000
,  // measure 40
0001
0000
0000
0000
0101
0000
0000
0000
0100
0000
0010
1000
0010
0000
1000
0000
,  // measure 41
0100
1000
0001
0010
1000
0010
0001
1000
,  // measure 42
0010
0000
0100
0000
0001
0000
0000
0000
1000
0001
1000
0001
1000
0000
0010
0000
,  // measure 43
0100
0000
0001
0000
1000
0000
0000
0000
0010
0100
0010
0100
0010
0000
1000
0000
,  // measure 44
0001
0000
0010
0000
0100
0000
0000
0000
0010
0001
0010
0001
0010
0000
0001
0000
,  // measure 45
0100
0010
1000
0001
1000
0100
0010
0001
,  // measure 46
1000
0000
0010
0000
0100
0000
0001
0000
1000
0001
1000
0001
2000
0000
0100
0000
,  // measure 47
0000
0100
0100
0100
0000
0100
0100
0100
,  // measure 48
0000
0000
0100
0000
0100
0000
0100
3000
1100
0000
0000
0000
0002
0000
0100
0000
,  // measure 49
0000
0100
0100
0100
0000
0100
0100
0100
,  // measure 50
0000
0100
0100
0103
0101
0000
0010
1000
,  // measure 51
0001
1000
0100
0010
0001
0100
0010
0100
,  // measure 52
0001
0010
0100
1000
0010
1000
0001
0100
,  // measure 53
1000
0100
0010
1000
0100
0010
0001
1000
,  // measure 54
0010
1000
0001
0100
0101
0001
1000
0000
,  // measure 55
0010
1000
0001
0100
0000
0010
1000
0001
,  // measure 56
1000
0010
0100
0000
0001
0010
1000
0010
,  // measure 57
0001
1000
0010
0100
0001
1000
0100
0000
,  // measure 58
1000
0010
0100
0000
0001
0010
0100
0000
,  // measure 59
1000
0001
1000
0010
0100
0001
1000
0000
,  // measure 60
0010
0100
0001
0000
0010
0100
1000
0000
,  // measure 61
0001
1000
0010
0100
0001
1000
0001
0000
,  // measure 62
0100
0010
1000
0100
0001
1000
0010
0100
,  // measure 63
0001
0010
1000
0010
0001
1000
0010
0100
,  // measure 64
0001
0100
1000
0010
1000
0001
0010
0100
,  // measure 65
1000
0001
0100
0001
2001
0000
0000
0000
,  // measure 66
0000
0000
0000
0000
,  // measure 67
0000
0000
3002
0000
,  // measure 68
0000
0000
0000
0000
,  // measure 69
0000
0000
0200
0000
,  // measure 70
0000
0000
0000
0000
,  // measure 71
0000
0000
0000
0000
,  // measure 72
0303
0000
0000
0000
;

//---------------dance-single - ----------------
#NOTES:
     dance-single:
     :
     Easy:
     4:
     0.223,0.255,0.086,0.101,0.000:
0000
0000
0000
0000
,
0000
0000
0000
0000
,
0001
0100
0000
0010
,
1000
0100
0000
0010
,
0000
0001
0100
0010
,
1000
0001
0000
1000
,
0100
1000
0000
0010
,
0100
0010
1000
0001
,
0010
0001
0000
0100
,
0001
1000
0100
0010
,
0000
0001
0010
0100
,
0000
1001
0000
0100
,
0010
0100
0001
1000
,
0000
0100
0000
1000
,
0000
0001
0010
0001
,
0100
0010
1000
0100
,
0010
0100
1000
0010
,
0100
0010
1000
0001
,
0010
0100
1000
0100
,
0000
1000
0000
0010
,
0100
0001
0000
0010
,
0000
0001
0000
1000
,
0010
0100
0010
1000
,
0001
0010
0100
0010
,
0001
1000
0010
0100
,
0010
1000
0100
1000
,
0001
0100
0000
0010
,
0100
0001
0010
0100
,
0000
0010
0000
0001
,
1000
0100
1000
0010
,
0000
1000
0000
0010
,
0100
0001
0000
0010
,
0001
1000
0100
0010
,
0001
0000
1000
0000
0000
0000
0010
0100
,
0010
0000
0100
0000
0000
0000
0001
0100
,
0001
0100
0000
0010
,
1000
0001
0010
0100
,
1000
0000
0010
0000
0000
0000
1000
0100
,
1000
0000
0100
0000
0000
0000
1000
0001
,
1000
0001
0000
0010
,
0001
0100
0010
1000
,
0100
0000
0010
0000
0000
0000
0001
1000
,
0001
0000
1000
0000
0000
0000
0010
0100
,
0010
0100
0000
0010
,
0100
0001
0010
0100
,
1000
0010
0100
0220
,
0000
0000
0000
0000
,
0330
0000
0000
2002
,
0000
0000
0000
0000
,
0000
3003
0000
0200
,
0000
0000
2300
0000
,
0000
0000
3002
0000
,
0023
0000
0230
0000
,
2300
0000
3010
0100
,
0001
1000
0100
1000
,
0001
0000
1000
0010
,
0100
0000
0001
0010
,
0001
1000
0100
0010
,
0001
1000
0001
0000
,
0100
0010
0100
0000
,
0001
0100
0001
0000
,
1001
0000
1001
0000
,
1001
0000
0110
0000
,
0110
0000
0110
0000
,
0110
0000
2002
0000
,
0000
0000
0000
0000
,
0000
0000
0000
0000
,
0000
0000
3003
0000
,
0000
0000
0220
0000
,
0000
0000
0000
0000
,
0000
0000
0000
0000
,
0330
0000
0000
0000
;
