#TITLE:Bohemian Like You;
#SUBTITLE:;
#ARTIST:The Dandy Warhols;
#TITLETRANSLIT:;
#SUBTITLETRANSLIT:;
#ARTISTTRANSLIT:;
#CREDIT:;
#BANNER:Bohemian Like You-bn.png;
#BACKGROUND:Bohemian Like You-bg.png;
#LYRICSPATH:;
#CDTITLE:;
#MUSIC:Bohemian Like You.mp3;
#OFFSET:-0.320;
#SAMPLESTART:59.767;
#SAMPLELENGTH:14.120;
#SELECTABLE:YES;
#BPMS:0.000=131.250,208.000=126.830;
#DISPLAYBPM:131.000;
#STOPS:;
#BGCHANGES:0.000=Bohemian Like You.avi=1.000=1=1=0,
99999=-nosongbg-=1.000=0=0=0 // don't automatically add -songbackground-
;

//---------------dance-single - ----------------
#NOTES:
     dance-single:
     :
     Beginner:
     1:
     0.102,0.156,0.039,0.000,0.000: // measure 1
0000
0000
0000
0000
,  // measure 2
0000
0000
0000
0000
,  // measure 3
0000
0000
0000
0000
,  // measure 4
0000
0000
0000
0000
,  // measure 5
0010
0000
0000
0000
,  // measure 6
1000
0000
0000
0000
,  // measure 7
0001
0000
0000
0000
,  // measure 8
1000
0000
0000
0000
,  // measure 9
0100
0000
0100
0000
,  // measure 10
0100
0000
0100
0000
,  // measure 11
0100
0000
0100
0000
,  // measure 12
0100
0000
0100
0000
,  // measure 13
0100
0000
0000
0000
,  // measure 14
0010
0000
0000
0000
,  // measure 15
1000
0000
0000
0000
,  // measure 16
1000
0000
0000
0000
,  // measure 17
0001
0000
0000
0000
,  // measure 18
0010
0000
0000
0000
,  // measure 19
0001
0000
0000
0000
,  // measure 20
0001
0000
0000
0000
,  // measure 21
0010
0000
0010
0000
,  // measure 22
0010
0000
0010
0000
,  // measure 23
0010
0000
0010
0000
,  // measure 24
0010
0000
0010
0000
,  // measure 25
0010
0000
0000
0000
,  // measure 26
1000
0000
0000
0000
,  // measure 27
0100
0000
0000
0000
,  // measure 28
0100
0000
0000
0000
,  // measure 29
0001
0000
0000
0000
,  // measure 30
1000
0000
0000
0000
,  // measure 31
0010
0000
0000
0000
,  // measure 32
0010
0000
0000
0000
,  // measure 33
1001
0000
0000
0000
,  // measure 34
0010
0010
0000
0000
,  // measure 35
0100
0100
0000
0000
,  // measure 36
1000
1000
0000
0000
,  // measure 37
0001
0001
0000
0000
,  // measure 38
1000
1000
0000
0000
,  // measure 39
0010
0010
0000
0000
,  // measure 40
0100
0000
0100
0000
,  // measure 41
0110
0000
0000
0000
,  // measure 42
0001
0000
0001
0000
,  // measure 43
0001
0000
0000
0000
,  // measure 44
1000
0000
1000
0000
,  // measure 45
1000
0000
0000
0000
,  // measure 46
0100
0000
0100
0000
,  // measure 47
0100
0000
0000
0000
,  // measure 48
0010
0000
0010
0000
,  // measure 49
0010
0000
0000
0000
,  // measure 50
1000
0000
0000
0000
,  // measure 51
0001
0000
0000
0000
,  // measure 52
0100
0000
0000
0000
,  // measure 53
1001
0000
0000
0000
,  // measure 54
0110
0000
0000
0000
;

//---------------dance-single - ----------------
#NOTES:
     dance-single:
     :
     Medium:
     5:
     0.320,0.363,0.059,0.157,0.000:
0000
0000
0000
0000
,
0000
0000
0000
0000
,
0000
0000
0000
0000
,
0000
0000
0000
0000
,
0010
0000
1000
0000
0001
1000
0000
0000
,
0010
0000
0100
0000
0001
0100
0000
0000
,
0010
0000
1000
0000
0001
1000
0000
0000
,
0100
0000
1000
0000
0100
1000
0000
0000
,
0001
0100
0001
0100
0000
0000
0000
0000
,
0010
1000
0010
1000
0000
0000
0000
0000
,
0100
0010
0100
0010
0000
0000
0000
0000
,
0001
0100
0001
0100
0000
0000
0000
0000
,
1001
0100
1000
0010
,
1000
0001
0100
0010
,
0100
0001
0100
0000
0010
0000
1000
0000
,
0100
1000
0100
0000
1000
0001
0100
0000
,
0020
0030
0100
0001
,
1000
0100
1000
0010
,
0100
0010
0100
0000
0001
0000
1000
0000
,
0100
1000
0001
0000
0010
0001
0100
0000
,
0010
0100
0010
0100
0000
0000
0000
0000
,
0001
1000
0001
1000
0000
0000
0000
0000
,
1000
0100
1000
0100
0000
0000
0000
0000
,
0010
0001
0010
0001
0000
0000
0000
0000
,
0101
0100
0010
1000
,
0001
1000
0100
0010
,
0001
1000
0001
0000
0100
0010
0100
0000
,
0001
0100
0010
0000
1000
0001
1000
0000
,
1010
0000
0001
1000
,
0010
1000
0010
1000
0010
0000
0100
0000
,
0001
0100
0001
0000
1000
0001
1000
0000
,
0100
1000
0010
0000
0100
0001
0010
0000
,
2002
0000
3003
0000
0000
0010
0100
0002
,
0000
2000
0000
3003
0000
0010
1000
0200
,
0000
2000
0000
3300
0000
0010
0100
0002
,
0000
0000
0103
0000
0010
0000
1000
0020
,
0000
2000
0000
3030
0000
0010
1000
0002
,
0000
2000
0000
3003
0000
0010
1000
0200
,
0000
2000
0000
3300
0000
0010
1000
0001
,
0000
0000
0100
0100
0000
0000
1001
0000
,
0010
0000
1000
0000
0100
0100
0000
0000
,
1000
0000
0001
0000
0100
0100
0000
0000
,
0001
0000
1000
0000
0010
0010
0000
0000
,
0100
0000
0001
0000
1000
1000
0000
0000
,
0100
0000
1000
0000
0001
0001
0000
0000
,
0010
0000
0001
0000
0010
0010
0000
0000
,
0001
0000
1000
0000
0100
0100
0000
0000
,
1000
0000
0010
0000
0100
0100
0000
0000
,
0001
1000
0001
0100
0000
0000
0000
0000
,
1000
0001
1000
0100
0000
0000
0000
0000
,
0010
0100
0010
1000
0000
0000
0000
0000
,
0100
0010
0100
0001
0000
0000
0000
0000
,
0202
0000
0000
0300
,
1003
0000
0000
0000
;

//---------------dance-single - ----------------
#NOTES:
     dance-single:
     :
     Hard:
     7:
     0.485,0.467,0.186,0.068,0.005:
0000
0000
0000
0000
,
0000
0000
0000
0000
,
0000
0000
0000
0000
,
0010
1000
0100
1000
0001
0010
0100
1000
,
0010
0000
1000
0100
1000
0001
0000
0100
,
0000
0100
0010
1000
0001
1000
0000
0100
,
0000
0000
0100
0000
0010
0000
0001
0000
0010
0000
0100
0000
0000
0000
1000
0001
,
1000
0010
0100
0001
0100
0010
1000
0000
,
0010
0100
0001
1000
0000
0010
0010
0010
,
1000
0100
0010
0001
0000
1000
1000
1000
,
0010
0100
0001
1000
0000
0100
0100
0100
,
1000
0001
0100
0010
0100
0001
1000
0000
,
2100
0000
3001
0000
1000
0000
0010
0100
,
0010
1000
0100
1000
0001
0000
0010
0001
,
0100
0010
0100
0001
1000
0100
0100
1000
,
1000
0010
0100
0001
0100
1000
0010
0100
,
0002
0000
0103
0000
0010
0000
1000
0001
,
0000
1000
0000
2010
0000
3000
0000
0010
,
1000
0100
1000
0001
0100
0000
0010
0100
,
0001
0001
1000
1000
0100
0010
0001
1000
,
0010
0100
0001
1000
0000
0100
0100
0100
,
1000
0100
0010
0001
0000
1000
1000
1000
,
0001
0010
0001
0100
0000
0010
0010
0010
,
0100
0001
0100
0010
1000
0100
1000
0001
,
0200
0000
0301
0000
0010
0000
1000
0100
,
1000
0001
0100
0010
1000
0000
0010
1000
,
0001
0001
1000
1000
0100
0000
1000
0010
,
0100
0100
0001
0001
1000
0100
0010
0001
,
2000
0000
3010
0000
0100
0000
0001
1000
,
0001
0100
0000
0110
0000
0000
0001
0100
,
0010
0010
0100
0100
0001
1000
0100
0010
,
0001
0001
1000
1000
0010
1000
0001
0100
,
0101
0000
0000
0000
0010
1000
0100
1100
,
0000
1001
0000
0000
0010
1000
0001
0101
,
0000
1001
0000
0000
0010
1000
0100
1200
,
0000
1300
0010
0010
0100
0100
0001
0101
,
0000
1001
0000
0000
0010
1000
0001
1001
,
0000
0110
0000
0000
0001
0010
0100
0110
,
0000
0011
0000
0000
0100
0001
1000
1001
,
0000
0000
0110
0110
0000
0000
1001
0000
,
0010
1000
0100
1000
0001
0100
0010
1000
,
0001
1000
0010
0000
0100
0010
0100
0001
,
0100
1000
0100
0000
0010
1000
0100
1000
,
0001
0010
0100
0000
0010
0001
0010
0100
,
0010
1000
0010
0000
0001
1000
0100
1000
,
0001
0100
0010
0000
1000
0100
0010
0001
,
0100
0001
1000
0000
0010
1000
0001
1000
,
0010
0100
0001
0000
0010
0001
0100
0000
,
0010
0100
0001
1000
0000
0010
0010
0010
,
1000
0100
0010
0001
0000
1000
1000
1000
,
0001
0010
0100
1000
0000
0001
0001
0001
,
1000
0010
0100
0001
0000
1000
1000
1000
,
0020
0000
0000
0000
,
0130
0000
0000
0000
;

//---------------dance-single - ----------------
#NOTES:
     dance-single:
     :
     Easy:
     3:
     0.228,0.259,0.020,0.137,0.000:
0000
0000
0000
0000
,
0000
0000
0000
0000
,
0000
0000
0000
0000
,
0000
0000
0000
0000
,
0010
1000
0001
0000
,
1000
0100
0010
0000
,
0001
1000
0001
0000
,
1000
0010
0100
0000
,
0001
0001
0002
0003
,
1000
1000
2000
3000
,
0010
0010
0020
0030
,
0100
0100
0200
0300
,
0010
1000
0001
0000
,
1000
0001
0100
0000
,
0010
1000
0100
0010
,
0001
1000
0010
0100
,
0001
0000
1000
0000
,
0010
1000
0010
0000
,
1000
0100
1000
0010
,
0100
0001
0100
0000
,
0010
0010
0020
0030
,
1000
1000
2000
3000
,
0001
0001
0002
0003
,
0100
0100
0200
0300
,
0010
1000
0100
0000
,
1000
0001
1000
0000
,
0010
0100
0001
1000
,
0001
0010
0100
0000
,
1000
0000
0010
0000
,
1000
0001
0100
0000
,
0010
0100
0001
0010
,
0100
1000
0010
0000
,
1001
0000
0000
0000
0000
0000
0000
0010
,
0000
0010
0000
0000
0000
0000
0000
0100
,
0000
0100
0000
0000
0000
0000
0000
0001
,
0000
0001
1000
0010
,
0100
0000
0000
0000
0000
0000
0000
0010
,
0000
0010
0000
0000
0000
0000
0000
1000
,
0000
1000
0000
0000
0000
0000
0000
0000
,
0100
0000
0100
0100
0000
0000
0100
0000
,
0010
0001
1000
0000
,
1000
0001
0100
0100
,
0010
1000
0001
0000
,
1000
0001
0010
0010
,
0001
1000
0100
0000
,
1000
0100
1000
1000
,
0010
0100
0001
0000
,
1000
0001
0010
0010
,
0001
0001
0002
0003
,
1000
1000
2000
3000
,
0100
0100
0200
0300
,
1000
1000
2000
3000
,
2002
0000
0000
0003
,
3001
0000
0000
0000
;
