#TITLE:All Right Now (Dance Mix);
#SUBTITLE:;
#ARTIST:Axel Force;
#TITLETRANSLIT:;
#SUBTITLETRANSLIT:;
#ARTISTTRANSLIT:;
#CREDIT:;
#BANNER:All Right Now (Dance Mix)-bn.png;
#BACKGROUND:All Right Now (Dance Mix)-bg.png;
#LYRICSPATH:;
#CDTITLE:;
#MUSIC:All Right Now (Dance Mix).mp3;
#OFFSET:-0.020;
#SAMPLESTART:55.667;
#SAMPLELENGTH:14.640;
#SELECTABLE:YES;
#BPMS:0.000=138.000;
#STOPS:31.500=0.010
,127.500=0.010
;
#BGCHANGES:;

//---------------dance-single - ----------------
#NOTES:
     dance-single:
     :
     Beginner:
     1:
     0.098,0.140,0.028,0.000,0.000: // measure 1
0000
0000
0000
0000
,  // measure 2
0000
0000
0000
0000
,  // measure 3
0000
0000
0000
0000
,  // measure 4
0000
0000
0000
0000
,  // measure 5
0010
0000
0000
0000
,  // measure 6
1000
0000
0000
0000
,  // measure 7
0001
0000
0000
0000
,  // measure 8
0100
0000
0000
0000
,  // measure 9
0010
0000
0010
0000
,  // measure 10
0010
0000
0000
0000
,  // measure 11
1000
0000
0000
0000
,  // measure 12
0001
0000
0000
0000
,  // measure 13
1000
0000
1000
0000
,  // measure 14
1000
0000
0000
0000
,  // measure 15
0100
0000
0000
0000
,  // measure 16
0010
0000
0000
0000
,  // measure 17
0001
0000
0000
0000
,  // measure 18
1000
0000
0000
0000
,  // measure 19
0010
0000
0010
0000
,  // measure 20
0010
0000
0000
0000
,  // measure 21
1000
0000
0000
0000
,  // measure 22
0001
0000
0000
0000
,  // measure 23
1000
0000
1000
0000
,  // measure 24
1000
0000
0000
0000
,  // measure 25
1001
0000
0000
0000
,  // measure 26
0100
0000
0000
0000
,  // measure 27
1000
0000
1000
0000
,  // measure 28
1000
0000
0000
0000
,  // measure 29
0010
0000
0000
0000
,  // measure 30
1000
0000
0000
0000
,  // measure 31
0001
0000
0000
0000
,  // measure 32
1000
0000
0000
0000
,  // measure 33
0010
0000
0010
0000
,  // measure 34
0010
0000
0000
0000
,  // measure 35
0100
0000
0100
0000
,  // measure 36
0100
0000
0000
0000
,  // measure 37
0001
0000
0001
0000
,  // measure 38
0001
0000
0000
0000
,  // measure 39
1000
0000
1000
0000
,  // measure 40
1000
0000
0000
0000
,  // measure 41
0010
0000
0000
0000
,  // measure 42
1000
0000
0000
0000
,  // measure 43
0001
0000
0000
0000
,  // measure 44
1000
0000
0000
0000
,  // measure 45
0100
0000
0000
0000
,  // measure 46
0010
0000
0000
0000
,  // measure 47
0001
0000
0000
0000
,  // measure 48
1000
0000
0000
0000
,  // measure 49
1001
0000
0000
0000
,  // measure 50
0100
0100
0000
0000
,  // measure 51
0100
0000
0000
0000
,  // measure 52
0001
0001
0000
0000
,  // measure 53
0001
0000
0000
0000
,  // measure 54
1000
1000
0000
0000
,  // measure 55
1000
0000
0000
0000
,  // measure 56
0010
0010
0000
0000
,  // measure 57
0010
0000
0000
0000
,  // measure 58
1000
0000
0000
0000
,  // measure 59
0001
0000
0000
0000
,  // measure 60
1000
0000
0000
0000
,  // measure 61
1001
0000
0000
0000
;

//---------------dance-single - ----------------
#NOTES:
     dance-single:
     :
     Medium:
     5:
     0.345,0.423,0.281,0.206,0.000:
0000
0000
0000
0000
,
0000
0000
0000
0000
,
0000
0000
0000
0000
,
0000
0000
0000
0000
,
0001
1000
0010
0100
,
0001
1000
0010
0100
,
0001
1000
0001
1000
0001
1000
0001
0000
,
0100
0010
0100
0010
0100
0010
0100
0000
,
1000
0000
0001
0000
1000
0100
1000
0000
,
0020
0030
0020
0030
,
1000
0000
0010
0000
1000
0001
1000
0000
,
0002
0003
0002
0003
,
1000
0000
0001
0000
0010
0001
0010
0000
,
0200
0300
0200
0300
,
0010
0000
0001
0000
0100
0001
0100
0000
,
0020
0030
0020
0030
,
2002
0000
3003
0000
0000
0100
0010
0000
,
2002
3003
0000
0000
,
0010
1000
0001
0100
,
0010
0000
0000
0000
,
2002
0000
3003
0000
0000
0100
0010
0000
,
2002
3003
0000
0000
,
0010
1000
0001
0100
,
0010
0000
0000
0000
,
1000
1100
0000
1000
,
0001
0100
0000
0010
,
0100
0001
1000
0100
,
1000
0000
0000
0000
,
0001
0101
0000
0001
,
1000
0100
0000
1000
,
0010
0100
0010
1000
,
0001
1000
0100
0000
,
1001
1001
0110
0110
,
1001
0010
1000
0001
,
1001
1001
0110
0110
,
1001
0000
0000
0000
,
0110
0110
1001
1001
,
0110
0001
1000
0010
,
0110
0110
1001
1001
,
0110
0000
0100
0000
0001
1000
0001
0000
,
1000
0000
0100
0000
1000
0001
1000
0000
,
0020
0030
0020
0030
,
0100
0000
0010
0000
1000
0100
1000
0000
,
0002
0003
0002
0003
,
0010
0000
0001
0000
0100
0010
0100
0000
,
0020
0030
0020
0030
,
0100
0000
0001
0000
0010
0100
0010
0000
,
1001
1001
0110
0110
,
0001
0000
0100
0000
1000
0100
0001
0000
,
1000
0000
0010
1000
,
0001
0000
0100
0000
0010
1000
0100
0000
,
1000
0000
0010
1000
,
0001
0000
0010
0000
0100
0010
0001
0000
,
0100
0000
0010
0100
,
0001
0000
0010
0000
0100
1000
0010
0000
,
1000
0000
0010
1000
,
0001
1000
0010
0100
,
0001
0000
1000
0000
0010
0100
0010
0000
,
0100
0010
1000
0001
,
1000
0100
1000
0000
0001
1000
0001
0000
,
1000
0100
1000
0000
0000
0000
0000
0000
;

//---------------dance-single - ----------------
#NOTES:
     dance-single:
     :
     Hard:
     9:
     0.604,0.706,0.477,0.168,0.196:
0000
0000
0000
0000
,
0000
0000
0000
0000
,
0000
0000
0000
0000
,
0000
0000
0000
0000
,
0010
1001
0100
0101
,
1000
1100
0001
1001
,
0100
0010
0100
0010
1000
0001
1000
0001
,
0100
0001
0100
0001
1000
0100
1000
0100
,
1000
0000
0001
0000
1000
0000
0001
1000
0000
1000
0001
0000
1000
0000
0001
0000
,
0101
0000
1100
0000
0010
1000
0001
0000
,
1000
0000
0001
0000
1000
0000
0001
1000
0000
1000
0001
0000
1000
0000
0001
0000
,
1100
0000
0101
0000
0010
1000
0001
0000
,
0100
0000
0010
0000
0100
0000
0010
0100
0000
0100
0010
0000
0100
0000
0010
0000
,
0110
0000
1001
0000
1000
0001
0100
0000
,
0010
0000
0100
0000
0010
0000
0100
0010
0000
0010
0100
0000
0010
0000
0100
0000
,
0110
0101
1100
1001
,
0210
0000
0000
0000
0010
0300
0000
0000
0001
0000
0100
0000
1000
0000
0000
0000
,
0210
0000
0310
0000
0001
0100
1000
0000
,
0100
0010
0100
0001
0100
1000
0100
0010
,
0100
0000
0010
0000
1000
0100
0010
0000
,
2001
0000
3100
0000
1000
0001
0100
0000
,
2001
0000
3100
0000
1000
0001
0100
0000
,
0010
1000
0010
0001
0010
1000
0010
0100
,
0010
0000
0000
0000
1000
0000
0000
0000
0100
0000
0000
1000
0001
0000
0100
0000
,
0101
0101
1001
0000
0100
1000
0001
1000
,
0001
0100
0010
0000
1000
0001
1000
0000
,
0010
0000
0100
0010
0000
0000
1000
0000
0100
0000
1000
0100
0000
0000
1000
0000
,
0001
0000
1000
0000
0000
0010
0100
0010
,
0210
0000
0310
0000
0000
0001
1000
0000
,
2001
0000
3001
0000
0000
1000
0001
0100
,
0010
1000
0100
0001
1000
0010
0100
0001
,
1000
0001
1000
0001
1000
0001
1000
0001
0100
0010
0100
0010
0100
0010
0100
0000
,
0102
0000
0103
0010
2010
0000
3001
1000
,
1002
0000
0103
0010
1000
0010
0100
0001
,
2001
0000
3100
0010
0120
0000
0130
1000
,
1002
0000
0103
0010
1000
0001
1000
0000
,
2010
0000
3010
0100
0102
0000
1003
0001
,
2001
0000
3010
0100
0001
0100
0010
1000
,
1002
0000
0013
0100
0210
0000
0310
0001
,
2001
0000
3010
0100
0001
1000
0001
0000
,
1000
0000
0010
0000
1000
0000
0010
1000
0000
1000
0010
0000
1000
0000
0010
0000
,
1010
0000
1001
0000
0100
0010
1000
0000
,
0001
0000
0100
0000
0001
0000
0100
0001
0000
0001
0100
0000
0001
0000
0100
0000
,
0101
0000
1100
0000
0010
1000
0001
0000
,
0100
0000
0010
0000
1000
0000
0001
0100
0000
0010
1000
0000
0001
0000
0100
0000
,
0110
0000
0101
0000
1000
0100
0010
0000
,
0001
0000
0010
0000
0100
0000
1000
0001
0000
0010
0100
0000
1000
0000
0001
0000
,
0010
0001
0010
0001
0010
0000
0000
0001
0100
0000
0010
0000
1000
0100
1000
0000
,
1001
0000
0100
0000
0010
1000
1010
0000
,
1001
0000
0100
0000
0010
1000
0100
0000
,
1000
0001
0100
1000
0100
0001
1001
0000
,
1100
0000
1000
0000
0010
0100
0001
0000
,
1001
0000
0000
0000
0010
1000
1100
0000
,
1001
0000
1000
0001
0100
0010
1000
0000
,
0010
1000
0001
0010
0100
0010
0110
0000
,
0011
0000
1000
0001
0100
0010
1000
0000
,
0001
0000
0001
0000
1000
0000
0100
0010
0100
0000
1000
0100
1000
0000
0000
0000
,
0010
0000
1000
0001
1000
0000
0000
0000
0010
0001
0010
0001
0010
0000
0000
0000
,
0001
0000
1000
0001
1000
0000
0000
0000
0100
0000
0010
0100
0010
0000
0000
0000
,
1000
0000
0001
1000
0001
0000
0100
0000
0010
1000
0010
1000
0010
0000
0000
1000
,
0001
0000
0100
0000
0010
1000
0010
0000
0000
0000
0000
0000
0000
0000
0000
0000
;

//---------------dance-single - ----------------
#NOTES:
     dance-single:
     :
     Easy:
     3:
     0.207,0.282,0.187,0.084,0.000:
0000
0000
0000
0000
,
0000
0000
0000
0000
,
0000
0000
0000
0000
,
0000
0000
0000
0000
,
0010
0000
1000
0000
,
0001
0000
1000
0000
,
0001
0010
0100
1000
,
0001
0010
0100
1000
,
0100
0000
1000
0000
,
0010
0100
0010
0000
,
1000
0000
0001
0000
,
1000
0100
1000
0000
,
0010
0000
1000
0000
,
0001
1000
0001
0000
,
0100
0000
0001
0000
,
0010
0100
0010
0100
,
0110
0000
0000
0001
,
1001
0000
0000
0000
,
1000
0000
0010
0000
,
0100
0000
0000
0000
,
1001
0000
0000
0100
,
0110
0000
0000
0000
,
0010
0000
1000
0000
,
0001
0000
0000
0000
,
1000
0001
0000
0000
,
0001
1000
0000
0000
,
0010
1000
0100
0000
,
1000
0001
0100
0000
,
0010
0100
0000
0000
,
0100
0010
0000
0000
,
0010
1000
0001
1000
,
0100
0000
0000
0000
,
1001
0000
1001
0000
,
1001
0000
0100
0010
,
0110
0000
0110
0000
,
0110
0000
0000
0000
,
1001
0000
1001
0000
,
1001
0000
0100
0010
,
0110
0000
0110
0000
,
0110
0000
0000
0000
,
0001
0000
1000
0000
,
0100
1000
0100
0000
,
1000
0000
0010
0000
,
1000
0001
1000
0000
,
0001
0000
0010
0000
,
0001
0100
0001
0000
,
1001
0000
1001
0000
,
0110
0000
0110
0000
,
1000
0000
0100
1000
,
0001
0000
0000
0000
,
0100
0010
0010
0010
,
0100
0000
0000
0000
,
0010
0000
1000
0001
,
0100
0000
0000
0000
,
0001
1000
1000
1000
,
0001
0000
0000
0000
,
2000
3000
0002
0003
,
2000
3000
0002
0003
,
2000
3000
0002
0003
,
2000
3000
0020
0030
,
0020
0030
0000
0000
;
