#TITLE:Accidentally In Love;
#SUBTITLE:;
#ARTIST:Counting Crows;
#TITLETRANSLIT:;
#SUBTITLETRANSLIT:;
#ARTISTTRANSLIT:;
#CREDIT:;
#BANNER:Accidentally in Love-bn.png;
#BACKGROUND:Accidentally in Love-bg.png;
#LYRICSPATH:;
#CDTITLE:;
#MUSIC:Accidentally in Love.mp3;
#OFFSET:-0.760;
#SAMPLESTART:42.420;
#SAMPLELENGTH:14.360;
#SELECTABLE:YES;
#BPMS:0.000=138.060;
#STOPS:211.000=-0.010
;
#BGCHANGES:-1.750=Accidentally In Love DDR Cut.avi=1.000=1=1=0,
99999=-nosongbg-=1.000=0=0=0 // don't automatically add -songbackground-
;

//---------------dance-single - ----------------
#NOTES:
     dance-single:
     :
     Beginner:
     1:
     0.096,0.158,0.044,0.000,0.000: // measure 1
0010
0000
0000
0000
,  // measure 2
1000
0000
0000
0000
,  // measure 3
0010
0000
0000
0000
,  // measure 4
0001
0000
0000
0000
,  // measure 5
0010
0000
0000
0000
,  // measure 6
0100
0000
0000
0000
,  // measure 7
0001
0000
0000
0000
,  // measure 8
1000
0000
0000
0000
,  // measure 9
0100
0000
0000
0000
,  // measure 10
0010
0000
0010
0000
,  // measure 11
0010
0000
0000
0000
,  // measure 12
0001
0000
0001
0000
,  // measure 13
0001
0000
0000
0000
,  // measure 14
0000
1001
0000
0000
,  // measure 15
0000
0000
0000
0000
,  // measure 16
1000
1000
1000
0000
,  // measure 17
1000
0000
0000
0000
,  // measure 18
0010
0000
0000
0000
,  // measure 19
0100
0000
0000
0000
,  // measure 20
0010
0000
0000
0000
,  // measure 21
0000
0110
0000
0000
,  // measure 22
0000
0000
0000
0000
,  // measure 23
0001
0001
0001
0000
,  // measure 24
0001
0000
0000
0000
,  // measure 25
0100
0000
0100
0000
,  // measure 26
0000
0000
0000
0000
,  // measure 27
1000
0000
1000
0000
,  // measure 28
0000
0000
0000
0000
,  // measure 29
0001
0000
0001
0000
,  // measure 30
0000
0000
0000
0000
,  // measure 31
1001
0000
0000
0000
,  // measure 32
0000
0000
0000
0000
,  // measure 33
0110
0000
0000
0000
,  // measure 34
0000
0000
0000
0000
,  // measure 35
0001
0000
0001
0000
,  // measure 36
0001
0000
0000
0000
,  // measure 37
1000
0000
0000
0000
,  // measure 38
0100
0000
0000
0000
,  // measure 39
1000
0000
0000
0000
,  // measure 40
0010
0000
0000
0000
,  // measure 41
0100
0100
0100
0100
,  // measure 42
0100
0000
0000
0000
,  // measure 43
0010
0000
0000
0000
,  // measure 44
0001
0000
0001
0000
,  // measure 45
0001
0000
0000
0000
,  // measure 46
1000
0000
0000
0000
,  // measure 47
0100
0000
0000
0000
,  // measure 48
1000
0000
1000
0000
,  // measure 49
1000
0000
0000
0000
,  // measure 50
0010
0000
0010
0000
,  // measure 51
0010
0000
0010
0000
,  // measure 52
0010
0000
0000
0000
,  // measure 53
0100
0000
0000
0000
,  // measure 54
1001
0000
0000
0000
,  // measure 55
0010
0000
0000
0000
,  // measure 56
0100
0000
0100
0000
,  // measure 57
0000
0000
0000
0000
,  // measure 58
0001
0000
0001
0000
,  // measure 59
0000
0000
0000
0000
,  // measure 60
1000
0000
1000
0000
,  // measure 61
1000
0000
0000
0000
;

//---------------dance-single - ----------------
#NOTES:
     dance-single:
     :
     Medium:
     5:
     0.382,0.383,0.342,0.175,0.004:
0010
0000
1000
0100
1000
0000
0000
0000
,
0010
0000
1000
0001
1000
0000
0000
0000
,
0001
0000
0010
0001
0010
0000
0000
0000
,
0101
1001
1100
0000
,
0010
0000
1000
0100
1000
0000
0000
0000
,
0010
0000
1000
0001
1000
0000
0000
0000
,
0100
0000
0001
0010
0001
0000
0000
0000
,
0010
0001
0100
0110
,
2010
0000
0000
0000
3000
0010
0010
0010
,
0100
0000
0001
0100
0001
0000
1000
0000
,
1100
1100
0101
0101
,
0000
0000
0010
1000
0010
0000
1000
0000
,
0001
0000
0100
0000
0010
0100
0010
0100
,
0010
0000
0000
0000
0100
0001
0100
0000
,
0010
0000
1000
0000
0100
1000
0100
0000
,
2000
3002
0203
0300
,
0000
0000
0001
1000
0001
0000
0100
0000
,
0110
0110
0101
0101
,
0000
0000
0010
1000
0010
0000
1000
0000
,
0001
0000
1000
0000
0100
0010
0100
0010
,
0100
0000
0000
0000
0010
0001
0010
0000
,
0001
0100
0010
0100
,
0101
1100
0101
1001
,
0020
0000
0230
0000
,
0310
0010
0000
1000
1000
0000
0000
0000
,
0001
1000
0100
0010
,
0001
0001
0000
1000
1000
0000
0000
0000
,
0010
1000
0100
0010
,
0100
0100
0000
0010
0010
0000
0000
0000
,
0001
0100
0010
0100
,
0002
0000
1000
0000
1000
0000
1000
0003
,
2000
0100
0100
3100
,
0110
0000
0000
0011
0000
0000
2002
0000
,
0000
0000
0000
0000
3003
0001
0010
0100
,
1000
0000
0010
0000
0100
0010
0100
0000
,
0101
1100
0101
1100
,
0000
0000
0001
0010
0001
0000
1000
0000
,
0010
0000
0100
0000
0010
1000
0010
1000
,
0010
0000
0000
0000
1000
0100
1000
0000
,
0010
0000
0100
0000
0001
0100
0001
0000
,
0011
1100
0101
1010
,
1001
0000
0000
0000
0000
0000
0010
0100
,
0010
1000
0001
1000
,
1100
1100
1100
1100
,
0010
1000
0010
1000
0010
0100
0010
0100
,
0010
0000
0000
0000
0100
0001
0100
0000
,
0010
0100
0001
0000
,
0010
0000
0001
0000
1000
0100
1000
0010
,
1000
0100
0010
0001
,
0200
0010
0310
0000
,
0002
1000
1003
0000
,
0010
0010
0010
0010
0000
0000
1000
1000
,
1000
1000
0000
0000
1100
0000
1001
0000
,
0010
0100
0000
0001
0100
0000
0000
0000
,
0010
1000
0001
0000
,
1000
0100
0000
0010
0001
0000
0000
0000
,
0100
0010
1000
0000
,
0010
0100
0000
0001
1000
0000
0000
0000
,
0100
1000
0010
0100
,
0202
0303
2200
3300
,
2020
0000
0000
0000
,
3030
0000
0000
0000
0000
0000
0000
0000
0000
0000
0000
0000
0000
2002
0000
0000
0000
0000
0000
0000
0000
0000
0000
0000
0000
0000
0000
0000
0000
0000
0000
0000
,
0000
0000
0000
0000
0000
0000
0000
0000
0000
0000
0000
0000
0000
3003
0000
0000
0000
0000
0000
0000
0000
0000
0000
0000
0000
0000
0000
0000
0000
0000
0000
0000
;

//---------------dance-single - ----------------
#NOTES:
     dance-single:
     :
     Hard:
     8:
     0.563,0.529,0.403,0.114,0.026:
0010
0000
1000
0100
1000
0001
0100
0010
,
1000
0000
0001
1000
0100
0010
0001
0100
,
0001
0000
0010
0001
1000
0010
0100
0010
,
2000
0000
3002
0000
0023
0100
0130
0000
,
0010
0000
0001
0100
0010
0100
0001
1000
,
0100
0000
1000
0010
0001
0010
1000
0100
,
1000
0000
0001
0100
1000
0100
0010
1000
,
0100
0010
0001
1000
0010
0001
0100
1000
,
0020
0000
0000
0000
0000
0100
0100
0130
,
0010
0000
1000
0100
1000
0001
0100
0010
,
0110
0100
0001
0000
1100
0000
0101
0000
,
0010
0000
1000
0001
1000
0100
0010
0001
,
0011
0010
0100
0000
1000
0100
0010
0001
,
0100
0000
1001
0000
0010
0100
0010
1000
,
0100
1000
0001
0010
0001
0100
0010
0000
,
1100
0000
0101
0000
1000
0100
0001
1000
,
0000
0000
0010
0100
0001
0100
0010
1000
,
1100
1000
0001
0000
0110
0000
1001
0000
,
0010
0000
0100
0001
0010
0100
0010
0001
,
1001
1000
0100
0000
1000
0010
0100
0001
,
1000
0000
0110
0000
0001
0100
1000
0010
,
1000
0100
1000
0001
0010
0001
0100
0000
,
1000
0100
0010
0001
0100
0010
1000
0000
,
0001
0100
0010
1000
0100
1000
0001
0000
,
0110
0100
0001
0101
0100
0010
1000
0100
,
1000
0001
0100
0000
0010
0100
0001
0000
,
0011
0010
0001
1001
1000
0001
0100
0010
,
0100
0001
1000
0000
0100
1000
0010
0100
,
0101
0100
0010
1010
1000
0100
1000
0001
,
1000
0100
0010
0000
0001
0010
0100
1000
,
0002
0000
0100
0000
0013
1000
0100
0000
,
2000
0000
0100
0000
3010
0100
0010
1000
,
1001
0000
0100
1010
0000
1000
0001
0000
,
0210
0000
0010
0000
0310
1000
0100
0001
,
0020
0000
0031
1000
0010
1000
0001
0100
,
0010
1000
0100
0000
1100
0000
0101
0000
,
0020
0000
1030
0100
1000
0001
0100
0010
,
1000
0001
1000
0000
0010
0100
0001
0010
,
0100
0000
0110
0000
0010
0001
1000
1000
,
0010
0100
0001
0010
0100
0010
0001
0000
,
0101
0000
1010
0000
0001
0010
1000
0000
,
1010
0000
0000
0000
0001
0010
0001
1000
,
0100
1000
0001
0000
0100
0010
0100
0001
,
0101
1100
0011
1010
,
0100
0010
0100
0001
1000
0100
0010
0001
,
0100
0001
1000
0000
0010
0100
0010
1000
,
0100
1000
0001
0010
0001
1000
0010
0000
,
0100
0000
0001
0000
0100
0000
0000
0000
0010
0000
0000
1000
0000
0000
0100
0000
,
0110
0000
0001
0010
0001
1000
0010
1000
,
0020
0100
1000
0130
,
0002
0010
0100
1003
,
0011
0010
0100
1100
0000
0000
1100
0100
,
0010
0011
0000
0000
0110
0000
1001
0000
,
0110
0010
1000
1010
0010
0100
0001
0010
,
0001
1000
0010
0000
0100
0010
1000
0000
,
1100
0100
1000
1001
0001
1000
0010
0100
,
0010
1000
0001
0000
0010
0001
0100
0010
,
1010
0010
0100
0101
0001
0010
0001
1000
,
0001
0010
0100
0000
1000
0100
0010
0001
,
2000
0000
0010
0000
3100
0001
0010
0000
,
0000
0101
0000
0000
0000
0000
0000
0000
0000
0000
1100
0000
0000
0000
0000
0000
0000
0000
0010
0000
0000
0000
0000
0000
1000
0000
0000
0000
0000
0000
0001
0000
,
0000
0000
0000
0000
0100
0000
0000
0000
0000
0000
0000
0000
0000
0020
0000
0000
0000
0000
0000
0000
0000
0000
0000
0000
0000
0000
0000
0000
0000
0000
0000
0000
,
0000
0000
0000
0000
,
0000
0000
0030
0000
;

//---------------dance-single - ----------------
#NOTES:
     dance-single:
     :
     Easy:
     4:
     0.225,0.246,0.210,0.070,0.000:
0010
0000
1100
0000
,
0010
0000
1001
0000
,
0010
0000
0101
0000
,
0001
1000
0100
0000
,
0010
0000
1010
0000
,
0100
0000
1001
0000
,
0100
0000
0011
0000
,
1000
0100
1000
0010
,
0100
0000
0000
0000
,
0010
0000
0100
0000
,
0001
0100
0001
1000
,
0100
0000
1000
0000
,
0010
1000
0010
0000
,
0000
1001
0000
0000
,
0010
0100
0001
0000
,
0010
0010
0010
0010
,
0010
0000
0001
0000
,
0100
0010
0100
0001
,
0100
0000
0010
0000
,
1000
0100
1000
0000
,
0000
0110
0000
0000
,
0001
0100
0001
0000
,
1000
0100
1000
0010
,
0100
0000
0010
0000
,
1010
0000
0110
0000
,
0001
1000
0001
0000
,
1100
0000
0011
0000
,
0100
0010
0100
0000
,
1001
0000
0110
0000
,
0001
0100
0001
0000
,
2000
0000
0000
0000
,
3200
0000
0000
0000
,
0310
0000
0001
0000
,
0100
0100
0100
0000
,
1010
0000
1001
0000
,
0100
0100
0100
0000
,
0001
1000
0100
1000
,
0010
0000
0000
1000
,
0001
0000
0100
0100
,
0010
0010
1000
0000
,
0001
1000
0100
1000
,
0010
0000
0000
1000
,
0100
1000
0010
0000
,
1001
0000
1001
0000
,
0010
0100
0010
1000
,
0010
0000
1000
0000
,
0100
0100
0100
0000
,
1000
0001
0010
0001
,
0100
0000
0010
0000
,
2002
0000
0000
3003
,
0220
0000
0330
0000
,
0001
0000
1000
0000
,
0001
0000
1000
0001
,
0100
0000
0010
0000
,
0101
0000
1000
0000
,
0100
0000
1000
0000
,
1010
0000
0001
0000
,
0010
0000
0101
0000
,
0010
0000
0100
0000
,
0001
1000
0001
0000
,
0202
0000
0000
0000
,
0000
0000
0000
0000
,
0000
0000
0303
0000
;
