#TITLE:A Hundred Sinners (Come and Get It);
#SUBTITLE:;
#ARTIST:The Feeling;
#TITLETRANSLIT:;
#SUBTITLETRANSLIT:;
#ARTISTTRANSLIT:;
#CREDIT:;
#BANNER:A Hundred Sinners (Come and Get It)-bn.png;
#BACKGROUND:A Hundred Sinners (Come and Get It)-bg.png;
#LYRICSPATH:;
#CDTITLE:;
#MUSIC:A Hundred Sinners (Come and Get It).mp3;
#OFFSET:-0.010;
#SAMPLESTART:66.347;
#SAMPLELENGTH:14.700;
#SELECTABLE:YES;
#BPMS:0.000=94.000;
#STOPS:102.500=0.010
;
#BGCHANGES:;

//---------------dance-single - ----------------
#NOTES:
     dance-single:
     :
     Beginner:
     1:
     0.080,0.112,0.047,0.019,0.000: // measure 1
0000
0000
0000
0000
,  // measure 2
0000
0000
0000
0000
,  // measure 3
1000
0000
0000
0000
,  // measure 4
0001
0000
0000
0000
,  // measure 5
0100
0000
0100
0000
,  // measure 6
0100
0000
0000
0000
,  // measure 7
0100
0000
0000
0000
,  // measure 8
0010
0000
0000
0000
,  // measure 9
1000
0000
1000
0000
,  // measure 10
1000
0000
0000
0000
,  // measure 11
0010
0010
0010
0000
,  // measure 12
0010
0000
0000
0000
,  // measure 13
0100
0100
0100
0000
,  // measure 14
0100
0000
0000
0000
,  // measure 15
0001
0001
0001
0000
,  // measure 16
0001
0000
0000
0000
,  // measure 17
1000
1000
1000
0000
,  // measure 18
1000
0000
0000
0000
,  // measure 19
1001
0000
0000
0000
,  // measure 20
0100
0000
0000
0000
,  // measure 21
0010
0000
0010
0000
,  // measure 22
0010
0000
0000
0000
,  // measure 23
2000
3000
0000
0000
,  // measure 24
1000
0000
0000
0000
,  // measure 25
0002
0003
0000
0000
,  // measure 26
0001
0000
0000
0000
,  // measure 27
1001
0000
0000
0000
,  // measure 28
0110
0000
0000
0000
,  // measure 29
1000
0000
1000
0000
,  // measure 30
1000
0000
0000
0000
,  // measure 31
0001
0001
0001
0000
,  // measure 32
0001
0000
0000
0000
,  // measure 33
1001
0000
0000
0000
,  // measure 34
0110
0000
0000
0000
,  // measure 35
1000
0000
0000
0000
,  // measure 36
0100
0000
0000
0000
,  // measure 37
0010
0000
0000
0000
,  // measure 38
0001
0000
0000
0000
,  // measure 39
0100
0000
0000
0000
,  // measure 40
0010
0000
0000
0000
,  // measure 41
1000
0000
0000
0000
;

//---------------dance-single - ----------------
#NOTES:
     dance-single:
     :
     Medium:
     4:
     0.250,0.244,0.019,0.000,0.000:
0000
0000
0000
0000
,
0000
0000
0000
0000
,
0010
0000
1000
0000
0001
1000
0001
0100
,
0001
0000
0010
0000
0100
0010
0100
1000
,
0100
1000
0010
0100
,
0010
1000
0001
1000
,
0010
0000
0100
0000
0010
0100
0010
1000
,
0100
0000
1000
0000
0010
1000
0010
0100
,
0001
1000
0001
0010
,
0100
0000
1000
0000
0010
0010
0000
0000
,
0110
0000
0001
0000
1000
0001
1000
0000
,
0010
0000
1000
0000
0001
1000
0001
0000
,
0010
0000
0001
0000
1000
0001
1000
0000
,
0010
0000
1000
0000
0001
1000
0001
0000
,
0100
0000
0100
0000
0010
0100
0010
0000
,
1000
0000
1000
0000
0001
1000
0001
0000
,
0010
0001
0100
1000
,
0010
0001
0100
1000
,
0010
0000
0010
0000
1000
0100
1000
0010
,
0010
0000
0010
0000
1000
0100
1000
0010
,
0010
0100
0010
1000
,
0001
1000
0100
0000
,
0001
0000
0001
0000
1000
0100
1000
0001
,
0001
0000
0001
0000
1000
0100
1000
0001
,
0001
0000
0001
0000
1000
0100
1000
0001
,
0001
0001
0100
0100
0000
0000
0000
0000
,
0110
0000
1000
0000
0001
1000
0001
0000
,
0100
0000
0001
0000
1000
0001
1000
0000
,
0100
0000
1000
0000
0001
1000
0001
0000
,
0100
0000
0001
0000
1000
0001
1000
0000
,
0010
0000
0010
0000
0100
0010
0100
0000
,
0001
0000
0001
0000
1000
0001
1000
0000
,
0100
1000
0010
0001
,
0100
1000
0010
0001
,
0100
0000
0001
0001
0000
0000
1000
0000
,
0010
0000
1000
1000
0000
0000
0100
0000
,
1000
0000
0010
0010
0010
0000
1000
1000
,
1000
0000
0100
0100
0000
0000
1000
0000
,
0001
0000
0100
0100
0000
0000
0010
0000
,
1000
0000
0001
0001
0000
0000
0010
0010
,
0010
0000
0000
0000
;

//---------------dance-single - ----------------
#NOTES:
     dance-single:
     :
     Hard:
     7:
     0.390,0.375,0.141,0.000,0.201:
0000
0000
0000
0000
,
0000
0000
0000
0000
0000
0000
0000
0000
0001
0100
0000
0000
0010
0000
0100
0000
,
0001
0010
0100
0010
0000
0001
1000
0100
,
1000
0010
0100
0001
0000
1000
0001
0100
,
0010
0010
1000
0001
1000
1000
0100
1000
,
0001
0001
0100
1000
0000
0010
1000
0100
,
0010
0001
1000
0001
0000
1000
0010
0100
,
0010
1000
0001
0010
0000
0001
1000
0010
,
0100
0100
0010
1000
0100
0100
1000
0001
,
1000
1000
0010
0100
0001
0001
0000
0000
,
0101
0000
0000
0000
0000
0000
1010
0000
0000
0000
0000
0000
0000
0000
0000
0000
0000
1000
0100
0000
0100
0010
0000
0000
,
1001
0000
0000
0000
0000
0000
0110
0000
0000
0000
0000
0000
0000
0000
0000
1000
0000
0000
0010
0000
0100
0010
0000
0000
,
1000
0000
0000
0000
0000
0000
0001
0000
0000
0000
0000
0100
0010
0000
0000
1000
0000
0000
0001
0000
0100
0001
0000
0000
,
1000
0000
0000
0000
0000
0000
0001
0000
0000
0000
0000
0000
0000
0000
0100
0010
0000
0000
1000
0000
0000
0100
0000
0000
,
0100
0000
1000
0000
0000
0010
0000
0000
0100
0000
0000
0001
0000
0000
1000
0000
0000
0001
0000
0000
0000
1001
0000
0000
,
0100
0000
0010
0000
0000
0100
0000
0000
0001
0000
0000
0010
0000
0000
0100
0000
0000
1000
0001
0000
0000
1000
0000
0000
,
1100
0000
0000
0000
0000
0000
1001
0000
0000
0000
0000
0100
0010
0000
0000
0100
0000
0000
0001
0000
0000
0100
0000
0100
,
0010
0000
0000
0000
0000
0000
0000
0000
0000
0000
0000
0000
0000
0000
0100
0010
0000
0000
1000
0000
0000
0100
0000
0000
,
1000
0001
0010
0100
0010
0001
1000
0010
,
0100
0010
1000
0100
0001
0100
1000
0010
,
0100
0100
0001
1000
0010
0010
1000
0001
,
1000
1000
0010
0100
0000
0001
1000
0010
,
0100
0001
0010
1000
0010
0001
1000
0010
,
0100
0001
1000
0100
1000
0010
0100
0001
,
1000
0100
0001
0100
1000
0010
0100
0001
,
0010
1000
0010
0001
0000
0000
0000
0000
,
1010
0000
0000
0000
0000
0000
0101
0000
0000
0000
0000
0000
0000
0000
0000
0000
0000
0001
0010
0000
0010
0100
0000
0000
,
1001
0000
0000
0000
0000
0000
0110
0000
0000
0000
0000
0000
0000
0000
0000
0001
0000
0000
0100
0000
0010
0100
0000
0000
,
0001
0000
0000
0000
0000
0000
1000
0000
0000
0000
0000
0010
0100
0000
0000
0001
0000
0000
1000
0000
0010
1000
0000
0000
,
0001
0000
0000
0000
0000
0000
1000
0000
0000
0000
0000
0000
0000
0000
0010
0100
0000
0000
0001
0000
0000
0010
0000
0000
,
0010
0000
0001
0000
0000
0100
0000
0000
0010
0000
0000
1000
0000
0000
0001
0000
0000
1000
0000
0000
0000
1001
0000
0000
,
0010
0000
0100
0000
0000
0010
0000
0000
1000
0000
0000
0100
0000
0000
0010
0000
0000
0001
1000
0000
0000
0001
0000
0000
,
0011
0000
0000
0000
0000
0000
1001
0000
0000
0000
0000
0010
0100
0000
0000
0010
0000
0000
1000
0000
0000
0010
0000
0010
,
0100
0000
0000
0000
0000
0000
0000
0000
0000
0000
0000
0000
0000
0000
0010
0100
0000
0000
0001
0000
0000
0010
0000
0000
,
0001
1000
0100
0010
0000
0001
1000
0001
,
0100
0010
1000
0001
0000
1000
0100
1000
,
0010
0010
0100
0001
1000
1000
0100
1000
,
0001
0100
0010
1000
0000
0010
1000
0001
,
0100
0100
0010
1000
0000
0001
1000
0100
,
0010
0010
0001
1000
0000
0010
0100
0001
,
0101
0000
0000
0000
;

//---------------dance-single - ----------------
#NOTES:
     dance-single:
     :
     Easy:
     3:
     0.159,0.169,0.056,0.047,0.000:
0000
0000
0000
0000
,
0000
0000
0000
0000
,
1000
0000
0001
0100
,
0001
0000
0010
0001
,
1000
0010
1000
0100
,
0010
0001
0100
0000
,
0010
0100
0001
0000
,
1000
0010
1000
0000
,
0100
1000
0010
0100
,
0001
1000
0001
0000
,
1001
1000
0100
0000
,
1000
0010
1000
0000
,
0001
0010
0001
0000
,
0100
0010
0100
0000
,
0001
0101
1000
0000
,
0010
1010
0100
0000
,
1000
1000
1000
1000
,
1000
0000
0010
0000
,
1000
0001
0100
0000
,
0010
0100
0001
0000
,
0010
0100
1000
0010
,
1000
0001
0100
0000
,
0020
0000
0030
0000
,
0200
0000
0300
0000
,
0002
0000
2003
0000
,
3200
0000
0300
0000
,
1001
1000
0100
0000
,
1000
0010
0100
0000
,
0001
0010
0100
1000
,
0010
0000
1000
0000
,
0010
0110
0100
0000
,
0001
0101
1000
0000
,
0010
1000
0100
0010
,
0001
0000
0100
0100
,
0100
0000
0010
0000
,
1000
0000
0001
0000
,
1000
0000
0100
0000
,
1000
0010
1000
0000
,
0010
0000
0100
0000
,
0001
0000
0010
0001
,
0010
0000
0000
0000
;
