#TITLE:Windmill;
#SUBTITLE:;
#ARTIST:Yak Won;
#TITLETRANSLIT:;
#SUBTITLETRANSLIT:;
#ARTISTTRANSLIT:;
#CREDIT:;
#BANNER:Windmill-bn.png;
#BACKGROUND:Windmill-bg.png;
#LYRICSPATH:;
#CDTITLE:cdtitle.png;
#MUSIC:Windmill.mp3;
#OFFSET:0.840;
#SAMPLESTART:5.960;
#SAMPLELENGTH:9.900;
#SELECTABLE:YES;
#BPMS:0.000=246.000;
#STOPS:;
#BGCHANGES:1.500=Windmill.avi=1.000=1=0=0,
99999=-nosongbg-=1.000=0=0=0 // don't automatically add -songbackground-
;

//---------------dance-single - ----------------
#NOTES:
     dance-single:
     :
     Beginner:
     5:
     0.296,0.402,0.021,0.000,0.000: // measure 1
0000
0000
0000
0000
,  // measure 2
0000
0000
0000
0000
,  // measure 3
0000
0000
0000
0000
,  // measure 4
0000
0000
0000
0000
,  // measure 5
0000
0000
0000
0000
,  // measure 6
0000
0000
0000
0000
,  // measure 7
0000
0000
0000
0000
,  // measure 8
0010
0000
0000
1000
,  // measure 9
0000
0000
0001
0001
,  // measure 10
0001
0001
0000
0000
,  // measure 11
0010
0000
0000
0100
,  // measure 12
0000
0000
1000
1000
,  // measure 13
1000
1000
0000
0000
,  // measure 14
0010
0000
0000
1000
,  // measure 15
0000
0000
0001
0001
,  // measure 16
0001
0001
0000
0000
,  // measure 17
0100
0100
0100
0100
,  // measure 18
0100
0100
0100
0000
,  // measure 19
0010
0010
0000
0000
,  // measure 20
1001
0000
0000
0000
,  // measure 21
0000
0000
1000
0000
,  // measure 22
0000
0001
0000
0000
,  // measure 23
0100
0000
0000
0010
,  // measure 24
0000
0000
0010
0000
,  // measure 25
0000
1000
0000
0000
,  // measure 26
0001
0000
0000
0010
,  // measure 27
0010
0010
0010
0000
,  // measure 28
0000
0001
0000
0000
,  // measure 29
1000
0000
0000
0100
,  // measure 30
0000
0000
1000
1000
,  // measure 31
1000
0000
0000
0000
,  // measure 32
0001
0001
0001
0001
,  // measure 33
0000
0000
0100
0000
,  // measure 34
0010
0010
0000
1000
,  // measure 35
1000
0000
0000
0100
,  // measure 36
0000
0000
0010
0000
,  // measure 37
0001
0001
0000
1000
,  // measure 38
1000
0000
0000
0010
,  // measure 39
0000
0000
1000
0000
,  // measure 40
0100
0100
0000
0010
,  // measure 41
0010
0000
0000
0001
,  // measure 42
0000
0000
0100
0100
,  // measure 43
0100
0100
0100
0100
,  // measure 44
0100
0000
0010
0010
,  // measure 45
0000
0000
0000
1000
,  // measure 46
1000
0000
0001
0001
,  // measure 47
0000
0010
0010
0000
,  // measure 48
0001
0001
0000
1000
,  // measure 49
1000
0000
0010
0010
,  // measure 50
0000
0100
0100
0100
,  // measure 51
0000
0000
0001
0001
,  // measure 52
0001
0001
0001
0000
,  // measure 53
1000
1000
1000
1000
,  // measure 54
1000
0000
0100
0100
,  // measure 55
0100
0100
0100
0000
,  // measure 56
0010
0010
0010
0010
,  // measure 57
0000
0000
0001
0000
,  // measure 58
0000
1000
0000
0000
,  // measure 59
0010
0000
0100
0100
,  // measure 60
0000
0000
0010
0000
,  // measure 61
0000
1000
0000
0000
,  // measure 62
0001
0000
0010
0010
,  // measure 63
0000
0000
0001
0000
,  // measure 64
0000
1000
0000
0000
,  // measure 65
0010
0000
0100
0100
,  // measure 66
0000
0000
0010
0000
,  // measure 67
0000
1000
0000
0000
,  // measure 68
0001
0000
0010
0010
,  // measure 69
0000
0000
0100
0100
,  // measure 70
0100
0100
0100
0100
,  // measure 71
0100
0000
0000
1000
,  // measure 72
0000
0000
0010
0010
,  // measure 73
0010
0010
0010
0010
,  // measure 74
0010
0000
0000
0100
,  // measure 75
0000
0000
0001
0001
,  // measure 76
0001
0001
0001
0001
,  // measure 77
0001
0000
0000
0010
,  // measure 78
0000
0000
0100
0100
,  // measure 79
0100
0100
0100
0100
,  // measure 80
0100
0000
1000
1000
,  // measure 81
0000
0000
0010
0000
,  // measure 82
0000
1000
0000
0000
,  // measure 83
0001
0001
0001
0001
,  // measure 84
0001
0001
0001
0000
,  // measure 85
0000
0010
0000
0000
,  // measure 86
0100
0100
0100
0100
,  // measure 87
0100
0100
0100
0000
,  // measure 88
0000
1000
0000
0000
,  // measure 89
0010
0010
0010
0010
,  // measure 90
0010
0010
0010
0000
,  // measure 91
0000
1000
0000
0000
,  // measure 92
0001
0000
0100
0100
,  // measure 93
0000
0000
0001
0000
,  // measure 94
0000
1000
0000
0000
,  // measure 95
0100
0000
0000
0000
,  // measure 96
0000
0000
0000
0000
,  // measure 97
1001
0000
0000
0000
;

//---------------dance-single - ----------------
#NOTES:
     dance-single:
     :
     Challenge:
     19:
     1.000,1.000,0.324,0.398,1.000:
0000
0000
0000
0000
,
0000
0000
0000
0000
,
0000
0000
0000
0000
,
0000
0000
0000
0000
,
0000
0000
0000
0000
,
0000
0000
0000
0000
,
0000
0000
0000
0000
,
0001
0010
0001
1000
0010
1000
0001
0000
0000
1000
0100
1000
,
0001
0100
0001
1000
0000
0000
0001
0000
0010
0100
0000
0010
,
1000
0000
0010
0001
0000
0001
0100
0000
0100
0010
0000
0010
,
1000
0100
1000
0001
0100
0001
1000
0000
0000
0001
0010
0001
,
1000
0010
1000
0001
0000
0000
1000
0000
0100
0010
0000
0100
,
0001
0000
0100
1000
0000
1000
0010
0000
0010
0100
0000
0100
,
0001
0100
0001
1000
0100
1000
0001
0000
0000
1000
0010
1000
,
0001
0010
0001
1000
0000
0000
0001
0000
0010
0100
0000
0010
,
1000
0000
0010
0001
0000
0001
0100
0000
0100
0010
0000
0010
,
1000
0010
1000
0001
0010
0001
1000
0000
0000
0001
0100
0001
,
1000
0100
1000
0001
0000
0000
2200
0000
0000
3300
0000
0000
,
0110
0202
0000
0303
,
1100
1100
1100
0101
,
0101
0000
0101
0000
1000
0010
0001
1000
,
0100
0001
0010
0100
1000
0001
0100
0010
,
1000
0001
0010
1000
0001
0100
1000
0010
,
0100
0001
0010
0100
1000
0010
0001
1000
,
0100
0001
0010
0100
1000
0010
0100
0001
,
0010
0000
0000
0000
0000
0000
1000
0000
0000
0000
0000
0000
0010
0000
0000
0000
0000
0000
0001
0000
0000
0000
0000
0000
0100
0000
0000
0000
0010
0000
0000
0000
1000
0000
0000
0000
0001
0000
0000
0010
0000
0000
0001
0000
0000
0010
0000
0000
,
0001
0010
0001
0010
0001
0010
0001
0000
0100
0000
0010
0000
1000
0000
0001
0000
,
0010
1000
0010
0001
1000
0100
0001
1000
,
0010
0000
0000
0001
0000
0000
0100
0000
0000
0010
0000
0000
1000
0000
0100
0000
0010
0000
0002
0000
0000
0000
0000
0000
,
2003
0000
3020
0000
0130
0001
0010
0100
,
1000
0010
0001
0010
1000
0100
0010
0001
,
0100
0010
1000
0100
0010
0001
1000
0010
0100
0001
0000
0000
,
2200
0000
0000
3300
0000
0000
0002
0000
0000
0103
0010
0100
,
0002
2003
3010
0200
,
0302
0000
0000
0000
0000
0000
0000
0000
0000
0000
0000
0000
1003
0000
0000
0000
0000
0000
0000
0000
0010
0000
0000
0000
0100
0000
0000
0000
0000
0000
0000
0000
0000
0000
0000
0000
0100
0000
0001
0000
0000
0000
0000
0000
0000
0000
0000
0001
,
0000
0010
0000
0000
0000
0000
0000
0000
0000
0000
0000
0010
0000
0100
0000
0000
0000
0000
0000
0000
0000
0000
0000
0000
2000
0000
0000
0000
0000
0000
0000
0000
0000
0000
0000
0000
3010
0000
0000
0000
0100
0000
0000
0000
0010
0000
0000
0000
,
2000
3002
0103
0020
,
2030
0000
0000
3001
0000
0100
0010
0000
0000
1000
0000
1000
,
0100
0000
0100
0010
0000
0010
0002
0000
0000
0103
0000
0010
,
1000
0000
0000
1001
0000
0000
0100
0000
1000
0010
0000
0000
,
0101
0000
0000
1000
0000
0100
0010
0000
0000
0012
0000
0000
,
1000
0000
0000
0103
0000
0000
0010
0000
0100
0010
0000
0001
,
0010
0000
1000
0100
0000
0010
0100
0000
0001
0100
0000
1000
,
0020
0000
0130
2001
,
3010
0000
0000
0000
1000
0010
0100
0001
,
0010
1000
0010
0001
0100
0010
1000
0100
,
0010
0001
0100
1000
0001
0010
1000
0100
,
0010
0001
1000
0010
0100
0001
0010
1000
,
0010
0001
0100
0010
1000
0100
0010
0001
,
1000
0000
0000
0010
0000
0000
0100
0000
0000
0001
0000
0000
0010
0000
0000
0100
0000
0000
1000
0000
0010
0000
0100
0000
,
0001
0100
1000
0100
0001
0010
0100
1000
,
0100
1000
0010
0100
0001
1000
0001
1000
,
0010
0100
0001
0010
0001
0010
0100
1000
,
0010
0000
0000
0100
0000
0000
0001
0000
0010
0000
0100
0000
1000
0000
0000
0001
0000
0000
0100
0000
0000
0010
0000
0000
,
1000
0100
0010
0001
0100
1000
0001
0010
,
1000
0000
0000
0001
0000
0000
0010
0000
0000
0100
0000
0000
1000
0000
0010
0000
0100
0000
0001
0000
0000
0000
0000
0000
,
2200
0000
3300
0000
0001
0100
0010
1000
,
0100
0001
0100
1000
0010
0100
0001
0010
,
0100
1000
0010
0001
1000
0100
0001
0010
,
0100
1000
0001
0100
0010
1000
0100
0001
,
0100
1000
0010
0100
0001
0010
0100
1000
,
0001
0100
0010
1000
0100
0010
0011
0000
,
1001
0000
0110
0000
1000
0100
0010
0001
,
0100
1000
0001
0010
1000
0100
0010
0001
,
1000
0000
0000
0010
0000
0000
0100
0000
0000
0010
0000
0000
1000
0000
0100
0000
1000
0000
0020
0000
0000
0000
0000
0000
,
0230
0000
0302
0000
0013
0100
1000
0001
,
0100
0010
0100
0001
0010
1000
0010
0001
,
0100
0000
0010
0000
1000
0000
0100
0000
0010
0000
0001
0000
0100
0010
0100
0010
,
0100
0000
0000
0010
0000
0000
0100
0000
0000
0010
0000
0000
0100
0000
0000
0010
0000
0000
0100
0000
0000
0000
0000
0000
0001
0000
0000
0000
1000
0000
0000
0000
0010
0000
0000
0000
0100
0000
0000
0000
0001
0000
0000
0000
1000
0000
0000
0000
,
0100
1000
0010
0100
0001
0010
1000
0010
0001
0100
0001
1000
,
0100
0010
0001
1000
0010
1000
0001
0010
0100
1000
0100
0010
,
0001
0100
0010
1000
0100
1000
0001
0010
0001
0100
0010
1000
,
0001
0100
1000
0100
0001
0010
0100
1000
0010
0100
0001
1000
,
0100
0010
0100
0010
0001
0100
0010
1000
0001
0100
1000
0100
,
0010
1000
0100
0010
0001
1000
0010
0100
0001
0010
1000
0010
,
0001
0100
0010
1000
0100
0010
0001
1000
0010
0100
0001
0010
,
0100
1000
0010
0001
0010
0100
0001
0010
0100
1000
0010
0100
,
0001
1000
0100
0010
0001
1000
0010
0100
0001
0010
0100
1000
,
0001
0010
0001
1000
0010
1000
0001
0100
0010
1000
0100
0010
,
0001
0100
0001
0100
0001
0100
0001
0100
0001
0100
0001
0100
0001
0000
0000
0000
,
2200
0000
0000
3300
0000
0000
1000
0100
1000
0001
0100
0001
,
1000
0000
0000
0001
0010
0001
1000
0010
1000
0001
0000
0000
,
1000
0000
0100
0010
0000
0100
0001
0000
0100
1000
0000
1000
,
0010
0000
0010
0100
0000
0100
0001
0010
0001
1000
0010
1000
,
0001
0000
0000
1000
0100
1000
0001
0100
0001
1000
0000
0000
,
0001
0000
0010
0100
0000
0010
1000
0000
0010
0001
0000
0001
,
0100
0000
0100
0010
0000
0010
1000
0010
1000
0001
0010
0001
,
1000
0000
0000
0001
0100
0001
1000
0100
1000
0001
0000
0000
,
1000
0000
0100
0010
0000
0100
0001
0000
0100
1000
0000
1000
,
0010
0000
0010
0100
0000
0100
0001
0000
0000
1100
0000
0000
,
0101
0010
1010
0011
,
1000
0010
1000
0010
1000
0010
1000
0010
1000
0010
1000
0010
1000
0000
0000
0000
,
0202
0303
1100
0110
,
0011
0101
0110
1001
,
0220
0000
0330
2000
,
0000
0020
0000
3000
,
0032
2000
0000
0000
0000
0000
0000
0000
0000
0000
0000
0000
0000
0000
0000
0000
0000
0000
0000
0000
0000
0000
0000
0000
,
0000
0000
0000
3003
;

//---------------dance-single - ----------------
#NOTES:
     dance-single:
     :
     Hard:
     17:
     0.954,1.000,0.879,0.251,0.618:
0000
0000
0000
0000
,
0000
0000
0000
0000
,
0000
0000
0000
0000
,
0000
0000
0000
0000
,
0000
0000
0000
0000
,
0000
0000
0000
0000
,
0000
0000
0000
0000
,
0001
0011
0101
1000
,
1010
0000
0000
1100
0000
0000
0001
0000
0100
0010
0000
1000
,
0100
0000
0010
0001
0000
1000
0010
0000
0100
0001
0000
1000
,
0010
1010
1001
0010
,
0011
0000
0000
1001
0000
0000
0001
0000
1000
0010
0000
1000
,
0100
0000
0010
0001
0000
0100
0010
0000
0100
0001
0000
0010
,
0100
1100
1001
0100
,
0101
0000
0000
1001
0000
0000
0010
0000
1000
0100
0000
1000
,
0010
0000
0100
0001
0000
0010
0100
0000
1000
0010
0000
0100
,
0001
0101
1001
0010
,
1010
1001
0022
0033
,
1001
2200
0000
3300
,
0001
0001
0001
1000
,
1000
0000
1000
0000
0010
0100
0010
1000
,
0100
0010
0001
0100
1000
0100
0010
1000
,
0100
0010
0001
0010
1000
0010
0001
1000
,
0010
0100
0001
0010
0100
1000
0100
1000
,
0010
0100
0001
1000
0001
1000
0010
0100
,
0001
0000
0000
0010
0000
0000
0100
0000
0000
1000
0000
0000
0010
0000
0000
0100
0000
0000
0001
0000
0010
0000
0100
0000
,
1000
0000
0100
0000
0010
0000
0001
0000
0010
0000
0100
0000
1000
0000
0000
0010
0000
0000
0100
0000
0000
0010
0000
0000
,
1000
0100
0001
0100
1000
0010
0100
0001
,
0010
1000
0010
0001
0100
0010
0200
0000
,
0302
0000
2003
0000
3010
0100
0001
0010
,
1000
0010
0001
0100
1000
0100
0001
0010
,
0100
1000
0010
0100
0001
1000
0020
0000
,
0130
0000
1001
0100
,
1000
1010
1000
0001
,
0011
0000
0000
0000
0000
0000
1000
0000
0000
0000
0000
0000
0001
0000
0000
0000
0000
0000
0100
0010
0000
0000
0000
0000
,
0010
1000
0000
0000
0000
0000
1000
0100
0000
0000
0000
0000
0110
0000
0000
0000
0000
0000
0010
0000
0000
0000
0000
0000
,
0001
1001
1000
0010
,
1010
0000
0000
1000
0000
0000
0001
0000
0000
0100
0000
0001
,
0100
0000
1000
0100
0000
0010
1000
0000
0000
0100
0000
0000
,
0010
0011
0001
1000
,
1010
0001
0100
2002
,
0000
0000
0000
3003
0000
0000
0001
0000
0010
0100
0000
1000
,
0010
0000
0100
0001
0000
0010
0100
0000
0010
0001
0000
1000
,
0020
0000
0130
2000
,
3001
0000
0000
0000
1000
0100
0010
0001
,
0010
0001
1000
0100
0010
0001
0010
0001
,
0100
0010
1000
0001
0100
1000
0100
0010
,
1000
0100
0010
0001
0100
0001
1000
0010
,
1000
0010
0100
0001
1000
0010
1000
0010
,
0100
0001
0010
1000
0010
0001
0100
0010
,
1000
0100
0010
0001
0011
0000
1001
0000
,
1100
1010
0110
0101
,
1001
0110
0011
1001
,
1010
0000
1100
0000
0001
1000
0010
0100
,
0001
0010
1000
0010
0001
1000
0010
0100
,
0001
1000
0100
0001
0100
1000
0020
0000
,
0200
0330
1000
0100
,
0001
0100
1000
0010
,
0001
0010
0000
0000
0000
0000
0000
0000
0000
0000
0000
0000
1000
0000
0000
0000
0000
0000
0100
0000
0000
0000
0000
0000
,
0000
0000
0001
0010
,
1000
0010
0001
0100
,
1000
0100
0000
0000
0000
0000
0000
0000
0000
0000
0000
0000
0001
0000
0000
0000
0000
0000
0010
0000
0000
0000
0000
0000
,
0000
0000
0011
1001
,
1100
1010
0101
1001
,
0010
0100
0000
0000
0000
0000
0000
0000
0000
0000
0000
0000
1100
0000
0000
0000
0000
0000
0101
0000
0000
0000
0000
0000
,
0000
0000
1100
1010
,
0011
1001
0101
1010
,
1000
0001
0000
0000
0000
0000
0000
0000
0000
0000
0000
0000
0110
0000
0000
0000
0000
0000
2002
0000
0000
0000
0000
0000
,
0000
0000
0000
0000
0000
0000
3003
0000
0000
0000
0000
0000
0010
0000
0000
1000
0000
0000
0001
0000
0010
0000
0100
0000
,
1000
0000
0010
0000
0100
0000
0010
0000
0000
1000
0000
0000
0001
0000
0010
0000
0100
0000
1000
0000
0010
0000
0100
0000
,
0001
0000
0000
1000
0000
0000
0100
0000
0010
0000
0001
0000
1000
0000
0100
0000
1000
0000
0001
0000
0010
0000
0001
0000
,
1000
0000
0010
0000
1000
0000
0100
0000
0010
0000
0001
0000
0100
0000
0000
0001
0000
0000
1000
0000
0100
0000
1000
0000
,
0001
0000
0100
0000
0010
0000
1000
0000
0000
0001
0000
0000
0010
0000
0001
0000
0100
0000
0010
0000
1000
0000
0001
0000
,
0100
0000
0000
0010
0000
0000
1000
0000
0001
0000
0010
0000
0001
0000
0100
0000
0010
0000
1000
0000
0000
0000
1000
0000
,
0100
0000
0000
0000
0100
0000
0010
0000
0000
0000
0010
0000
0001
0000
0000
0100
0000
0000
0010
0000
1000
0000
0001
0000
,
0010
0000
0000
0100
0000
0000
1000
0000
0000
0001
0000
0000
0100
0000
0001
0000
1000
0000
0010
0000
0000
0100
0000
0000
,
0001
0000
0000
0010
0000
0000
0100
0000
1000
0000
0001
0000
0100
0000
0010
0000
1000
0000
0100
0000
0010
0000
0001
0000
,
1000
0010
0100
0010
1000
0001
0010
0000
0000
1100
0000
0000
,
0101
0010
1001
0110
,
1000
0100
0010
0001
0010
0100
1000
0100
0010
0002
0000
0000
,
0103
0000
1000
1100
,
1010
0001
0101
0011
,
1000
0000
0010
0100
0000
0001
0010
0000
0100
1000
0000
0001
,
0100
0000
0010
1000
0000
0001
0100
0000
0000
0101
0000
0000
,
1001
0100
1100
1001
,
1000
0000
0001
0100
0000
0001
0010
0000
0100
1000
0000
0010
,
0100
0000
0010
1000
0000
0100
0010
0000
0000
0011
0000
0000
,
1001
0010
1010
1001
,
0100
0000
0001
1000
0000
0100
0010
0000
0001
1000
0000
0010
,
0100
0000
0001
0010
0000
0100
1000
0000
0000
1100
0000
0000
,
0011
1001
0110
1001
,
0001
0010
0100
1000
0100
0010
0001
0010
0100
2000
0000
0000
,
3001
0000
0101
0110
,
1100
0110
0101
0110
,
2020
0000
3030
0002
,
0000
2003
0000
3000
,
0200
0020
0000
0000
0000
0000
0000
0000
0000
0000
0000
0000
0000
0000
0000
0000
0000
0000
0000
0000
0000
0000
0000
0000
,
0000
0000
0000
0330
;

//---------------dance-single - ----------------
#NOTES:
     dance-single:
     :
     Medium:
     12:
     0.772,0.870,0.586,0.471,0.000: // measure 1
0000
0000
0000
0000
,  // measure 2
0000
0000
0000
0000
,  // measure 3
0000
0000
0000
0000
,  // measure 4
0000
0000
0000
0000
,  // measure 5
0000
0000
0000
0000
,  // measure 6
0000
0000
0000
0000
,  // measure 7
0000
0000
0000
0000
,  // measure 8
0010
1001
1001
0100
,  // measure 9
1001
0000
1001
0000
0001
0010
0001
1000
,  // measure 10
0010
1000
0001
0100
0001
1000
0100
1000
,  // measure 11
0001
0110
0110
1000
,  // measure 12
0110
0000
0110
0000
1000
0100
1000
0001
,  // measure 13
0100
0001
1000
0010
1000
0001
0010
0001
,  // measure 14
1000
0011
0011
0100
,  // measure 15
1010
0000
1010
0000
0001
0010
0001
1000
,  // measure 16
0010
1000
0001
0100
0001
1000
0100
1000
,  // measure 17
0002
0023
0230
2300
,  // measure 18
3020
0230
0302
0000
,  // measure 19
2003
3200
0000
0000
,  // measure 20
0310
0010
0010
0010
,  // measure 21
0010
0000
0010
0000
0001
0100
0001
0000
,  // measure 22
0010
0000
0100
1000
0100
0000
0010
0000
,  // measure 23
0001
1000
0001
0000
0100
0000
0010
1000
,  // measure 24
0010
0000
0100
0000
0001
0010
0100
0000
,  // measure 25
0010
0000
0001
1000
0010
0000
0100
0000
,  // measure 26
0001
1000
0100
0000
0010
0000
0002
0000
,  // measure 27
0000
0000
0000
0000
0103
0010
1000
0000
,  // measure 28
0001
0000
1000
0100
0010
0000
0001
0000
,  // measure 29
1000
0010
1000
0000
0001
0010
0200
0000
,  // measure 30
2300
0000
3020
0000
0130
0001
1000
0000
,  // measure 31
0010
0000
0100
0001
1000
0000
0001
0000
,  // measure 32
1000
0100
0010
0001
0010
0100
2000
0000
,  // measure 33
3001
0000
0200
0000
,  // measure 34
0310
2000
0000
3001
,  // measure 35
0020
0000
0030
1100
,  // measure 36
0110
0011
0200
0000
,  // measure 37
0310
2000
0000
3001
,  // measure 38
0020
0000
0000
0000
0000
0000
0031
0100
,  // measure 39
0010
0100
0001
0010
0200
0000
0000
0000
,  // measure 40
0310
0002
0000
1003
,  // measure 41
0200
0000
0000
0320
,  // measure 42
0000
0000
0031
0100
,  // measure 43
0010
1000
0100
0010
,  // measure 44
0002
0000
1003
0200
,  // measure 45
0000
0000
0310
0011
,  // measure 46
0011
1000
1010
1010
,  // measure 47
0001
0101
0101
1000
,  // measure 48
1100
1100
0001
1001
,  // measure 49
1001
0100
0110
0110
,  // measure 50
1000
1010
1010
0002
,  // measure 51
0000
0000
0000
0000
1003
0100
1000
0100
,  // measure 52
1000
0100
0010
0001
0010
0001
0010
0001
,  // measure 53
0100
0010
0100
0010
0100
0010
1000
0001
,  // measure 54
1000
0001
1000
0001
0010
0100
0010
0001
,  // measure 55
0010
0100
1000
0001
1000
0010
1000
0001
,  // measure 56
0100
0010
0100
0001
0100
0010
2000
0000
,  // measure 57
3001
0000
1000
0100
,  // measure 58
0001
0100
1000
0010
,  // measure 59
1010
0000
0001
0011
,  // measure 60
0000
0000
0001
0100
,  // measure 61
1000
0100
0001
0010
,  // measure 62
0011
0000
1000
1010
,  // measure 63
0000
0000
0001
0010
,  // measure 64
1000
0010
0001
0010
,  // measure 65
0011
0000
0001
1001
,  // measure 66
0000
0000
1000
0010
,  // measure 67
0001
0010
1000
0001
,  // measure 68
0011
0000
1000
2200
,  // measure 69
0000
0000
3300
0000
0001
0100
0010
0100
,  // measure 70
0001
0000
1000
0100
0010
0100
1000
0000
,  // measure 71
0001
1000
0010
1000
0001
0000
1100
0000
,  // measure 72
0101
0000
1001
0000
0010
1000
0001
1000
,  // measure 73
0010
0000
1000
0001
0010
0001
1000
0000
,  // measure 74
0001
0100
0010
1000
0001
0000
1100
0000
,  // measure 75
0110
0000
0011
0000
0100
0001
1000
0001
,  // measure 76
0100
0000
0010
1000
0100
1000
0010
0000
,  // measure 77
0100
0001
0100
0010
1000
0000
0002
0000
,  // measure 78
0000
0000
0000
0000
0013
0100
0010
0100
,  // measure 79
0010
0100
1000
0100
1000
0100
1000
0100
,  // measure 80
0010
0001
0100
0010
1000
0001
0020
0000
,  // measure 81
0130
0000
0100
1001
,  // measure 82
1001
0010
1001
1001
,  // measure 83
1000
0100
1000
0001
0100
0001
1000
0010
,  // measure 84
1000
0001
0010
0001
1000
0000
0110
0000
,  // measure 85
0110
0001
0110
0110
,  // measure 86
0001
0010
0001
1000
0010
1000
0001
0100
,  // measure 87
0001
1000
0100
1000
0001
0000
1100
0000
,  // measure 88
1100
0010
0101
0101
,  // measure 89
1000
0100
1000
0001
0100
0001
1000
0010
,  // measure 90
1000
0001
0010
0001
2000
0000
3200
0000
,  // measure 91
0320
0032
0203
0320
,  // measure 92
2030
0000
0000
0000
0000
0000
0000
0000
0000
0000
0000
0000
0000
0000
0000
0000
0000
0000
0000
0000
0000
0000
0000
0000
0000
0000
0000
0000
0000
0000
0000
0000
0000
0000
0000
0000
0000
0000
0000
0000
0000
0000
0000
0000
0000
0000
0000
0000
0000
0000
0000
0000
0000
0000
0000
0000
0000
0000
0000
0000
0000
0000
0000
0000
0000
0000
0000
0000
0000
0000
0000
0000
0000
0000
0000
0000
0000
0000
0000
0000
0000
0000
0000
0000
0000
0000
0000
0000
0000
0000
0000
0000
0000
0000
0000
0000
3002
0003
0000
0000
0000
0000
0000
0000
0000
0000
0000
0000
0000
0000
0000
0000
0000
0000
0000
0000
0000
0000
0000
0000
0000
0000
0000
0000
0000
0000
0000
0000
0000
0000
0000
0000
0000
0000
0000
0000
0000
0000
0000
0000
0000
0000
0000
0000
0020
0000
0000
0000
0000
0000
0000
0000
0000
0000
0000
0000
0000
0000
0000
0000
0000
0000
0000
0000
0000
0000
0000
0000
0000
0000
0000
0000
0000
0000
0000
0000
0000
0000
0000
0000
0000
0000
0000
0000
0000
0000
0000
0000
0000
0000
0000
0000
,  // measure 93
0000
0000
0000
0000
0031
0010
0001
0010
,  // measure 94
0001
0000
1000
0010
1000
0010
1000
0000
,  // measure 95
0102
0000
0000
2003
,  // measure 96
0000
3200
0000
0000
,  // measure 97
0320
0000
0000
0000
,  // measure 98
0000
0000
0000
0030
;

//---------------dance-single - ----------------
#NOTES:
     dance-single:
     :
     Easy:
     8:
     0.431,0.460,0.042,0.167,0.000: // measure 1
0000
0000
0000
0000
,  // measure 2
0000
0000
0000
0000
,  // measure 3
0000
0000
0000
0000
,  // measure 4
0000
0000
0000
0000
,  // measure 5
0000
0000
0000
0000
,  // measure 6
0000
0000
0000
0000
,  // measure 7
0000
0000
0000
0000
,  // measure 8
1000
0100
0100
0010
,  // measure 9
0001
0001
0200
0000
,  // measure 10
0000
0310
0000
0000
,  // measure 11
0100
0001
0001
0010
,  // measure 12
0100
0100
2000
0000
,  // measure 13
0000
3010
0000
0000
,  // measure 14
1000
0001
0001
0010
,  // measure 15
0001
0001
0200
0000
,  // measure 16
0000
0310
0000
0000
,  // measure 17
0100
0001
0001
1000
,  // measure 18
0100
0100
0020
0000
,  // measure 19
0031
2000
0000
0000
,  // measure 20
3010
0000
0000
0000
,  // measure 21
0000
0000
1000
1000
,  // measure 22
1000
0001
0001
0001
,  // measure 23
0100
0100
0100
0010
,  // measure 24
0010
0010
1000
1000
,  // measure 25
1000
0001
0001
0001
,  // measure 26
1000
0100
0010
0002
,  // measure 27
0000
0000
0103
0100
,  // measure 28
0100
0010
0010
0010
,  // measure 29
1000
1000
1000
0002
,  // measure 30
0000
0000
0013
0010
,  // measure 31
0010
0100
0100
0100
,  // measure 32
1000
0010
0100
0002
,  // measure 33
0000
0000
1003
0000
,  // measure 34
0100
0010
0000
0001
,  // measure 35
1000
0000
0000
1001
,  // measure 36
1001
1001
0010
0000
,  // measure 37
1000
0001
0000
0010
,  // measure 38
0100
0000
1000
0001
,  // measure 39
0000
0000
0100
0000
,  // measure 40
0010
1000
0000
0001
,  // measure 41
0010
0000
0000
0100
,  // measure 42
0000
0000
1000
0010
,  // measure 43
0100
0001
1000
0010
,  // measure 44
0100
0000
0001
1000
,  // measure 45
0000
0000
0001
0010
,  // measure 46
0010
0100
1000
1000
,  // measure 47
0010
0100
0100
0010
,  // measure 48
1000
1000
0100
0010
,  // measure 49
0010
0001
1000
1000
,  // measure 50
0010
0100
0100
0002
,  // measure 51
0000
0000
0013
0010
,  // measure 52
0010
0100
0100
0100
,  // measure 53
1000
1000
1000
0001
,  // measure 54
0001
0001
0100
0100
,  // measure 55
0100
0010
0010
0010
,  // measure 56
1000
1000
1000
0001
,  // measure 57
0000
0000
1000
0100
,  // measure 58
0010
0100
0010
0001
,  // measure 59
1000
0000
0001
0100
,  // measure 60
0000
0000
0001
0100
,  // measure 61
0010
0100
0010
1000
,  // measure 62
0001
0000
1000
0010
,  // measure 63
0000
0000
0100
0100
,  // measure 64
0100
0010
0010
0010
,  // measure 65
1000
0000
0001
0010
,  // measure 66
0000
0000
0001
0001
,  // measure 67
0001
1000
1000
1000
,  // measure 68
0100
0000
0010
0100
,  // measure 69
0000
0000
1000
0100
,  // measure 70
0010
0001
0100
0010
,  // measure 71
1000
0001
0100
0020
,  // measure 72
0000
0000
0130
0001
,  // measure 73
0100
0010
1000
0001
,  // measure 74
0010
0001
1000
0200
,  // measure 75
0000
0000
1300
0010
,  // measure 76
1000
0001
0010
0001
,  // measure 77
1000
0010
0100
0002
,  // measure 78
0000
0000
0013
0100
,  // measure 79
0010
0001
1000
0010
,  // measure 80
0200
0000
0301
2000
,  // measure 81
0000
0000
3010
0000
,  // measure 82
0000
1000
0000
0000
,  // measure 83
0001
0010
0001
1000
,  // measure 84
0001
0100
0001
0000
,  // measure 85
0010
0001
0000
0000
,  // measure 86
1000
0100
1000
0010
,  // measure 87
1000
0001
1000
0000
,  // measure 88
0010
1000
0000
0000
,  // measure 89
0001
0010
0001
0100
,  // measure 90
0001
1000
0010
0000
,  // measure 91
0100
0100
0000
0010
,  // measure 92
0010
0000
1000
0001
,  // measure 93
0000
0000
1000
1000
,  // measure 94
1000
0001
0001
0001
,  // measure 95
0100
0000
0000
0001
,  // measure 96
0000
1000
0000
0000
,  // measure 97
2200
0000
0000
0000
,  // measure 98
0000
0000
0000
3300
;
