#TITLE:We Got 2 Know;
#SUBTITLE:;
#ARTIST:MAX;
#TITLETRANSLIT:;
#SUBTITLETRANSLIT:;
#ARTISTTRANSLIT:;
#CREDIT:;
#BANNER:We Got 2 Know-banner.png;
#BACKGROUND:We Got 2 Know-bg.png;
#LYRICSPATH:;
#CDTITLE:cdtitle.png;
#MUSIC:We Got 2 Know.mp3;
#OFFSET:-0.120;
#SAMPLESTART:75.090;
#SAMPLELENGTH:9.940;
#SELECTABLE:YES;
#BPMS:0.000=128.000;
#STOPS:;
#BGCHANGES:0.750=We Got 2 Know.avi=1.000=1=0=0,
99999=-nosongbg-=1.000=0=0=0 // don't automatically add -songbackground-
;

//---------------dance-single - ----------------
#NOTES:
     dance-single:
     :
     Beginner:
     3:
     0.137,0.154,0.079,0.000,0.000:
0000
0000
0000
0000
,
0000
0000
0000
0000
,
0000
0000
0000
0000
,
1001
0000
0000
0000
,
0010
0000
0000
1000
,
1000
0000
0000
0001
,
0001
0000
0000
0100
,
0100
0000
0000
0000
,
0010
0000
0010
0000
,
1000
1000
1000
0000
,
0100
0000
0100
0000
,
0010
0000
0001
0000
,
0100
0000
0100
0000
,
0001
0001
0001
0000
,
1000
0000
1000
0000
,
0010
0000
0000
0000
,
1001
0000
0000
0000
,
0100
0000
0000
1000
,
1000
0000
0000
0000
,
0001
0000
0000
0000
,
0110
0000
0000
0000
,
0001
0000
0000
0010
,
0010
0000
0000
0000
,
0100
0000
0000
0000
,
1000
0000
1000
0000
,
1000
0000
1000
0000
,
0001
0000
0001
0000
,
1001
0000
0000
0000
,
0100
0000
0100
0000
,
0100
0000
0100
0000
,
0010
0000
0010
0000
,
0010
0000
0000
0000
,
1001
0000
0000
0000
,
0100
0100
0100
0000
,
0100
0000
0000
0000
,
1000
0000
0001
0000
,
0110
0000
0000
0000
,
0010
0010
0010
0000
,
0010
0000
0000
0000
,
1000
0000
0000
0000
,
0001
0001
0001
0000
,
0100
0000
0100
0000
,
0010
0010
0010
0000
,
1000
0000
0001
0000
,
1000
1000
1000
0000
,
0100
0000
0100
0000
,
0010
0010
0010
0000
,
0001
0000
0000
0000
,
1001
0000
0000
0010
,
0010
0000
0000
0010
,
0010
0000
0000
0010
,
0010
0000
0000
0000
,
1001
0000
0000
0000
;

//---------------dance-single - ----------------
#NOTES:
     dance-single:
     :
     Medium:
     8:
     0.377,0.387,0.237,0.217,0.039:
0000
0000
0000
0000
,
0000
0000
0000
0000
,
0000
0000
0000
0000
,
1001
0000
0000
0000
,
0010
0000
1000
0000
0000
0001
0100
0000
,
0001
0000
1000
0000
0000
0100
0010
0000
,
0001
0000
1000
0000
0000
0010
1000
0000
,
0202
0000
0000
0303
,
1000
0100
1000
0000
0001
0100
0001
0000
,
1000
1010
0011
0000
,
1000
0100
1000
0000
0001
0100
0001
0000
,
2000
3002
0203
0300
,
0001
0010
0001
0000
1000
0010
1000
0000
,
0011
1010
1001
0000
,
1000
0100
1000
0000
0001
0100
0001
0000
,
2000
0000
0000
3001
,
0110
0000
0000
0000
0001
1000
0100
0000
,
1001
0000
0000
0000
1000
0001
0100
0000
,
1001
0000
0000
0000
0010
1000
0001
0000
,
0020
0100
0100
0130
,
1001
0000
0000
0000
0100
0001
0010
0000
,
1001
0000
0000
0000
0100
1000
0010
0000
,
1000
0100
1000
0000
0001
1000
0001
0000
,
0200
0000
0000
0310
,
0001
0100
0001
0000
1000
0000
0101
0000
,
1000
0100
1000
0000
0001
0000
1100
0000
,
0001
1000
0001
0000
0100
0000
1001
0000
,
0020
2030
3002
0203
,
0310
0100
0010
1000
0010
0100
0010
0000
,
1000
0100
1000
0010
1000
0000
0001
0000
,
0100
0001
0100
0010
0100
0001
0100
0000
,
0002
1000
1000
1003
,
0010
0000
0000
0010
0000
0000
0010
0000
0000
0000
0000
0000
1001
0000
0000
0000
,
0100
0000
0001
0000
1000
0100
0010
0000
,
0001
0000
0000
0001
0000
0000
0001
0000
0000
0000
0000
0000
1010
0000
0000
0000
,
0001
1000
0001
0000
1000
0001
1000
0000
,
0100
0000
0000
0100
0000
0000
0100
0000
0000
0000
0000
0000
1100
0000
0000
0000
,
0010
0000
0000
0010
0000
0000
0010
0000
0000
0000
0000
0000
1010
0000
0000
0000
,
0001
0000
0000
0001
0000
0000
0001
0000
0000
0000
0000
0000
0101
0000
0000
0000
,
1000
0100
1000
0000
0001
0100
0001
0000
,
1000
0010
0100
0001
1000
0010
0100
0000
,
0002
2003
3100
0000
,
0010
0001
1000
0001
0100
0010
1000
0000
,
0002
2003
3010
0000
,
1000
0010
0100
0001
1000
0100
0010
0000
,
0002
2003
3010
0000
,
0100
0001
1000
0010
0100
0001
1000
0000
,
0200
0000
0000
0310
,
1001
0000
0000
1000
0000
0000
1000
0000
0000
0000
0100
0000
1000
0000
0000
0000
,
1001
0000
0000
0001
0000
0000
0001
0000
0000
0000
0100
0000
0001
0000
0000
0000
,
1001
0000
0000
1000
0000
0000
1000
0000
0000
0000
0010
0000
1000
0000
0000
0000
,
0001
0000
1000
0000
0010
0100
0001
0000
,
2200
3300
0000
0000
;

//---------------dance-single - ----------------
#NOTES:
     dance-single:
     :
     Hard:
     12:
     0.533,0.542,0.168,0.168,0.262:
0000
0000
0000
0000
,
0000
0000
0000
0000
,
0000
0000
0000
0000
,
0200
0000
0000
0300
,
1001
0100
1000
0010
1000
0001
0100
0000
,
1010
0001
1000
0010
0100
0001
1000
0000
,
0011
1000
0001
0100
0010
1000
0100
0000
,
1001
0000
0000
0000
0010
1000
0001
0000
,
0100
1000
0100
0001
0010
0100
1000
0010
,
1000
0001
0010
0001
1000
0010
0100
0000
,
0001
0010
1000
0010
0001
1000
0100
0010
,
0002
0000
1003
0001
0200
0000
0310
0000
,
1001
0100
0010
1000
0100
0010
0001
1000
,
0010
1000
0001
0010
0100
1000
0001
0000
,
0100
0010
0100
0001
1000
0001
0020
0000
,
0130
0000
1000
0100
0001
0000
0100
0000
,
1010
0000
0001
0000
0000
0000
0100
0000
0000
0001
0000
0000
1000
0000
0000
0000
,
0010
0000
1000
0000
0000
0000
0001
0000
0000
0100
0000
0000
0001
0000
0010
0000
,
1100
0000
0001
0000
0000
0000
1000
0000
0000
0010
0000
0000
0100
0000
0000
0000
,
0001
0000
0000
0100
0000
0000
1000
0000
0000
0010
0000
0100
0000
0000
0100
0000
,
1001
0000
1000
0000
0001
0000
1000
0010
0000
1000
0000
0000
0001
0000
0000
0000
,
0100
0000
0000
0000
0000
0000
0001
0000
0000
0000
0000
0000
1000
0000
0000
0100
0000
0000
0000
0000
0000
1000
0000
0000
0001
0000
0000
0000
0000
0000
1000
0000
0000
0000
0000
0000
0010
0000
0000
0000
0100
0000
0000
0000
0001
0000
0000
0000
,
2200
0000
0000
0000
3300
0000
0001
0000
0000
0100
0000
0000
1000
0000
0000
0000
,
0220
0000
0330
0002
,
1003
0000
0010
0000
0100
0000
0001
0000
1000
0100
1000
0000
0001
0000
0001
0000
,
0100
0000
0010
0000
0100
0000
0001
0000
1000
0100
0010
0000
0001
0000
0000
0000
,
1000
0000
0001
0000
0100
0000
0010
0000
1000
0100
1000
0000
0010
0000
0010
0000
,
0100
0001
0010
0100
1000
0001
0200
0000
,
0310
0000
0100
0000
0001
0000
0010
0000
0100
1000
0100
0000
1000
0000
1000
0000
,
0010
0000
1000
0000
0001
0000
0100
0000
0010
1000
0001
0000
0100
0000
0000
0000
,
0001
0000
0100
0000
1000
0000
0100
0000
0001
1000
0001
0000
0010
0000
0010
0000
,
0001
0000
0000
0100
0000
0000
1000
0100
0000
0001
0000
1000
0100
1000
0100
1000
,
0002
0000
0000
0100
0000
0000
0100
0000
0000
0000
0000
0000
1003
0000
0000
0000
,
1000
0001
0100
0010
0100
0001
1000
0000
,
2010
0000
0000
0100
0000
0000
0100
0000
0000
0000
0000
0000
3001
0000
0000
0000
,
0100
0001
0100
0000
1000
0100
1000
0000
0000
0000
0001
1000
0001
0000
0000
0000
,
0200
0000
0010
0000
0301
0000
0100
0001
0000
1000
0001
0000
1000
0000
0100
0000
,
2000
0000
0100
0000
3010
0000
1000
0100
0000
1000
0001
0000
0100
0000
0010
0000
,
0200
0000
0001
0000
0310
0000
0100
0001
0000
1000
0100
0000
0010
0000
0001
0000
,
0200
1000
0010
0301
,
1000
0001
0100
1000
0100
0010
1000
0100
,
0010
0000
0001
0000
1000
0000
0010
0000
0001
0000
0010
0000
0100
0001
0100
0001
,
1000
0010
0100
0001
0010
1000
0010
0100
,
1000
0000
0010
0000
0100
0000
1000
0000
0100
0000
0001
0000
1000
0100
1000
0100
,
0010
0001
1000
0010
0100
0001
0010
0001
,
1000
0000
0010
0000
0001
0000
0010
0000
0100
0000
0010
0000
1000
0100
1000
0100
,
0010
0001
1000
0010
0100
0001
1000
0100
,
0011
0000
0000
0000
,
0100
0000
0000
0001
0000
0000
1000
0000
0000
0001
0100
0000
0011
0000
1000
0000
,
0001
0000
0000
0100
0000
0000
0010
0000
0000
0001
1000
0000
0101
0000
0010
0000
,
1000
0000
0000
0001
0000
0000
0010
0000
0000
1000
0100
0000
0011
0000
1000
0000
,
0001
0000
0000
0101
0000
0000
1000
0000
0000
1100
0000
0001
0100
0010
0100
0010
,
2000
3000
0000
0000
;

//---------------dance-single - ----------------
#NOTES:
     dance-single:
     :
     Challenge:
     16:
     0.762,0.851,0.405,0.109,0.805:
0000
0000
0000
0000
,
0000
0000
0000
0000
,
0000
0000
0000
0000
,
2002
0000
0000
3003
,
0010
0000
0100
0000
0010
0000
1000
0000
0100
0000
0010
0000
0001
1000
0100
0000
,
1000
0000
0001
0000
0100
0000
0010
0000
1000
0000
0001
0000
0100
0001
0010
0000
,
0001
0000
1000
0000
0010
0000
0100
0000
0001
0000
1000
0000
0010
1000
0100
0000
,
0010
0000
0001
0000
1000
0000
0010
0000
0100
0001
0100
0001
1000
0100
1000
0100
,
0010
0001
1100
0000
0010
1000
0101
0000
,
1000
0000
0001
0100
0001
0000
1000
0000
0100
0000
0010
0000
0001
0000
0000
0000
,
0100
0010
1100
0000
0010
0100
0011
0000
,
1000
0100
1000
0010
0100
0000
0001
0000
1000
0001
0100
0001
1000
0000
0010
0000
,
0100
0001
1001
0010
0100
1000
1010
1000
,
0001
0100
0001
1000
0001
0000
0010
0000
0100
0000
1000
0000
0001
0000
0100
0000
,
0010
1000
1010
1000
0001
0010
0011
1000
,
0001
0010
0001
0000
1000
0100
1000
0000
0001
0100
0001
1000
0020
0000
0000
0000
,
0130
0000
0001
0000
1000
0000
0010
1000
0000
0100
1000
0000
0010
0000
0100
0000
,
0001
0000
1000
0000
0100
0000
0010
0001
0000
0010
0100
0000
1000
0000
0001
0000
,
1010
0000
1000
0000
0001
0000
0100
0010
0000
0100
0001
0000
1000
0000
0100
0000
,
1100
0000
0000
1001
0000
0000
1010
0000
0000
1001
0000
0101
0000
0000
1001
0000
,
1010
0000
1000
0000
0001
0000
0010
0100
0000
0010
0001
0000
1000
0000
0010
0000
,
0100
0000
0000
0000
0000
0000
0001
0000
0000
0000
0000
0000
1000
0000
0000
0000
0000
0000
0010
0000
0000
1000
0000
0000
0000
0000
0000
0001
0000
0000
0010
0000
0000
0000
0000
0000
0100
0000
0000
0000
1000
0000
0000
0000
0001
0000
0000
0000
,
0110
0000
1000
0000
0001
0000
0100
0010
0000
0100
0001
0000
1000
0000
0100
0000
,
0010
0000
0000
0000
0001
0100
0010
2000
0000
0000
0000
0000
3001
0000
0000
0000
,
0100
0001
0100
0010
1000
0001
0010
0100
0010
0001
1000
0010
0100
0000
0100
0000
,
0001
1000
0010
1000
0100
0010
0001
1000
0100
0010
0001
1000
0010
0000
1000
0000
,
0001
0100
0010
0100
0001
0010
0100
1000
0001
0100
0010
1000
0001
0000
0001
0000
,
0010
0002
0000
0203
0000
0320
0000
1030
,
0001
0100
0010
0100
0001
0010
0100
1000
0001
0100
0010
1000
0001
0000
0001
0000
,
0010
0100
0010
0001
0100
0010
1000
0001
0010
0100
1000
0001
0100
0000
0010
0000
,
1000
0100
1000
0010
0100
0001
0010
0100
1000
0001
0100
0010
1000
0000
1000
0000
,
1010
0000
0000
1001
0000
0000
0100
0001
0000
1000
0000
0010
0100
0001
1000
0100
,
0020
0000
0000
0001
0000
0000
0100
0000
0000
0000
0031
0000
1001
0000
0000
0000
,
0100
0010
0100
0001
1000
0010
0100
0000
,
2010
0000
0000
0100
0000
0000
0001
0000
0000
0000
3010
0000
0101
0000
0000
0000
,
1000
0100
0001
0000
0001
0100
1000
0000
0000
0000
1000
0100
0001
0000
0000
0000
,
1100
0000
1000
0000
0010
0000
0100
0001
0100
0010
1000
0000
0001
0000
0010
0000
,
0001
0000
1000
0000
0010
0000
1000
0001
0100
0010
1000
0000
0001
0000
0010
0000
,
0001
0000
0100
0000
0010
0000
1000
0001
0100
0001
1000
0000
0010
0000
0100
0000
,
1001
1100
0101
0011
,
1000
0001
0100
0010
1000
0100
0010
0001
0010
0100
1000
0010
1000
0001
1000
0010
,
0100
0001
0010
0100
0010
0001
1000
0010
0100
0001
0010
1000
0010
0001
1000
0100
,
0010
0001
0100
0010
0100
0001
0010
0100
1000
0001
1000
0010
1000
0100
0010
0001
,
0100
1000
0100
0010
1000
0100
0010
0001
1000
0010
0100
0001
0010
0100
1000
0001
,
0100
0010
0100
0001
0010
0100
0010
0001
1000
0010
0100
0001
0010
1000
0010
0001
,
1000
0010
0100
0001
0100
1000
0100
0001
0010
0100
1000
0010
0100
0001
0010
0100
,
1000
0001
1000
0001
0100
0010
1000
0001
0010
0100
0010
0100
1000
0001
0100
0010
,
2000
0100
0010
3001
,
0101
0000
0000
1100
0000
0000
1001
0000
0000
0010
1000
0000
0001
0010
0100
1000
,
1100
0000
0000
1010
0000
0000
1001
0000
0000
0100
0001
0000
1000
0100
0010
0001
,
0011
0000
0000
1001
0000
0000
0101
0000
0000
0010
1000
0000
0001
0100
0010
1000
,
1100
0000
0000
0101
0000
0000
0011
0000
0000
1010
0000
0001
0100
1000
0100
0001
,
2000
3000
0000
0000
;

//---------------dance-single - ----------------
#NOTES:
     dance-single:
     :
     Easy:
     5:
     0.207,0.231,0.128,0.000,0.000:
0000
0000
0000
0000
,
0000
0000
0000
0000
,
0000
0000
0000
0000
,
1001
0000
0000
0000
,
0010
1000
0000
0001
,
0100
0010
0000
0100
,
0001
1000
0000
0100
,
1001
0000
0000
0000
,
0010
0010
1000
1000
,
0010
1000
0010
0000
,
0100
0100
0001
0001
,
0100
0001
0100
0000
,
0001
0001
1000
1000
,
0001
1000
0001
0000
,
0010
0010
0100
0100
,
0110
0000
0000
0000
,
1001
0000
0100
0000
,
1000
0000
0010
0010
,
0110
0000
1000
0000
,
0001
0000
0000
0000
,
1001
0000
0100
0000
,
0001
0010
0001
0000
,
0110
0000
1000
0000
,
0100
0000
0000
0000
,
1000
0000
0001
0000
1000
0000
0010
0010
,
0000
0100
0000
0100
,
0001
0000
1000
0000
0001
0000
0010
0010
,
0000
0000
0000
0000
,
0001
0000
1000
0000
0100
0000
1000
1000
,
0000
0010
0000
1000
,
0010
0000
1000
0000
0100
0000
0010
0010
,
0000
0000
0000
0000
,
1001
0000
0000
0110
,
0001
0100
1000
0100
,
0001
0000
0000
0110
,
1000
0100
0001
0100
,
1000
0010
0100
0100
,
0001
0000
1000
0001
,
0100
0000
0010
0000
,
1001
0000
0000
0000
,
0010
1000
0010
0100
,
0010
1000
0010
0000
,
1000
0100
1000
0010
,
1000
0001
1000
0000
,
0001
0100
0001
1000
,
0001
0010
0001
0000
,
0010
0100
0010
0001
,
0010
0000
0000
0000
,
1001
0000
0000
0000
0000
0000
0010
0010
,
0000
0000
0000
0000
0000
0000
1000
1000
,
0000
0000
0000
0000
0000
0000
0001
0001
,
0000
0000
0000
0100
,
0110
0000
0000
0000
;
