#TITLE:U Got 2 Know;
#SUBTITLE:;
#ARTIST:MAX;
#TITLETRANSLIT:;
#SUBTITLETRANSLIT:;
#ARTISTTRANSLIT:;
#CREDIT:;
#BANNER:U Got 2 Know-banner.png;
#BACKGROUND:U Got 2 Know-bg.png;
#LYRICSPATH:;
#CDTITLE:cdtitle.png;
#MUSIC:U Got 2 Know.mp3;
#OFFSET:-0.128;
#SAMPLESTART:22.777;
#SAMPLELENGTH:15.940;
#SELECTABLE:YES;
#BPMS:0.000=127.000,184.000=63.500,186.000=127.000,198.000=63.500,200.000=127.000;
#STOPS:114.500=0.472
,121.500=0.472
,128.500=0.472
,135.500=0.472
;
#BGCHANGES:0.000=U Got 2 Know.avi=1.000=1=1=0,
242.500=U Got 2 Know-bg.png=1.000=0=0=1,
99999=-nosongbg-=1.000=0=0=0 // don't automatically add -songbackground-
;

//---------------dance-single - ----------------
#NOTES:
     dance-single:
     :
     Beginner:
     3:
     0.144,0.151,0.130,0.000,0.000: // measure 1
0000
0000
0000
0000
,  // measure 2
0000
0000
0000
0000
,  // measure 3
0000
0000
0000
0000
,  // measure 4
0000
0000
0000
0000
,  // measure 5
1001
0000
0000
0000
,  // measure 6
0100
0000
0010
0000
,  // measure 7
0010
0000
0000
0000
,  // measure 8
1000
0000
0000
0000
,  // measure 9
0110
0000
0000
0000
,  // measure 10
0001
0000
0100
0000
,  // measure 11
0100
0000
0000
0000
,  // measure 12
0010
0000
0000
0000
,  // measure 13
1001
0000
0100
0000
,  // measure 14
1000
0000
1000
0000
,  // measure 15
0001
0000
0100
0000
,  // measure 16
0010
0000
0010
0000
,  // measure 17
1000
0000
0001
0000
,  // measure 18
1000
0000
1000
0000
,  // measure 19
0100
0000
0010
0000
,  // measure 20
0001
0000
1000
0000
,  // measure 21
0010
0000
0010
0010
,  // measure 22
0000
1000
1000
1000
,  // measure 23
0000
0100
0100
0100
,  // measure 24
0000
0010
0010
0010
,  // measure 25
0000
0001
0001
0001
,  // measure 26
0000
1000
1000
1000
,  // measure 27
0000
0010
0010
0010
,  // measure 28
0000
0100
0000
0000
,  // measure 29
1001
0000
0000
0000
0000
1001
0000
0000
,  // measure 30
0000
0000
0000
1001
,  // measure 31
0000
0000
0000
1001
0000
0000
0000
0000
,  // measure 32
0000
0000
0110
0000
,  // measure 33
0000
0110
0000
0000
0000
0000
0000
0000
,  // measure 34
0000
0000
0110
0000
0000
0000
0000
0110
,  // measure 35
0000
0000
0000
0000
,  // measure 36
1001
0000
0100
0000
,  // measure 37
0010
0000
0010
0000
,  // measure 38
0001
0000
1000
0000
,  // measure 39
0010
0000
0000
0000
,  // measure 40
0110
0000
1000
0000
,  // measure 41
0100
0000
0100
0000
,  // measure 42
0010
0000
0001
0000
,  // measure 43
1000
0000
0000
0000
,  // measure 44
1001
0000
0100
0100
,  // measure 45
0000
0000
0010
0010
,  // measure 46
0000
0000
0001
0001
,  // measure 47
0001
0000
0000
0000
,  // measure 48
1000
1000
0000
0000
,  // measure 49
0010
0010
0000
0000
,  // measure 50
0100
0100
0100
0000
,  // measure 51
0000
0000
0001
0000
,  // measure 52
1000
0000
0100
0000
,  // measure 53
1000
0000
0001
0000
,  // measure 54
0100
0100
0100
0000
,  // measure 55
0010
0000
0010
0000
,  // measure 56
1000
0000
0001
0000
,  // measure 57
1000
0000
0100
0000
,  // measure 58
0010
0000
0000
0000
,  // measure 59
1001
0000
0000
0000
;

//---------------dance-single - ----------------
#NOTES:
     dance-single:
     :
     Medium:
     9:
     0.423,0.458,0.528,0.052,0.000: // measure 1
0000
0000
0000
0000
,  // measure 2
0000
0000
0000
0000
,  // measure 3
0000
0000
0000
0000
,  // measure 4
0000
0000
0000
0000
,  // measure 5
1000
0001
0100
0100
,  // measure 6
0010
0000
0100
0000
0001
0010
0100
0000
,  // measure 7
1000
0001
1000
1000
,  // measure 8
1010
0101
1000
0001
,  // measure 9
0011
1001
0100
1000
,  // measure 10
0010
0000
0010
0000
0100
0001
1000
0000
,  // measure 11
0110
0000
1001
0000
0100
0000
0001
1000
,  // measure 12
0100
0000
1000
0001
,  // measure 13
0110
0000
1000
0001
1000
0000
0001
0000
,  // measure 14
0110
0000
0001
1000
0001
0000
1000
0000
,  // measure 15
0110
0000
1000
0001
1000
0000
0001
0000
,  // measure 16
0110
0000
0001
1000
0001
0000
1000
0000
,  // measure 17
1100
0011
0101
1010
,  // measure 18
1100
0011
0101
1010
,  // measure 19
1100
0011
0101
1010
,  // measure 20
1100
0011
0101
1010
,  // measure 21
0001
0010
1000
0100
0001
0010
1000
0100
,  // measure 22
0001
0010
1000
0100
0001
0010
1000
0100
,  // measure 23
0001
0010
1000
0100
0001
0010
1000
0100
,  // measure 24
0001
0010
1000
0100
0001
0010
1000
0000
,  // measure 25
1001
0110
1001
0110
,  // measure 26
1001
0110
1001
0110
,  // measure 27
1001
0110
1001
0110
,  // measure 28
1001
0110
1001
0110
,  // measure 29
1001
0000
0000
0000
0000
1001
0010
0000
,  // measure 30
1000
0000
0100
0001
0010
0000
1001
0000
,  // measure 31
0000
0000
0000
1001
0100
0000
0001
0000
,  // measure 32
0100
1000
0010
0000
1001
0000
0000
0000
,  // measure 33
0000
1001
0010
0000
1000
0000
0100
0010
,  // measure 34
0001
0000
1001
0000
0000
0000
0000
1001
,  // measure 35
0101
1100
0011
1010
,  // measure 36
0100
0100
0010
0010
,  // measure 37
0100
0010
0100
0000
0010
0000
0110
0000
,  // measure 38
1000
1000
0001
0001
,  // measure 39
1000
0000
0001
0000
1000
0001
1000
0000
,  // measure 40
1100
0011
0101
1010
,  // measure 41
0001
0000
1000
0000
0010
0100
0010
0000
,  // measure 42
2000
3100
0002
0103
,  // measure 43
2002
0000
0000
3003
,  // measure 44
0001
0010
1000
0100
0001
0010
1000
0100
,  // measure 45
0001
0010
1000
0100
0001
0010
1000
0100
,  // measure 46
0001
0010
1000
0100
0001
0010
1000
0100
,  // measure 47
0001
0000
0000
0000
1000
0010
0001
0100
,  // measure 48
1000
0010
0001
0100
1000
0010
0001
0100
,  // measure 49
1000
0010
0001
0100
1000
0010
0001
0100
,  // measure 50
1000
0010
0001
0100
1000
0000
0000
0000
,  // measure 51
0001
0100
0001
0000
0100
1000
0100
0000
,  // measure 52
1000
0010
1000
0000
0010
0001
0010
0000
,  // measure 53
0001
0100
0001
0000
0100
1000
0100
0000
,  // measure 54
1000
0010
1000
0000
0010
0001
0010
0000
,  // measure 55
0010
1000
0010
0000
1000
0100
1000
0000
,  // measure 56
0100
0001
0100
0000
0001
0010
0001
0000
,  // measure 57
0010
1000
0010
0000
1000
0100
1000
0000
,  // measure 58
0100
0001
0100
0000
0001
0010
0001
0000
,  // measure 59
2002
0000
0000
3003
;

//---------------dance-single - ----------------
#NOTES:
     dance-single:
     :
     Hard:
     11:
     0.553,0.534,0.121,0.225,0.165:
0000
0000
0000
0000
,
0000
0000
0000
0000
,
0000
0000
0000
0000
,
0000
0000
0000
0000
,
0100
0001
1000
1000
0010
1000
0001
0010
,
0001
1000
0010
0100
0001
0001
1000
0000
,
0001
0010
0100
0010
0001
1000
0010
0010
,
0100
0000
0000
0000
0001
0000
0000
1000
0000
0000
0100
0000
0000
0000
0010
0000
,
0001
1000
0100
1000
0010
0100
1000
0100
,
0001
1000
0100
0010
0001
0001
1000
0000
,
0010
0100
0001
0100
0010
1000
0100
0010
,
0001
0000
0000
0000
1000
0000
0000
0000
0001
0000
0100
0000
0010
0100
0010
0100
,
0001
0000
1000
0000
0020
0000
0000
2030
0000
0000
3002
0000
0000
0000
0013
0000
,
0100
0000
0010
0000
0002
0000
0000
2003
0000
0000
3200
0000
0000
0000
1300
0000
,
0010
0000
0100
0000
0002
0000
0000
2003
0000
0000
3020
0000
0000
0000
0130
0000
,
1000
0000
0100
0000
0002
0000
0000
0023
0000
0000
0230
0000
0000
0000
1300
0000
,
0010
0000
1000
0000
0001
0000
0100
0010
0000
0000
0200
0000
0000
0000
0301
0000
,
0100
0000
0010
0000
1000
0000
0001
0010
0000
0000
0200
0000
0000
0000
1300
0000
,
0010
0000
1000
0000
0001
0000
0100
0010
0000
0000
0200
0000
0000
0000
0301
0000
,
0010
0000
0100
0000
1000
0000
0001
0100
0000
0000
0020
0000
0000
0000
0130
0000
,
0001
0000
1000
0000
0001
0000
0100
0010
0000
0010
1000
0000
0100
0000
1000
0000
,
0010
0000
0100
0000
0001
0000
1000
0010
0000
0010
0100
0000
0001
0000
0010
0000
,
0100
0000
1000
0000
0001
0000
0100
0010
0000
0010
0100
0000
0001
0000
0010
0000
,
0100
0000
1000
0000
0010
0000
0100
0001
0000
0001
1000
0000
0001
0000
0100
0000
,
0010
0000
1000
0000
0100
0000
0010
0001
0000
1000
0001
0000
0100
0000
0010
0000
,
1000
0000
0001
0000
0010
0000
0100
1000
0000
0010
1000
0000
0100
0000
0010
0000
,
0001
0000
1000
0000
0010
0000
0100
0001
0000
0100
0010
0000
1000
0000
0100
0000
,
0010
0000
0001
0000
1000
0000
0010
0100
0000
0010
1000
0000
0100
0000
0010
0000
,
1001
0000
0100
0010
1000
0101
0010
0100
,
1000
0001
0100
0010
1000
0000
0110
0000
,
1000
0000
0001
0000
0010
0000
1100
0000
0001
0000
1000
0000
0010
0100
0010
0000
,
1000
0000
0001
0000
0100
0000
0000
0000
2020
0000
0000
0000
3030
0000
0010
1000
,
0010
1010
0100
1000
0010
1000
0100
0010
,
0001
0000
0000
0000
0202
0000
0000
0000
0303
0000
0001
0100
0001
0000
0101
0000
,
1100
1001
0101
1001
,
0010
1000
0100
1000
0010
0100
0001
0010
,
1000
0010
0001
1000
0100
1000
0001
0000
,
1000
0010
1000
0001
0010
0001
1000
0010
,
0100
0000
0000
0000
0001
0000
0000
1000
0000
0000
0100
0000
0000
0000
0010
0000
,
0001
1000
0010
0100
1000
0100
0001
0010
,
0100
0010
0001
1000
0010
1000
0001
0000
,
0100
0001
1000
0100
0001
0100
1000
0001
,
0200
0010
0301
1001
,
0010
1000
0001
0100
1000
0100
0001
0010
,
0001
1000
0100
0010
0001
1000
0010
0001
,
0010
0100
0001
0001
0010
0001
1000
0001
,
0200
0000
0000
0000
0310
1000
0100
1000
,
0001
0010
0001
1000
0010
0100
1000
0100
,
0001
0010
1000
0010
0001
1000
0100
0010
,
0001
1000
0010
0001
0020
0000
2030
0000
,
3100
0010
0001
1000
0010
1000
0001
0100
,
0010
0100
0010
0000
0100
0000
0001
0000
0010
0000
0100
0000
0010
0000
0001
0000
,
1000
0100
1000
0000
0010
0000
1000
0000
0001
0000
0100
0000
0010
0000
1000
0000
,
0001
0100
0001
0000
1000
0000
0001
0000
0100
0000
0010
0000
1000
0000
0001
0000
,
0010
0100
0010
0000
0001
0000
1000
0000
0100
0000
0100
0000
1000
0000
0010
0000
,
0100
0010
0100
0000
0001
0000
0100
0000
0010
0000
1000
0000
0001
0000
0001
0000
,
1000
0100
1000
0000
0010
0000
1000
0000
0001
0000
0001
0000
0010
0000
0100
0000
,
0010
0001
0010
0000
0001
0000
1000
0000
0010
0000
0010
0000
1000
0000
0100
0000
,
2002
0000
0000
3003
;

//---------------dance-single - ----------------
#NOTES:
     dance-single:
     :
     Challenge:
     15:
     0.770,0.789,0.251,0.139,0.779:
0000
0000
0000
0000
,
0000
0000
0000
0000
,
0000
0000
0000
0000
,
0000
0000
0000
0000
,
1001
0000
0100
0000
0010
1000
0100
0000
1000
0000
0010
0000
0100
0000
0100
0000
,
0001
0000
1000
0000
0010
0000
1000
0000
0001
0010
0001
0000
1000
0000
0000
0000
,
1010
0000
1000
0000
0001
0000
0100
0000
0010
0100
0001
0000
0100
0000
0010
0000
,
1000
0000
0001
0000
0010
0000
0100
1000
0000
1000
0010
0000
0100
0000
0110
0000
,
1001
0000
0100
0000
0010
1000
0100
0000
1000
0000
0010
0000
0100
0001
0100
0000
,
0010
0000
1000
0100
1000
0000
0001
0100
0001
0000
1000
0000
0001
1000
0010
0000
,
0100
0000
0001
0000
1000
0010
1000
0000
0001
0000
0010
0000
0100
0000
1000
0000
,
0101
0000
0000
0000
0000
0000
0000
0000
1000
0100
1000
0000
0001
0100
0001
0100
,
0010
1000
0001
0010
0100
1000
0110
1000
,
0001
0010
0100
1000
0010
0100
1001
0010
,
0001
1000
0010
0100
0001
1000
0101
1000
,
0010
0100
0001
1000
0010
0100
1010
0100
,
0001
0000
1000
0000
0001
0100
0001
1000
0001
0000
0100
0000
1010
0000
0100
0000
,
0001
0000
0010
0000
0100
1000
0100
0010
0100
0000
1000
0000
1100
0000
1000
0000
,
0010
0000
0100
0000
0010
1000
0010
0100
0010
0000
1000
0000
1010
0000
1000
0000
,
0001
0000
0010
0000
0001
1000
0001
0100
0001
0000
1000
0000
0101
0000
1000
0000
,
0010
0000
0100
0000
0001
0100
0001
1000
0100
1000
0001
0000
0020
0000
0031
0000
,
1000
0000
0010
0000
0100
0001
1000
0100
1000
0001
0100
0000
0020
0000
1030
0000
,
0001
0000
0100
0000
0001
0010
0001
1000
0010
1000
0001
0000
2000
0000
3001
0000
,
0110
0000
0110
0000
1000
0010
1000
0001
0100
0001
1000
0000
0200
0000
1300
0000
,
0010
0000
0100
0000
0001
0100
0010
1000
0100
0010
0001
1000
0010
0000
0100
0000
,
0001
0000
1000
0000
0010
1000
0100
1000
0010
0100
0001
0010
0100
0000
0010
0000
,
0001
0000
1000
0000
0010
0100
0001
0100
0010
1000
0100
0010
0001
0000
1000
0000
,
1010
0001
1001
0100
0101
1000
1100
0001
,
1002
0000
0100
0000
0013
0000
1000
0100
0010
0001
1000
0000
0001
0000
0100
0000
,
1000
0000
0100
0000
0001
0000
0010
0100
0010
0000
0001
0000
2001
0000
0100
0000
,
3010
0000
0001
0010
0100
1000
0001
0000
0100
0000
0010
0000
1000
0100
0010
0000
,
0001
1000
0000
1000
0001
0000
1000
0000
0120
0000
1000
0000
0130
0000
0001
0010
,
0100
1000
0001
0000
0100
0000
0010
0000
1000
0100
1000
0000
0010
0000
1000
0100
,
0010
0000
0001
0000
0210
0000
0001
0000
0310
0000
1000
0100
0010
0001
0100
0000
,
0001
0010
0001
0000
1000
0010
1000
0000
0001
0000
0100
0000
2002
0000
0003
0000
,
3010
0100
0010
1000
0000
0001
0000
0000
0100
0010
0100
0001
0000
0000
1000
0100
,
0010
0001
0100
0010
1000
0001
0100
0001
1000
0000
0001
0010
0000
0000
0000
1000
,
0100
0010
0000
0001
0100
0010
1000
0100
1000
0100
0010
0001
1000
0000
0000
0000
,
0101
0000
0000
0000
1001
0000
0000
1100
0000
0000
1001
0000
0000
0000
1010
0000
,
0001
0100
0010
1000
0001
1000
0100
0010
0001
1000
0010
0100
0010
0000
0000
0000
,
1000
0100
0010
0001
0000
0100
0010
1000
0001
0010
0001
0000
1000
0000
0000
0000
,
0001
0010
0001
0100
0001
1000
0001
0000
0000
0000
1000
0100
0010
0001
1000
0010
,
0100
0000
0100
0000
0001
1000
0001
0000
1000
0100
1000
0000
0002
0000
0000
0000
,
0103
0000
0010
0000
1000
0100
0000
0010
0001
0000
1000
0010
0000
0100
0001
0000
,
1000
0000
0001
0000
0010
0100
0000
0010
0001
0000
1000
0100
0000
0010
0001
0000
,
1000
0000
0010
0000
0100
0001
0000
1000
0010
0000
0100
0001
0000
0010
0100
0000
,
2000
0100
0100
0100
0100
0100
3100
0000
0001
0000
1000
0000
0010
0100
0000
0001
,
0010
0000
0100
1000
0000
0010
0100
0000
0001
0000
1000
0000
0010
1000
0000
0001
,
0100
0000
0001
0010
0000
0100
1000
0000
0001
0000
1000
0000
0010
0100
0000
0001
,
0010
0000
0100
1000
0000
0010
0100
0000
0002
1000
1000
2003
0000
0010
3020
0000
,
0130
0001
1000
0001
0100
0010
1000
0100
0010
0001
1000
0010
0100
0000
0001
0000
,
1000
0100
1000
0001
0010
0001
1000
0010
0100
0001
1000
0010
0100
0000
0001
0000
,
1000
0100
1000
0100
0010
0001
0010
0001
1000
0001
1000
0001
0100
0000
0010
0000
,
0100
0001
0100
0001
1000
0010
1000
0010
0100
0001
0100
0001
1000
0000
0001
0000
,
0010
0100
0010
0001
1000
0010
0100
0001
0010
0100
0010
0001
1000
0000
0010
0000
,
1000
0100
0010
0001
1000
0010
0100
0001
0100
0010
1000
0100
0010
0000
0001
0000
,
0100
0001
0100
0001
1000
0100
1000
0100
0010
0001
0010
0001
1000
0000
0010
0000
,
0100
0001
1000
0100
0010
0001
1000
0010
0100
0001
0010
0100
0010
0001
1000
0010
,
0200
0000
0000
0300
;

//---------------dance-single - ----------------
#NOTES:
     dance-single:
     :
     Easy:
     5:
     0.234,0.251,0.173,0.052,0.000: // measure 1
0000
0000
0000
0000
,  // measure 2
0000
0000
0000
0000
,  // measure 3
0000
0000
0000
0000
,  // measure 4
0000
0000
0000
0000
,  // measure 5
1000
0000
0001
0000
,  // measure 6
0100
0010
0010
0000
,  // measure 7
0100
0000
0001
0000
,  // measure 8
1001
0000
0110
0000
,  // measure 9
1001
0000
0100
0000
,  // measure 10
1000
0010
0010
0000
,  // measure 11
1000
0000
0001
0000
,  // measure 12
2002
0000
0000
3003
,  // measure 13
0010
1000
0100
0100
,  // measure 14
0010
0001
0100
0100
,  // measure 15
0010
1000
0100
0100
,  // measure 16
0010
0001
0100
0000
,  // measure 17
0001
1000
0010
0010
,  // measure 18
1000
0001
0010
0010
,  // measure 19
0001
1000
0010
0010
,  // measure 20
1000
0001
0010
0000
,  // measure 21
0100
0000
1000
0001
,  // measure 22
0100
0000
0010
1000
,  // measure 23
0001
0000
0010
0001
,  // measure 24
0100
0000
0010
0100
,  // measure 25
0001
0000
0010
0100
,  // measure 26
1000
0000
0010
1000
,  // measure 27
0001
0000
0100
0001
,  // measure 28
1000
0000
0100
0000
,  // measure 29
1001
0000
0000
0000
0010
0010
1000
0000
,  // measure 30
0001
0100
0000
1001
,  // measure 31
0000
0000
0100
0100
0010
0000
0001
0000
,  // measure 32
1000
0000
1001
0000
,  // measure 33
1000
1000
0010
0000
1000
0000
0001
0000
,  // measure 34
0000
0000
1001
0000
0000
0000
0001
0001
,  // measure 35
0100
0001
1000
0000
,  // measure 36
0010
1000
0000
0001
,  // measure 37
0000
1000
0000
0100
,  // measure 38
0010
0100
0000
0010
,  // measure 39
1001
0000
1001
0000
,  // measure 40
0110
0000
1000
0001
,  // measure 41
0100
0000
0010
0010
,  // measure 42
0010
0000
0100
0000
,  // measure 43
2002
0000
0000
3003
,  // measure 44
0010
1000
0010
0010
,  // measure 45
0100
0001
0100
0100
,  // measure 46
0001
1000
0001
0001
,  // measure 47
2000
0000
3010
0100
,  // measure 48
0010
0010
1000
0100
,  // measure 49
1000
1000
0001
0100
,  // measure 50
0001
0001
0020
0000
,  // measure 51
0130
0000
1001
0010
,  // measure 52
0000
0100
1001
0100
,  // measure 53
0100
0000
0001
0010
,  // measure 54
0010
0001
0000
0110
,  // measure 55
0000
0110
0000
1000
,  // measure 56
0100
0100
0000
1001
,  // measure 57
0100
0100
0010
0000
,  // measure 58
0110
0100
0000
0110
,  // measure 59
1001
0000
0000
0000
;
