#TITLE:The Devil;
#SUBTITLE:;
#ARTIST:Banya Production;
#TITLETRANSLIT:;
#SUBTITLETRANSLIT:;
#ARTISTTRANSLIT:;
#CREDIT:;
#BANNER:The Devil-banner.png;
#BACKGROUND:The Devil-bg.png;
#LYRICSPATH:;
#CDTITLE:cdtitle.png;
#MUSIC:The Devil.mp3;
#OFFSET:-0.076;
#SAMPLESTART:43.130;
#SAMPLELENGTH:11.960;
#SELECTABLE:YES;
#BPMS:0.000=130.000,36.000=140.000,68.000=150.000,100.000=160.000,132.000=170.000,164.000=180.000,196.000=190.000,212.000=200.000,228.000=210.000,244.000=220.000,260.000=230.000,268.000=240.000;
#STOPS:;
#BGCHANGES:-0.700=The Devil.avi=1.000=1=1=0,
99999=-nosongbg-=1.000=0=0=0 // don't automatically add -songbackground-
;

//---------------dance-single - ----------------
#NOTES:
     dance-single:
     :
     Beginner:
     2:
     0.137,0.200,0.020,0.000,0.000:
0000
0000
0000
0000
,
0000
0000
0000
0000
,
0000
0000
0000
0000
,
0000
0000
0000
0000
,
0000
0000
0000
0000
,
0100
0000
0000
0000
,
0001
0000
0000
0000
,
1000
0000
0000
0000
,
0100
0000
0100
0000
,
0100
0000
0000
0000
,
1000
0000
0000
0000
,
0001
0000
0000
0000
,
0100
0000
0100
0000
,
0100
0000
0000
0000
,
0001
0000
0000
0000
,
1000
0000
0000
0000
,
0010
0000
0010
0000
,
0010
0000
0000
0000
,
1000
0000
0000
0000
,
0001
0000
0000
0000
,
0010
0000
0010
0000
,
0100
0000
0000
0000
,
1000
0000
0000
0000
,
0001
0000
0000
0000
,
0100
0000
0100
0000
,
0010
0000
0000
0000
,
1000
0000
1000
0000
,
1000
0000
0000
0000
,
0001
0001
0001
0000
,
0001
0000
0000
0000
,
0100
0000
0100
0000
,
0100
0000
0000
0000
,
0010
0010
0010
0000
,
0010
0000
0000
0000
,
1000
0000
1000
0000
,
0001
0000
0000
0000
,
0100
0100
0100
0000
,
0100
0000
0000
0000
,
0001
0000
0001
0000
,
0010
0000
0000
0000
,
0001
0001
0001
0000
,
1000
0000
0000
0000
,
0010
0000
0000
0000
,
1000
0000
1000
0000
,
0001
0000
0001
0000
,
0010
0000
0000
0000
,
0001
0000
0000
0000
,
1000
0000
0000
0000
,
0010
0010
0010
0000
,
0100
0100
0000
0000
,
0001
0001
0000
0000
,
1001
0000
0000
0000
,
0000
0000
0000
0000
,
0010
0000
0000
0000
,
1000
0000
0001
0000
,
0100
0000
0000
0000
,
0001
0001
0001
0000
,
0001
0000
0000
0000
,
0010
0000
0100
0000
,
1000
0000
0000
0000
,
0010
0010
0010
0000
,
1000
1000
0000
0000
,
0001
0001
0000
0000
,
0100
0000
0000
0000
,
0010
0000
0000
0000
,
1001
0000
0000
0000
,
0100
0000
0000
0000
,
0010
0000
0010
0000
,
0010
0000
0010
0000
;

//---------------dance-single - ----------------
#NOTES:
     dance-single:
     :
     Medium:
     8:
     0.440,0.474,0.224,0.283,0.000:
0000
0000
0000
0000
,
0000
0000
0000
0000
,
0000
0000
0000
0000
,
0000
0000
0000
0000
,
0000
0000
0000
0000
,
1000
0000
0001
0000
0100
0010
0100
0000
,
0001
0100
0001
0000
1000
0100
1000
0000
,
0001
0000
1000
0000
0010
0100
0010
0000
,
1000
0100
0010
0000
2002
0000
3003
0000
,
0010
0000
1000
0000
0001
0100
0001
0000
,
1000
0100
1000
0000
0001
1000
0001
0000
,
0100
0000
0010
0000
1000
0100
1000
0000
,
0001
0010
0001
0000
0200
0000
0000
0000
,
0301
0000
1000
0000
0100
1000
0100
0000
,
1000
0001
1000
0000
0010
0100
0010
0000
,
1000
0000
0001
0000
0010
0100
0010
0000
,
0001
0100
0001
0000
2000
0000
0000
0000
,
3001
1000
0100
0100
,
1000
1100
0001
0101
,
1000
0001
0100
0010
,
1000
0010
0100
0010
2000
0000
0000
0000
,
3001
0020
0030
0002
,
0003
2000
3000
0020
,
0030
0200
0302
2003
,
3200
0320
0032
2003
,
3010
0000
0100
0000
0001
0001
0001
0000
,
0100
0000
1000
0000
0010
0010
0010
0000
,
0100
0000
0001
0000
1000
1000
1000
0000
,
0100
0010
0001
0010
0200
0000
0000
0000
,
1300
0000
0010
0000
0100
0100
0100
0000
,
0001
0000
1000
0000
0001
0001
0001
0000
,
0010
0000
0001
0000
1000
1000
1000
0000
,
0010
0100
0001
0100
0020
0000
0000
0000
,
1030
0001
1100
0101
,
1000
0001
1010
0011
,
1000
0001
1000
0000
0010
0100
0010
0000
,
0100
0001
0100
0000
0020
0000
0000
0000
,
1030
0001
1000
0100
,
0010
0000
0001
0000
1000
0010
0100
0001
,
1000
0010
0100
0001
,
0010
0100
0010
0000
0002
0000
0000
0000
,
1003
0010
1010
1010
,
0001
0101
1000
1100
,
0001
0010
0011
0011
,
0100
0000
0001
1000
0002
0000
0000
0000
,
0103
0010
1010
1010
,
0100
1100
0001
1001
,
0100
0000
0001
0000
0010
0100
0010
0000
,
0001
1000
0001
1000
0001
0000
0000
0000
,
0100
1001
0000
0000
,
0010
1001
0000
0000
,
1000
0100
0010
0001
,
2000
3200
0320
0032
,
0103
0010
1000
0000
,
0001
0001
1000
1000
,
0100
0010
0001
0000
,
1000
0001
0220
0330
,
0001
0100
0010
0010
,
1000
1000
0100
0000
,
1000
0100
0010
0010
,
0001
1000
0001
0000
,
0100
1001
0000
0000
,
0010
1001
0000
0000
,
1000
0000
0001
0000
,
0100
0010
1000
0000
,
0001
0100
0001
0010
,
0001
1000
0001
0001
,
1000
0100
1000
0010
,
1000
0001
1000
1000
,
0000
0000
2002
3003
0000
0000
0000
0000
;

//---------------dance-single - ----------------
#NOTES:
     dance-single:
     :
     Hard:
     12:
     0.644,0.575,0.127,0.351,0.039:
0000
0000
0000
0000
,
0000
0000
0000
0000
,
0000
0000
0000
0000
,
0000
0000
0000
0000
,
0000
0000
0000
0000
,
1000
0100
1000
0100
0010
0010
0010
0000
,
0001
0001
0001
0000
0100
0100
0100
0000
,
0010
1000
0010
1000
0001
0100
0001
0100
,
0010
1000
0001
0010
0200
0000
0000
0000
,
1300
0001
1000
0001
0100
0100
0100
0000
,
0010
0010
0010
0000
1000
1000
1000
0000
,
0001
0010
0001
0010
0100
0100
0100
0000
,
1000
1000
1000
0000
0002
0000
0000
0000
,
1003
0010
1000
0001
1000
0100
1000
0000
,
0001
1000
0100
0000
1000
0001
0100
0000
,
0001
0100
0001
0010
0001
1000
0001
0000
,
0100
0010
1000
0000
0200
0000
0000
0000
,
0310
0001
1000
0001
0100
0001
2000
0000
,
3100
1000
0020
0000
0130
0001
0020
0000
,
0130
1000
0001
1000
0010
0100
0010
1000
,
0100
0010
0001
1000
0020
0000
0030
0000
,
1000
0102
0003
2010
,
3000
0210
0300
0021
,
0030
1100
0011
1100
,
0101
1010
1001
0110
,
0001
0100
0010
1000
0100
0010
0002
0000
,
0103
0010
2000
0000
3100
0010
0002
0000
,
0103
0010
0100
0001
0010
1000
0010
0001
,
0100
0010
1000
0100
0020
0000
0031
0000
,
1000
0010
0100
0001
0010
0100
2000
0000
,
3010
0100
0002
0000
0013
0100
2000
0000
,
3010
0100
0010
1000
0100
0001
0100
1000
,
0010
0100
0001
0010
0200
0000
1300
0000
,
0001
0100
1000
0100
0001
1000
0001
0000
,
1000
0100
1000
0000
0001
0010
0001
0000
,
1000
0010
0001
0010
1000
0001
1000
0000
,
0001
0010
0001
0000
0200
0000
0000
0000
,
0301
0010
1000
0010
0001
1000
0001
0000
,
1000
0100
1000
0000
0001
0010
0100
1000
,
0010
0100
0010
1000
0100
0010
0002
0000
,
1003
0001
0200
0000
0020
0000
0330
0000
,
0001
1000
0010
0100
0001
0010
0200
0000
,
1300
0010
0200
0000
0301
0010
0200
0000
,
1300
0010
0100
0001
0010
0001
1000
0010
,
0100
0001
0010
0001
2000
0000
3001
0000
,
1000
0010
0100
0001
1000
0001
0020
0000
,
0031
1000
0020
0000
1030
0001
0020
0000
,
0031
0100
0010
0100
0001
0010
1000
0010
,
0001
0100
0010
1000
0200
0000
0000
0000
,
0310
0001
0010
0001
0010
0000
0000
0000
0001
0000
1000
0000
0001
0000
0000
0000
,
1000
0100
1000
0100
1000
0000
0000
0000
0001
0000
1000
0000
0001
0000
0000
0000
,
0100
0010
1000
0100
0010
0001
0100
0010
,
1000
0100
0010
0001
2000
0000
0000
0000
,
3100
0010
0100
0010
0001
1000
0001
0000
,
1000
0100
1000
0000
0001
0100
0001
0000
,
0100
0010
0100
0010
1000
0001
1000
0100
,
0010
0001
0100
0010
1000
0000
1001
0000
,
0010
0100
0010
0100
1000
0001
1000
0000
,
0001
0010
0001
0000
1000
0010
1000
0000
,
0010
0100
0010
0100
0001
1000
0001
0010
,
0100
1000
0010
0100
0002
0000
0000
0000
,
1003
0100
1000
0100
1000
0000
0000
0000
0010
0000
1000
0000
0001
0000
0000
0000
,
0100
0001
0100
0001
0100
0000
0000
0000
0001
0000
1000
0000
0100
0000
0000
0000
,
0010
0001
1000
0010
0100
0010
1000
0100
,
0010
0001
1000
0010
0200
0000
0000
0000
,
0301
0100
0010
1000
0100
0010
0001
1000
,
0010
1000
0001
0010
0100
0010
0001
1000
,
0010
0001
0010
1000
0100
0001
0100
1000
,
0010
0100
0001
0010
0100
1000
0001
0100
,
0010
0000
2002
3003
0000
0000
0000
0000
;

//---------------dance-single - ----------------
#NOTES:
     dance-single:
     :
     Challenge:
     16:
     0.840,0.913,0.107,0.458,0.458: // measure 1
0000
0000
0000
0000
,  // measure 2
0000
0000
0000
0000
,  // measure 3
0000
0000
0000
0000
,  // measure 4
0000
0000
0000
0000
,  // measure 5
0000
0000
0000
0000
,  // measure 6
1000
0001
0200
0010
0310
0100
0002
0000
,  // measure 7
0013
0100
2000
0000
3010
1000
0002
0000
,  // measure 8
0103
0010
2000
0100
3100
1000
0020
0100
,  // measure 9
0130
0001
2000
0010
3200
0000
0010
0000
,  // measure 10
0310
0001
1000
0010
0100
0001
2000
0000
,  // measure 11
3001
1000
0020
0000
0130
0001
0020
0000
,  // measure 12
0031
0100
0010
1000
0100
0010
0002
0000
,  // measure 13
0103
0000
0010
0000
2000
0000
0000
0000
3001
0000
1000
0100
1000
0010
0100
0001
,  // measure 14
1000
1000
0010
0010
0100
0001
0020
0000
,  // measure 15
0130
0010
0002
0000
0103
0010
2000
0000
,  // measure 16
3001
0001
1000
1000
0010
1000
0002
0000
,  // measure 17
0013
0000
0100
0000
2000
0000
0000
0000
3001
0000
1000
0100
1000
0010
0100
0001
,  // measure 18
1000
0000
0001
0000
0010
0000
0100
0010
0001
0000
0001
0000
2000
0000
0000
0000
,  // measure 19
3001
0000
0100
0000
0010
1000
0010
0000
0100
0000
0001
0000
2000
0000
0000
0000
,  // measure 20
3100
0000
0100
0000
0010
0000
0001
1000
0100
0000
1000
0000
0002
0000
1000
0000
,  // measure 21
0103
0000
0010
0000
1000
0100
1000
0000
0001
0000
0100
0000
0010
1000
0010
1000
,  // measure 22
0001
0000
0010
0000
0100
0010
0001
1000
0010
0000
0000
0000
1000
0100
0010
0001
,  // measure 23
1000
0000
0000
0000
0001
0100
0010
1000
0001
0000
0000
0000
1000
0100
0010
0001
,  // measure 24
1000
0000
0000
0000
0001
0010
0100
1000
0100
0010
0001
0010
0100
1000
0100
0010
,  // measure 25
0001
0100
0010
1000
0010
0100
0001
0100
0010
1000
0010
0100
0001
1000
0100
0010
,  // measure 26
0001
0100
0010
1000
0100
0010
1001
0000
,  // measure 27
0010
0000
1000
0000
0101
0000
0000
0000
0010
0000
0001
0000
1100
0000
0001
0100
,  // measure 28
0010
1000
0100
1000
0010
0100
0001
0010
,  // measure 29
1000
0000
0010
0000
0001
0000
1000
0000
0010
0100
0010
0100
0001
0100
0001
0100
,  // measure 30
0010
1000
0100
0010
0001
1000
0110
0000
,  // measure 31
0001
0000
0100
0000
1010
0000
0000
0000
1000
0000
0100
0000
0011
0000
1000
0100
,  // measure 32
0010
0001
1000
0010
1000
0001
0100
0010
,  // measure 33
0100
0000
0001
0000
0010
0000
0100
0000
2000
0000
0000
0000
3001
0100
0001
0100
,  // measure 34
0010
0000
1000
0000
0100
0000
0010
0000
0001
1000
0010
0000
0200
0000
0000
0000
,  // measure 35
0301
0010
0200
0000
1300
0010
0200
0000
,  // measure 36
0301
0000
1000
0000
0010
0000
0100
0000
0001
0010
0100
0000
1000
0000
0010
0000
,  // measure 37
1000
0000
0001
0000
0010
0000
0000
0000
0002
0000
0000
0000
1003
0100
1000
0100
,  // measure 38
0010
0001
1000
0010
0100
0001
2000
0000
,  // measure 39
3001
0000
0010
0000
0200
0000
0000
0000
1300
0000
0001
0100
0010
1000
0010
0100
,  // measure 40
0001
1000
0100
1000
0001
0010
0002
0000
,  // measure 41
0103
0000
0010
0000
2000
0000
0000
0000
3001
0000
1000
0100
1000
0001
0100
0010
,  // measure 42
1000
0100
1000
0010
0100
0001
2000
0000
,  // measure 43
3001
0010
0002
0000
1003
0100
2000
0000
,  // measure 44
3001
0100
0010
0100
0001
0010
0100
0010
,  // measure 45
0001
0000
1000
0000
0010
0000
0100
0000
0001
1000
0001
1000
0010
0100
0001
1000
,  // measure 46
0001
0010
0001
0100
0010
1000
0002
0000
,  // measure 47
1003
0100
2000
0000
3001
0010
0002
0000
,  // measure 48
1003
0010
0100
0010
1000
0100
0010
0100
,  // measure 49
1000
0010
0100
0001
0010
0100
1000
0001
0200
0000
0000
0000
0000
0000
0000
0000
,  // measure 50
0301
1000
0001
1000
0001
0000
0000
0000
0100
0000
0010
0000
1000
0000
0000
0000
,  // measure 51
0100
0010
0100
0010
0100
0000
0000
0000
0010
0000
0001
1000
0001
0000
0100
0000
,  // measure 52
0010
1000
0100
0010
0001
0100
0010
1000
,  // measure 53
0001
0010
0001
0010
0100
1000
0100
1000
0001
0100
0001
0100
0010
1000
0010
1000
,  // measure 54
0001
0100
0110
0100
0001
1000
2010
0000
,  // measure 55
3001
0100
0002
0000
1003
0100
2000
0000
,  // measure 56
3001
0010
0100
1000
0001
0100
0010
1000
,  // measure 57
0001
0000
0010
0000
0100
0000
1000
0000
0001
0100
0001
0100
0010
1000
0010
1000
,  // measure 58
0001
1000
1100
1000
0001
0010
0021
0000
,  // measure 59
0031
0100
0020
0000
1030
0100
2000
0000
,  // measure 60
3001
0100
0010
1000
0100
0010
0001
1000
,  // measure 61
0010
0100
0001
0010
0100
1000
0001
0100
0020
0000
0000
0000
0000
0000
0000
0000
,  // measure 62
1030
0001
1000
0001
1000
0000
0000
0000
0010
0000
1000
0000
0001
0000
0000
0000
,  // measure 63
0100
0010
0100
0010
0100
0000
0000
0000
0001
0000
0010
0100
0010
0000
0001
0000
,  // measure 64
1000
0010
0100
0001
0010
0100
0010
0001
,  // measure 65
1000
0010
0100
0001
2000
0000
0000
0000
,  // measure 66
3001
0100
1000
0100
0001
0010
1000
0010
,  // measure 67
0001
0100
1000
0100
0001
0010
1000
0010
,  // measure 68
0001
0000
0000
0000
1000
0100
1000
0000
0001
0010
0001
0000
1000
0001
1000
0000
,  // measure 69
0010
0100
0010
0000
1000
0100
1000
0000
0001
0010
0001
0000
1000
0100
0010
0001
,  // measure 70
0100
0000
2002
3003
0000
0000
0000
0000
;

//---------------dance-single - ----------------
#NOTES:
     dance-single:
     :
     Easy:
     5:
     0.220,0.304,0.078,0.088,0.000:
0000
0000
0000
0000
,
0000
0000
0000
0000
,
0000
0000
0000
0000
,
0000
0000
0000
0000
,
0000
0000
0000
0000
,
1000
0000
0001
0000
,
0100
0000
0001
0000
,
1000
0000
0010
0000
,
1000
0100
0100
0000
,
0010
0000
0001
0000
,
1000
0000
0010
0000
,
1000
0000
0001
0000
,
0100
0100
0100
0000
,
0000
0002
0003
2000
,
3000
0200
0300
0020
,
0030
0002
0003
2000
,
3000
0020
0030
0200
,
0301
0000
1000
0000
,
0100
0100
0100
0000
,
1000
0000
0001
0000
,
0010
0010
0010
0000
,
0001
0100
0000
0100
,
0010
0100
0000
0100
,
0010
0100
0000
0100
,
0100
0100
0100
0000
,
0001
0000
1000
0000
,
0100
0000
1000
0000
,
0010
0000
1000
0000
,
0001
0001
0001
0000
,
0010
0000
0001
0000
,
1000
0000
1000
0000
,
0010
0000
1000
0000
,
0100
0100
0100
0000
,
0010
0000
0001
0001
,
0000
1000
0000
0010
,
0000
0000
1000
1000
,
0000
0001
0001
0000
,
0110
0000
1000
0000
,
0001
0000
0200
0300
,
0010
0000
0100
0000
,
0001
0001
0001
0000
,
1001
0000
0100
0000
,
1000
0000
1000
0000
,
0001
0000
0100
0000
,
0010
0010
0010
0000
,
1000
0000
0001
0000
,
0010
0000
0010
0000
,
0001
0000
1000
0000
,
0100
0100
0100
0000
,
1001
1001
0000
0000
,
1001
1001
0000
0000
,
0010
0000
0000
0000
,
0000
0000
0000
0000
,
1000
0000
0001
0000
,
0100
0000
0100
0000
,
0001
0000
1000
0000
,
0010
0010
0010
0000
,
1000
0000
0100
0000
,
0010
0000
0010
0000
,
0001
0000
1000
0000
,
0001
0001
0001
0000
,
0000
1001
0000
0000
,
0000
1001
0000
0000
,
0100
0000
0100
0000
,
0010
0000
0010
0000
,
1000
0000
0001
0000
,
0100
0000
0010
0000
,
1000
0000
0100
0000
,
0010
0000
0001
0000
,
1000
1000
0000
0000
;
