#TITLE:Tepris;
#SUBTITLE:;
#ARTIST:Doin;
#TITLETRANSLIT:;
#SUBTITLETRANSLIT:;
#ARTISTTRANSLIT:;
#CREDIT:;
#BANNER:Tepris-bn.png;
#BACKGROUND:Tepris-bg.png;
#LYRICSPATH:;
#CDTITLE:cdtitle.png;
#MUSIC:Tepris.mp3;
#OFFSET:-0.100;
#SAMPLESTART:43.060;
#SAMPLELENGTH:17.980;
#SELECTABLE:YES;
#BPMS:0.000=144.900,112.000=72.450,128.000=144.900,224.000=72.450;
#STOPS:;
#BGCHANGES:0.000=Tepris.avi=1.000=1=0=0,
99999=-nosongbg-=1.000=0=0=0 // don't automatically add -songbackground-
;

//---------------dance-single - ----------------
#NOTES:
     dance-single:
     :
     Beginner:
     1:
     0.149,0.181,0.035,0.121,0.000:
0000
0000
0000
0000
,
0000
0000
0000
0000
,
0000
0000
0000
0000
,
0000
0000
0000
0000
,
0200
0000
0300
0000
,
0002
0000
0003
0000
,
2000
0000
3000
0000
,
0010
0010
0010
0000
,
2000
0000
3000
0000
,
0200
0000
0300
0000
,
0020
0000
0030
0000
,
0001
0001
0001
0000
,
0100
0000
0000
0010
,
0020
0030
2000
3000
,
0100
0000
0100
0000
,
2000
0000
3000
0000
,
0001
0000
0000
0100
,
0100
0000
0001
0000
,
0010
0000
0100
0100
,
0200
0300
0000
0000
,
1001
0000
0100
0000
,
1000
0000
0010
0000
,
0010
0000
1000
0000
,
0001
0000
0001
0000
,
0001
0000
1000
0000
,
0100
0000
0100
0000
,
1000
0000
0001
0000
,
0100
0000
0010
0000
,
1001
0000
0000
0000
,
0100
0100
0100
0000
,
1000
0000
0000
0000
,
0001
0001
0001
0000
,
0200
0000
0000
0000
,
0320
0000
0000
0000
,
1030
0000
1000
0000
,
1000
0000
0000
0000
,
0200
0000
0000
0000
,
0320
0000
0000
0000
,
0031
0000
0001
0000
,
0001
0000
0000
0000
,
0110
0000
1000
0000
,
0001
0000
0100
0000
,
0001
0000
1000
0000
,
0100
0000
0100
0000
,
1000
0000
0001
0000
,
0100
0000
0100
0000
,
0100
0000
0001
0000
,
1000
0000
1000
0000
,
1001
0000
0000
0010
,
0000
0010
0000
0010
,
0010
0000
0000
0100
,
0000
0100
0000
0100
,
0100
0000
0000
0001
,
0000
0001
0000
0001
,
0001
0000
0000
1000
,
0000
1000
0000
1000
,
1000
0000
0000
0000
,
0100
0100
0100
0000
,
0010
0000
0001
0000
,
1000
0000
0010
0010
;

//---------------dance-single - ----------------
#NOTES:
     dance-single:
     :
     Medium:
     8:
     0.434,0.518,0.113,0.806,0.000:
0000
0000
0000
0000
,
0000
0000
0000
0000
,
0000
0000
0000
0000
,
0000
0000
0000
0000
,
2000
3100
0200
0310
,
0020
0031
0002
0103
,
0200
0310
0020
2030
,
3002
0203
0320
0000
,
2030
3100
0020
0031
,
2000
3001
0200
0310
,
2000
3200
0320
0032
,
0100
0100
0200
0303
,
2001
0100
3010
2000
,
3200
0000
0320
0000
,
0032
2003
3020
0230
,
0302
0000
0013
0100
,
0020
0031
1000
0010
,
0200
0000
0320
2030
,
3200
0000
2300
3002
,
0203
0000
0000
0300
,
1002
0000
0000
0103
0100
0000
0010
0000
,
1000
0100
1000
0000
0001
0010
0001
0000
,
2100
0000
0000
3010
0010
0000
1000
0000
,
0001
0100
0001
0000
1000
0100
0010
0000
,
2100
0000
0000
3010
0010
0000
1000
0000
,
0001
0100
0010
0000
1000
0001
0100
0000
,
0012
0000
0000
1000
1003
0000
0100
0000
,
1000
0010
0100
0000
0001
0010
0100
1000
,
0020
2030
3002
0023
,
0032
0000
0203
0010
0320
1000
2030
0000
,
3200
2300
3002
0203
,
0302
0000
2003
0100
3200
0010
0320
0000
,
0032
0000
2003
0000
,
3020
0000
0230
0000
,
0310
1000
0100
0000
0010
1000
0001
0000
,
0100
0000
0001
0000
1000
0100
0010
0000
,
0002
0000
2003
0000
,
3020
0000
0230
0000
,
0301
0100
0010
0000
1000
0100
0010
0000
,
1001
1100
0101
0000
,
0120
0000
0000
0001
0031
0000
1000
0100
,
1000
0001
0100
0001
1000
0000
0000
0000
,
0210
0000
0000
0001
0301
0000
1000
0100
,
1000
0010
0100
0001
1000
0000
0000
0000
,
2100
0000
0000
0010
3010
0000
1000
0001
,
0100
0010
0100
0001
1000
0000
0000
0000
,
0012
0000
0000
1003
1000
0000
0100
1000
,
0010
0100
0001
0010
0100
0000
0000
0000
,
2000
0000
3100
0010
0002
0000
2003
0000
,
3020
0000
0230
0000
0301
0001
0001
0000
,
0020
0000
0031
1000
0200
0000
2300
0000
,
3002
0000
0203
0000
0310
0010
0010
0000
,
2000
0000
0000
0100
3100
0000
1000
0100
,
0010
0001
0010
0100
1000
0000
0000
0000
,
0002
0000
0000
0103
0100
0000
0010
0100
,
0001
0100
0010
0000
1000
0100
0001
0000
,
2100
3020
0230
0302
,
0023
0000
0230
1000
2300
0001
3002
0000
,
0203
0000
0310
1000
0200
0000
1300
0100
,
0020
0000
0032
0000
2003
0100
3001
0000
;

//---------------dance-single - ----------------
#NOTES:
     dance-single:
     :
     Hard:
     13:
     0.627,0.802,0.069,0.658,0.372: // measure 1
0000
0000
0000
0000
,  // measure 2
0000
0000
0000
0000
,  // measure 3
0000
0000
0000
0000
,  // measure 4
0000
0000
0000
0000
,  // measure 5
0200
0000
0310
1000
0002
0000
0013
0100
,  // measure 6
2000
0000
3010
1000
0002
0000
0103
0010
,  // measure 7
2000
0000
3100
1000
0020
0000
0230
0000
,  // measure 8
0302
2003
3002
0000
,  // measure 9
0103
0020
0000
1030
0200
0000
0310
0001
,  // measure 10
2000
0000
0000
3010
0200
0000
0310
1000
,  // measure 11
0200
0000
0310
0001
2000
0000
3002
0000
,  // measure 12
0203
0320
2030
0000
,  // measure 13
3001
0100
0010
0100
0001
0010
0100
1000
,  // measure 14
0010
1000
0100
1000
0002
0000
0103
0000
,  // measure 15
2010
3002
0023
0230
,  // measure 16
1300
0100
1000
0010
0100
0001
1000
0000
,  // measure 17
0012
0000
1003
0010
0100
0001
0010
0100
,  // measure 18
2000
0000
0000
3010
0200
0000
0301
0100
,  // measure 19
0020
0000
1030
0100
0010
0001
1000
0010
,  // measure 20
0100
0001
0100
0001
0000
0000
0000
0000
0000
0000
0000
0000
0000
0000
0000
0000
,  // measure 21
1001
0000
0100
1000
0000
0000
0010
0000
0100
0001
0000
0000
1000
0000
0100
1000
,  // measure 22
0000
0000
0010
0000
1000
0000
0100
0000
1000
0001
1000
0000
0001
0000
0000
0000
,  // measure 23
0110
0000
0100
0001
0000
0000
1000
0000
0100
0010
0000
0000
0001
0000
1000
0010
,  // measure 24
0000
0000
0100
0000
0001
0000
1000
0000
0010
0100
0010
0000
1000
0000
0000
0000
,  // measure 25
1001
0000
1000
0100
0000
0000
1000
0000
0010
0100
0000
0000
0001
0000
0010
0100
,  // measure 26
0000
0000
0010
0000
0001
0000
1000
0000
0010
0100
0010
0000
1000
0000
0001
0000
,  // measure 27
0011
0000
0100
1000
0000
0000
0010
0000
1000
0001
0000
0000
0100
0000
0010
0100
,  // measure 28
0001
1000
0001
1000
0000
0000
0000
0000
0100
0000
1000
0000
0010
0000
0100
0000
,  // measure 29
0002
0000
1003
0100
0020
0000
0031
1000
0020
0000
0130
0001
2000
0000
3100
1000
,  // measure 30
0020
0000
0130
0001
0200
0000
0320
0000
2030
0000
3002
0000
0203
0000
0000
0000
,  // measure 31
0320
0000
0130
0001
2000
0000
3100
1000
0002
0000
0013
0001
2000
0000
3010
0100
,  // measure 32
0002
0000
0013
0100
0020
0000
0032
0000
0203
0000
0320
0000
2030
0000
0000
0000
,  // measure 33
3200
0310
0020
0031
,  // measure 34
0002
0103
0200
0310
,  // measure 35
1000
0000
0100
0000
1000
0000
0010
0000
0100
0000
0001
1000
0001
0000
0100
0000
,  // measure 36
0020
0000
1030
0100
1000
0001
0100
0000
,  // measure 37
0020
0000
1030
0100
1000
0010
0100
0001
,  // measure 38
2000
0000
0000
0000
0000
0000
0000
0000
0000
0000
3001
0100
0010
0000
0100
0000
,  // measure 39
0002
0000
0013
0100
2000
0000
3010
0000
,  // measure 40
1000
0100
0010
1001
0000
0000
0000
0000
,  // measure 41
0110
0000
0001
0100
0000
0000
0010
0000
1000
0100
0000
0000
1000
0000
0001
1000
,  // measure 42
0001
0000
0100
0000
0010
0000
1000
0000
0100
1000
0100
0000
1000
0000
0000
0000
,  // measure 43
0001
0000
1000
0100
0000
0000
0010
0000
0001
1000
0000
0000
0010
0000
0100
0001
,  // measure 44
0100
0000
0010
0000
1000
0000
0001
0000
0010
0100
0010
0000
0001
0000
0000
0000
,  // measure 45
1000
0000
0100
1000
0000
0000
0010
0000
1000
0001
0000
0000
0100
0000
0010
0100
,  // measure 46
0010
0000
0100
0000
0001
0000
0010
0000
0100
1000
0100
0000
1000
0000
0000
0000
,  // measure 47
0001
0000
1000
0010
0000
0000
0100
0000
0001
1000
0000
0000
0100
0000
0010
0001
,  // measure 48
0010
0000
0100
0000
1000
0000
0010
0000
0100
0001
0100
0000
0001
0000
0000
0000
,  // measure 49
1000
0100
1000
0100
0000
0000
1000
0001
1000
0001
0000
0000
0100
0001
0100
0001
,  // measure 50
1000
1000
0100
0010
0001
1000
0010
0000
,  // measure 51
0100
0001
0100
0001
0000
0000
1000
0100
1000
0100
0000
0000
0001
1000
0001
1000
,  // measure 52
0010
0010
0100
0001
0010
0100
1000
0000
,  // measure 53
0001
0100
0001
0100
0000
0000
1000
0100
1000
0100
0000
0000
0010
1000
0010
1000
,  // measure 54
0100
0100
1000
0010
0100
0001
1000
0000
,  // measure 55
0001
1000
0001
1000
0000
0000
0100
1000
0100
1000
0000
0000
0001
0100
0001
0100
,  // measure 56
0010
1000
0010
1000
0000
0000
0000
0000
0100
0000
1000
0000
0010
0000
0100
0000
,  // measure 57
0002
0000
0013
0100
2000
0000
3010
1000
0002
0000
0103
0010
2000
0000
3100
1000
,  // measure 58
0002
0000
0103
0001
2000
0000
3200
0000
0320
0000
0032
0000
2003
0000
0000
0000
,  // measure 59
3010
0000
0200
0000
0000
0000
0301
0000
2000
0000
0000
0000
3100
0000
0010
0000
0002
0000
0000
0000
0000
0000
1003
0000
0010
0000
0100
0001
0100
0000
0010
0000
,  // measure 60
2000
0000
3100
1000
0002
0000
0203
0000
0320
0000
2030
0000
3100
0000
0000
0000
;

//---------------dance-single - ----------------
#NOTES:
     dance-single:
     :
     Challenge:
     17:
     0.858,0.854,0.113,0.442,1.000:
0000
0000
0000
0000
,
0000
0000
0000
0000
,
0000
0000
0000
0000
,
0000
0000
0000
0000
,
2000
0000
3100
1000
0002
0000
0103
0001
,
2000
0000
3010
1000
0002
0000
0013
0001
,
2000
0000
3010
1000
0001
0000
0101
0000
,
1100
0011
2020
3000
,
0130
0001
0000
0010
0002
0000
1003
0100
,
0020
0000
0031
1000
0020
0000
0130
0001
,
2000
0000
3010
1000
0100
0000
1100
0000
,
0101
0000
0000
0000
0011
0000
0000
0000
1000
0100
1000
0100
0010
0001
0010
0001
,
1000
0000
0000
1000
0100
0000
1000
0000
0010
0000
0100
0000
0001
0000
0010
0000
,
0200
0000
0310
0001
2000
0000
3010
1000
,
0002
0000
0103
0010
0100
0001
0010
0100
,
2000
0000
0000
0000
3010
0000
0000
0000
1000
0100
1000
0100
1000
0010
0100
0000
,
0001
0000
0000
0001
0100
0000
0010
0000
0100
0000
0001
0000
0010
0000
0100
0000
,
2000
0000
3010
1000
0002
0000
0103
0010
,
0200
0000
0301
0010
0100
0010
0001
1000
,
0010
0100
0010
0100
0000
0000
0000
0000
0001
0100
0010
0100
0010
0100
0001
0100
,
0001
0010
0100
1000
0001
0010
0100
1000
0010
0100
0001
0010
0100
0010
0001
1000
,
0010
1000
0001
0010
0100
1000
0010
0100
0001
0010
0100
1000
0001
0100
0010
0000
,
1000
0100
1000
0010
0100
0001
0010
0100
0010
0001
1000
0010
0100
0001
0010
0100
,
0010
0001
1000
0010
0001
0010
1000
0100
0010
0001
1000
0010
0100
0001
1000
0000
,
0001
0010
0100
0010
0001
1000
0010
0100
0001
0010
1000
0010
0001
0010
0100
1000
,
0010
0100
0001
0010
0100
1000
0010
1000
0001
1000
0010
0100
0001
1000
0010
0000
,
1000
0100
1000
0010
0100
0001
0010
1000
0010
0001
1000
0010
0100
0001
0010
0100
,
1000
1000
0100
1000
0010
1000
0100
1000
0010
0100
0001
0010
0100
1000
0001
0100
,
0020
0000
1030
0100
0020
0000
1030
0100
0020
0000
1030
0100
0020
0000
1030
0100
,
0020
0000
1030
0100
0020
0000
2030
0000
3002
0000
0203
0000
0320
0000
0030
0000
,
0002
0000
0103
0010
0002
0000
0103
0010
0002
0000
0103
0010
0002
0000
0103
0010
,
0002
0000
0103
0010
0002
0000
0203
0000
0320
0000
2030
0000
3100
0010
1001
0000
,
0020
1030
0200
0301
,
2000
3100
0002
0013
,
1000
0000
0010
0000
1000
0000
0001
0000
0100
0000
0010
1000
0100
0000
1000
0000
,
0010
0000
0100
0000
0001
0000
0010
0000
0100
1000
0001
0100
0010
1000
0001
0000
,
0101
0100
0010
1000
1010
1000
0100
0010
,
0110
0000
0010
0000
0001
0000
1000
0000
1001
0000
0001
0100
0010
0000
1000
0000
,
0100
1000
0100
1000
0010
0100
0010
0100
,
0001
1000
0010
1000
0001
0000
0100
0000
0000
0000
0000
0000
0000
0000
0000
0000
,
0001
0010
0100
0010
0001
0010
0100
1000
0010
0100
0001
0010
0100
1000
0010
0100
,
0001
1000
0100
1000
0010
0100
0001
0010
0100
0010
0001
1000
0010
0100
0001
0000
,
1000
0100
1000
0010
0100
0001
0010
0100
0010
0001
1000
0010
0100
0010
0100
0010
,
1000
0001
0010
0100
1000
0010
1000
0100
0010
0001
0010
1000
0010
0001
1000
0000
,
0010
1000
0100
1000
0010
0100
0001
0010
0100
1000
0010
0100
0001
1000
0100
1000
,
0001
0100
0010
0100
0001
0010
1000
0010
0001
1000
0010
0100
0001
1000
0010
0000
,
1000
0100
0010
0001
0010
0100
1000
0010
0100
0001
0010
0100
1000
0001
0100
0010
,
0100
0100
0001
0100
0010
0100
0001
0010
0100
1000
0010
0100
0001
0010
0100
0000
,
1000
0100
1000
0010
0100
0001
0010
0100
1000
0010
0100
0001
0100
1000
0100
0001
,
0010
0100
1000
0010
1000
0100
0010
0001
1000
0001
0100
0010
1000
0100
0010
0001
,
1000
0010
0001
0010
0100
0001
1000
0100
0010
0001
0100
0010
1000
0100
1000
0100
,
0010
0001
0100
1000
0001
0010
1000
0100
0010
0001
1000
0100
1000
0001
0100
0001
,
1000
0010
0100
0001
0010
0100
1000
0010
1000
0001
0010
0001
1000
0100
0010
0001
,
1000
0100
0010
0001
0100
0010
1000
0100
1000
0001
0100
1000
0001
0010
1000
0100
,
0010
0001
1000
0010
0100
0010
1000
0100
0010
0001
0100
0010
1000
0001
0010
0001
,
0100
0100
0010
0100
1000
0100
0001
0100
0010
0100
1000
0100
0001
0100
0010
1000
,
0200
0000
1300
0001
0200
0000
1300
0001
0200
0000
1300
0001
0200
0000
1300
0001
,
0200
0000
1300
0001
0200
0000
0320
0000
2030
0000
3002
0000
0023
0000
0030
0000
,
0001
0000
0100
0000
0000
0000
0010
0000
1000
0000
0000
0000
0100
0000
0010
0000
0001
0000
0000
0000
0000
0000
1000
0000
0010
0000
0100
0001
1000
0000
0010
0000
,
0100
0000
0001
0010
0100
0000
1000
0000
0100
0000
0010
0000
1001
0000
0000
0000
;

//---------------dance-single - ----------------
#NOTES:
     dance-single:
     :
     Easy:
     5:
     0.323,0.414,0.026,0.684,0.000:
0000
0000
0000
0000
,
0000
0000
0000
0000
,
0000
0000
0000
0000
,
0000
0000
0000
0000
,
0200
0000
0302
0000
,
2003
0000
3200
0000
,
0320
0000
0032
0000
,
1000
1000
1003
0000
,
0020
0000
2030
0000
,
3200
0000
2300
0000
,
3002
0000
0203
0000
,
0010
0010
0310
0000
,
2001
0000
0000
3100
,
0020
0000
0032
0000
,
1003
0010
0100
0010
,
2000
0000
0000
3000
,
0102
0000
0000
1003
,
0200
0000
2300
0000
,
3020
0000
0130
0001
,
2000
0000
3000
0000
,
0200
0310
0001
1000
,
0010
0100
0002
0003
,
0020
0130
0010
0001
,
0100
0010
2000
3000
,
0200
1300
0010
0100
,
0010
0010
2000
3000
,
0002
0013
0001
1000
,
0100
0100
0020
0030
,
0002
2003
3020
0230
,
0320
0000
2030
0000
3100
0100
0100
0000
,
2000
3020
0230
0302
,
0023
0000
0032
0000
0103
0100
0100
0000
,
0020
0000
2030
0000
,
3200
0000
0320
0000
,
0031
1000
0010
0100
,
0010
0010
1000
0000
,
0200
0000
2300
0000
,
3020
0000
0230
0000
,
0301
0010
0001
1000
,
0220
0000
0330
0000
,
0002
0103
0010
0100
,
0001
1000
0200
0300
,
2000
3010
0100
0010
,
1000
0001
0020
0030
,
0002
0103
0010
0100
,
0001
0001
2000
3000
,
0200
1300
0010
0100
,
0010
0010
2000
3000
,
0002
0103
0010
1000
,
0100
0100
2000
3010
,
0200
0310
1000
0100
,
0100
0010
0002
0103
,
0020
1030
0100
0010
,
0001
0001
2000
3010
,
0200
0310
0100
0001
,
1000
1000
0200
0310
,
0002
2003
3020
0230
,
0320
0000
2030
0000
3100
0100
0100
0000
,
2000
3002
0203
0320
,
0230
0000
0302
0000
1000
1000
1003
0000
;
