#TITLE:Solitary;
#SUBTITLE:;
#ARTIST:BanYa;
#TITLETRANSLIT:;
#SUBTITLETRANSLIT:;
#ARTISTTRANSLIT:;
#CREDIT:;
#BANNER:Solitary-bn.png;
#BACKGROUND:Solitary-bg.png;
#LYRICSPATH:;
#CDTITLE:cdtitle.png;
#MUSIC:Solitary.mp3;
#OFFSET:3.520;
#SAMPLESTART:58.159;
#SAMPLELENGTH:17.880;
#SELECTABLE:YES;
#DISPLAYBPM:136;
#BPMS:0.000=68.000,12.000=136.000;
#STOPS:;
#BGCHANGES:3.667=Solitary.avi=1.000=1=0=0,
223.250=Solitary-bg.png=1.000=0=0=0,
99999=-nosongbg-=1.000=0=0=0 // don't automatically add -songbackground-
;

//---------------dance-single - ----------------
#NOTES:
     dance-single:
     :
     Beginner:
     3:
     0.131,0.191,0.020,0.000,0.000: // measure 1
0000
0000
0000
0000
,  // measure 2
0000
0000
0000
0000
,  // measure 3
0000
0000
0000
0000
,  // measure 4
0100
0000
0000
0001
,  // measure 5
0001
0000
0000
1000
,  // measure 6
1000
0000
0000
0100
,  // measure 7
0100
0000
0000
0000
,  // measure 8
1001
0000
0010
0000
,  // measure 9
1000
0000
0100
0100
,  // measure 10
0100
0000
1000
0000
,  // measure 11
0001
0000
1000
1000
,  // measure 12
1000
0000
0000
0000
,  // measure 13
0010
0000
0000
0000
,  // measure 14
0100
0000
0000
0000
,  // measure 15
0001
0000
0000
0000
,  // measure 16
0100
0000
0100
0000
,  // measure 17
0010
0010
0000
0000
,  // measure 18
1000
1000
0000
0000
,  // measure 19
0001
0000
0001
0000
,  // measure 20
0010
0000
0100
0000
,  // measure 21
0010
0010
0000
0000
,  // measure 22
0001
0001
0000
0000
,  // measure 23
1000
0000
1000
0000
,  // measure 24
1000
0000
1000
0000
,  // measure 25
0010
0000
0000
0100
,  // measure 26
0100
0000
0000
0001
,  // measure 27
0001
0000
0000
1000
,  // measure 28
1000
0000
0000
0100
,  // measure 29
0100
0000
1000
0000
,  // measure 30
0100
0000
0010
0000
,  // measure 31
0100
0000
1000
0000
,  // measure 32
0001
0000
0000
0000
,  // measure 33
1001
0000
0100
0000
,  // measure 34
1000
0000
0100
0000
,  // measure 35
0001
0000
0100
0000
,  // measure 36
1000
0000
0100
0000
,  // measure 37
0001
0000
0010
0000
,  // measure 38
1000
0000
0010
0000
,  // measure 39
0001
0000
0010
0000
,  // measure 40
1000
0000
0000
0000
,  // measure 41
0100
0000
0000
0000
,  // measure 42
1000
0000
0000
0000
,  // measure 43
0001
0000
0000
0000
,  // measure 44
0100
0000
0000
0000
,  // measure 45
0010
0000
0010
0000
,  // measure 46
1000
0000
1000
0000
,  // measure 47
0001
0000
1000
0000
,  // measure 48
0100
0100
0100
0100
,  // measure 49
0100
0000
0000
0000
,  // measure 50
1000
0000
0000
0000
,  // measure 51
0001
0000
0000
0000
,  // measure 52
0100
0000
0000
0000
,  // measure 53
0010
0000
0000
0000
,  // measure 54
1000
0000
0000
0000
,  // measure 55
0001
0000
0000
0000
,  // measure 56
0000
0000
0000
0010
0000
0000
0000
0000
;

//---------------dance-single - ----------------
#NOTES:
     dance-single:
     :
     Medium:
     7:
     0.390,0.437,0.306,0.168,0.049: // measure 1
0000
0000
0000
0000
,  // measure 2
0000
0000
0000
0000
,  // measure 3
0000
0000
0000
0000
,  // measure 4
0010
0000
1000
0100
1000
0001
0100
0000
,  // measure 5
0001
0000
0010
0001
1000
0001
0100
0000
,  // measure 6
0010
0000
1000
0100
1000
0010
0100
0000
,  // measure 7
0001
1000
0100
1001
,  // measure 8
0100
0000
0010
0000
0100
0000
0001
1000
,  // measure 9
0100
0000
0010
0000
0001
1000
0001
0001
,  // measure 10
0100
0000
0010
0000
1000
0000
0100
0010
,  // measure 11
0100
0000
1000
0000
0010
1000
0010
0010
,  // measure 12
0100
0000
0000
0100
0000
0000
0100
0000
0000
0000
0000
0000
0001
0000
0000
0000
,  // measure 13
1000
0000
0000
1000
0000
0000
1000
0000
0000
0000
0000
0000
0100
0000
0000
0000
,  // measure 14
0010
0000
0000
0010
0000
0000
0010
0000
0000
0000
0000
0000
0001
0000
0000
0000
,  // measure 15
1000
0000
0000
1000
0000
0000
1000
0000
0000
0000
0000
0000
0000
0000
0010
0000
,  // measure 16
0010
0000
1000
0000
0100
0000
0010
0001
,  // measure 17
2000
0000
3001
0000
0100
0000
0010
1000
,  // measure 18
0002
0103
0010
1000
,  // measure 19
1100
0101
1000
1001
,  // measure 20
0010
0010
1000
0100
1000
0000
0010
0000
,  // measure 21
0100
0001
2000
0000
3100
0000
0010
0000
,  // measure 22
0001
0100
0002
0000
0013
0000
0100
0000
,  // measure 23
1100
0101
1000
0110
,  // measure 24
0101
1100
0010
1001
,  // measure 25
0200
0000
0010
0000
0010
0000
0310
0100
,  // measure 26
0002
0000
0100
0000
0100
0000
0103
0010
,  // measure 27
2000
0000
0100
0000
0100
0000
3100
1000
,  // measure 28
0002
0000
0100
0000
0100
0000
0103
0010
,  // measure 29
2000
0000
3001
0000
0010
0100
0010
0000
,  // measure 30
0002
0000
1003
0000
0010
0100
0010
0000
,  // measure 31
2000
0000
3001
0000
0010
0100
0010
0000
,  // measure 32
0001
0100
0001
0100
0001
1000
0100
1000
,  // measure 33
0002
0000
0000
0003
1000
0000
0000
0000
2000
0000
0000
3000
0100
0000
0000
0000
,  // measure 34
0200
0310
0020
0031
,  // measure 35
1000
1100
0010
0101
,  // measure 36
1000
1001
0010
0110
,  // measure 37
0002
0000
0103
0000
0010
0100
0001
0000
,  // measure 38
2000
0000
3100
0000
1000
0001
0100
0000
,  // measure 39
0010
0100
0001
1100
,  // measure 40
0101
1000
0011
1100
,  // measure 41
0001
0000
0000
0000
,  // measure 42
1000
0000
0000
0000
,  // measure 43
0010
0000
0000
0000
,  // measure 44
0100
0000
0000
0000
,  // measure 45
0001
0000
0001
0000
,  // measure 46
1000
0000
1000
0000
,  // measure 47
0100
1000
0010
0100
,  // measure 48
0001
1000
0001
1000
0010
1000
0001
1000
,  // measure 49
0001
0000
0000
0001
0000
0000
0001
0000
0000
0000
0000
0000
0010
0000
0000
0000
,  // measure 50
0100
0000
0000
0100
0000
0000
0100
0000
0000
0000
0000
0000
1000
0000
0000
0000
,  // measure 51
0101
0000
0000
0101
0000
0000
0101
0000
0000
0000
0000
0000
1000
0000
0000
0000
,  // measure 52
1100
0000
0000
1100
0000
0000
1100
0000
0000
0000
0000
0000
0001
0000
0000
0000
,  // measure 53
1001
0000
0000
1001
0000
0000
1001
0000
0000
0000
0000
0000
0100
0000
0000
0000
,  // measure 54
0110
0000
0000
0110
0000
0000
0110
0000
0000
0000
0000
0000
1000
0000
0000
0000
,  // measure 55
0100
0010
0001
1000
,  // measure 56
0010
0000
0000
0101
0000
0000
0000
0000
;

//---------------dance-single - ----------------
#NOTES:
     dance-single:
     :
     Hard:
     11:
     0.493,0.628,0.247,0.148,0.251: // measure 1
0000
0000
0000
0000
,  // measure 2
0000
0000
0000
0000
,  // measure 3
0000
0000
0000
0000
,  // measure 4
1000
0000
0000
0010
0100
0000
0001
0000
1000
0000
0001
0000
1020
0000
0000
0000
,  // measure 5
0130
0000
0000
0001
1000
0000
0100
0000
0010
0000
0001
0000
2100
0000
0000
0000
,  // measure 6
3010
0000
0000
1000
0100
0000
1000
0000
0010
0000
0100
0000
1002
0000
0000
0000
,  // measure 7
0103
0000
0001
0000
1000
0000
0000
0100
0000
0000
0100
0000
0010
0000
0000
0000
,  // measure 8
0012
0000
0103
0010
0100
0001
0010
0100
,  // measure 9
1000
0000
0010
1000
0010
1000
0100
0000
,  // measure 10
2010
0000
3100
0010
0001
0010
0100
1000
,  // measure 11
0010
0000
0100
0001
0100
0001
1000
0000
,  // measure 12
0110
0000
0000
0001
0000
0000
1000
0000
0000
0000
0100
0000
0000
0000
1000
0000
,  // measure 13
1100
0000
0000
0010
0000
0000
1000
0000
0000
0000
0001
0000
0000
0000
0100
0000
,  // measure 14
0101
0000
0000
0010
0000
0000
1000
0000
0000
0000
0001
0000
0000
0000
0010
0000
,  // measure 15
0011
0000
0000
1000
0000
0000
0001
0000
0000
0000
0100
0000
0000
0000
1001
0000
,  // measure 16
0100
1000
0100
1000
0010
0100
0001
0010
,  // measure 17
0100
0000
2000
0000
0000
0000
0000
0000
0000
0000
3100
0010
0100
0000
1000
0000
,  // measure 18
0010
0000
0200
0000
0000
0000
0000
0000
0000
0000
0301
0100
0001
0000
0010
0000
,  // measure 19
0001
0000
1000
0000
0001
0000
0000
0100
0000
0000
0010
0000
1001
0000
0000
0000
,  // measure 20
0100
0001
0100
0001
1000
0100
0010
0001
,  // measure 21
0100
0000
0010
0000
0020
0000
0000
0000
0000
0000
1030
0100
1000
0000
0010
0000
,  // measure 22
0100
0000
0002
0000
0000
0000
0000
0000
0000
0000
0013
0100
0010
0000
0001
0000
,  // measure 23
1000
0000
0100
0000
1000
0000
0000
0001
0000
0000
0100
0000
1001
0000
0000
0000
,  // measure 24
0100
0000
0001
0000
1000
0000
0000
0100
0000
0000
0010
0000
1001
0000
0000
0000
,  // measure 25
0010
0000
0000
0100
0000
0000
0001
0000
0000
0000
1000
0000
0000
0000
0100
0000
,  // measure 26
1000
0000
0000
0010
0000
0000
0100
0000
0000
0000
0010
0000
0000
0000
1000
0000
,  // measure 27
0001
0000
0000
0010
0000
0000
0001
0000
0000
0000
1000
0000
0000
0000
0100
0000
,  // measure 28
1000
0000
0000
0010
0000
0000
0100
0000
0000
0000
0001
0000
0000
0000
1000
0000
,  // measure 29
0100
0000
0000
1000
0000
0000
0010
0000
0100
0000
0100
0000
0001
0000
0001
0000
,  // measure 30
1000
0000
0000
0100
0000
0000
0010
0000
0001
0000
0001
0000
0100
0000
0100
0000
,  // measure 31
0010
0000
0000
1000
0000
0000
0001
0000
0000
0000
0100
0000
0000
0000
0000
0000
,  // measure 32
0010
1000
0010
1000
0010
0000
1000
0100
1000
0100
1000
0000
0001
1000
0001
1000
,  // measure 33
0001
0001
1000
1000
,  // measure 34
0001
0101
1000
1100
,  // measure 35
0001
0000
0000
0001
0100
0000
0010
0000
0010
0000
0000
1000
0100
0000
0010
0000
,  // measure 36
0010
0000
0000
0001
1000
0000
0001
0000
0001
0000
0000
1000
0100
0000
1000
0000
,  // measure 37
0010
1000
0100
0010
0001
1000
1001
0000
,  // measure 38
0010
1000
0100
0010
0001
0100
0101
0000
,  // measure 39
1000
0001
1000
0001
0100
0010
1010
0000
,  // measure 40
0001
0100
0001
0100
0001
0000
1000
0100
1000
0100
1000
0000
0010
0100
0010
0100
,  // measure 41
0010
0000
0000
0000
,  // measure 42
1000
0000
0000
0000
,  // measure 43
0001
0000
0000
0000
,  // measure 44
0100
0000
0000
0000
,  // measure 45
0001
0000
0001
0000
,  // measure 46
1000
0000
1000
0000
,  // measure 47
0001
0100
0010
1000
,  // measure 48
0001
0010
0001
0010
0001
0000
1000
0001
1000
0001
1000
0000
0100
1000
0100
1000
,  // measure 49
0100
0000
0000
1000
0000
0000
0010
0000
0000
0000
0100
0000
0000
0000
0120
0000
,  // measure 50
0130
0000
0000
0001
0000
0000
1000
0000
0000
0000
0100
0000
0000
0000
1200
0000
,  // measure 51
1300
0000
0000
0010
0000
0000
1000
0000
0000
0000
0001
0000
0000
0000
0102
0000
,  // measure 52
0103
0000
0000
0010
0000
0000
1000
0000
0000
0000
0001
0000
0000
0000
0012
0000
,  // measure 53
0013
0000
0000
0001
0000
0000
1000
0000
0000
0000
0100
0000
0000
0000
1200
0000
,  // measure 54
1300
0000
0000
0010
0000
0000
0100
0000
0000
0000
0001
0000
0000
0000
2001
0000
,  // measure 55
3100
0010
0001
0100
0010
1000
0001
0010
,  // measure 56
0100
0000
0000
0010
0000
0000
1001
0000
0000
0000
0000
0000
0000
0000
0000
0000
;

//---------------dance-single - ----------------
#NOTES:
     dance-single:
     :
     Easy:
     5:
     0.256,0.355,0.237,0.118,0.000: // measure 1
0000
0000
0000
0000
,  // measure 2
0000
0000
0000
0000
,  // measure 3
0000
0000
0000
0000
,  // measure 4
1001
0000
0010
0110
,  // measure 5
1000
0000
0100
1100
,  // measure 6
0001
0000
0100
0101
,  // measure 7
1000
0001
0100
0000
,  // measure 8
0010
0000
1000
0100
,  // measure 9
0010
0000
0002
1003
,  // measure 10
0100
0000
1000
0010
,  // measure 11
0100
0000
0020
1030
,  // measure 12
1100
0000
0010
1000
,  // measure 13
0101
0000
1000
0001
,  // measure 14
0110
0000
0010
0001
,  // measure 15
1100
0000
0010
0000
,  // measure 16
1000
0100
0010
0001
,  // measure 17
0200
0000
0300
0010
,  // measure 18
2000
0000
3000
0100
,  // measure 19
0020
0031
1000
1001
,  // measure 20
0010
1000
0001
0100
,  // measure 21
0010
0020
0000
0130
,  // measure 22
0001
0002
0000
0013
,  // measure 23
0100
0100
1000
1100
,  // measure 24
0010
0100
0100
0110
,  // measure 25
0001
0000
0100
0001
,  // measure 26
1000
0000
0010
1000
,  // measure 27
0100
0000
1000
0100
,  // measure 28
0010
0000
0001
1000
,  // measure 29
0010
0110
0002
0103
,  // measure 30
0010
1010
2000
3100
,  // measure 31
0010
0110
0002
1003
,  // measure 32
0020
0000
0000
0000
,  // measure 33
0130
0100
0001
0001
,  // measure 34
1000
1000
0100
0100
,  // measure 35
0010
0011
0000
1001
,  // measure 36
0000
1001
0000
1100
,  // measure 37
0100
1000
1000
1000
,  // measure 38
0010
0100
0100
0100
,  // measure 39
0001
1000
0100
0010
,  // measure 40
0000
1001
0000
1001
,  // measure 41
0100
0000
0000
0000
,  // measure 42
1000
0000
0000
0000
,  // measure 43
0001
0000
0000
0000
,  // measure 44
0100
0000
0000
0000
,  // measure 45
0010
0000
0010
0000
,  // measure 46
1000
0000
1000
0000
,  // measure 47
0001
0001
1000
1000
,  // measure 48
0020
0000
0000
0000
,  // measure 49
0130
0000
0000
0001
,  // measure 50
0001
0000
0000
1000
,  // measure 51
0100
0000
0000
0100
,  // measure 52
0010
0000
0000
0010
,  // measure 53
0010
0000
0000
1001
,  // measure 54
1001
0000
0000
0010
,  // measure 55
1010
0000
0100
0000
,  // measure 56
0011
0000
0000
1000
0000
0000
0000
0000
;

//---------------dance-single - ----------------
#NOTES:
     dance-single:
     :
     Challenge:
     15:
     0.740,0.765,0.316,0.178,0.745:
0000
0000
0000
0000
,
0000
0000
0000
0000
,
0000
0000
0000
0000
,
1000
0001
0000
0001
0100
0000
0010
0000
0100
0000
0001
0010
0200
0000
0000
0000
,
1300
0010
0000
0010
1000
0000
0100
0000
1000
0000
0010
0100
0002
0000
0000
0000
,
0013
0100
0000
0100
0010
0000
0001
0000
1000
0000
0010
0100
0002
0000
0000
0000
,
1003
0000
0100
0010
0100
1000
0000
0010
0000
0010
0100
0000
0002
0000
0000
0000
,
0103
0010
1000
0100
1000
0010
0100
0001
,
0001
0000
1000
0000
0100
0000
0010
0000
0001
1000
0001
0000
0100
0000
0100
0000
,
0010
1000
0100
0010
0001
1000
0010
0100
,
0100
0000
1000
0000
0100
0000
0001
0000
1000
0100
1000
0000
0010
0000
0010
0000
,
0101
0000
0000
1100
0000
0000
1001
0000
0000
0000
0011
0000
0000
0000
1000
0000
,
1100
0000
0000
0110
0000
0000
0101
0000
0000
0000
1001
0000
0000
0000
0010
0000
,
0011
0000
0000
1100
0000
0000
1010
0000
0000
0000
0101
0000
0000
0000
1000
0000
,
0101
0000
0000
0110
0000
0000
1001
0000
0000
0000
0101
0000
0000
0000
1010
0000
,
0100
0001
0100
0010
0100
0000
0001
0000
1000
0000
1000
0000
0100
0000
0010
0000
,
0001
0000
1000
0000
1000
0000
0100
0000
1000
0000
0010
0100
0020
0000
0000
0000
,
1030
0001
1000
0001
0100
0000
0010
0000
0100
0000
0001
1000
0001
0000
0010
0000
,
0100
0000
0100
0000
0010
0000
0001
0010
0000
0010
0100
0000
2000
0000
0000
0000
,
3010
1000
0010
0100
0010
0000
1000
0000
0001
0000
0001
0000
0010
0000
0100
0000
,
1000
0000
0001
0000
0001
0000
0010
0000
0001
0000
0100
0010
0200
0000
0000
0000
,
0301
1000
0001
1000
0010
0000
0100
0000
0010
0000
1000
0001
1000
0000
0100
0000
,
0010
0000
0010
0000
0100
0000
1000
0100
0000
0100
0010
0000
0002
0000
0000
0000
,
0103
0000
0010
0000
1000
0100
0000
0100
0000
1000
0010
0000
0200
0000
0000
0000
,
0301
2000
0000
0000
0000
0000
3100
0100
,
1000
0000
0010
1000
0100
1000
0002
0000
0000
0000
0000
0000
0103
0010
0100
0010
,
1000
0000
0000
0001
0020
0000
0000
0000
0000
0000
0130
0000
0100
0000
1000
0000
,
0010
0100
0001
0100
0010
1000
0100
0010
0001
0010
0100
0000
1000
0100
0010
0001
,
1000
0000
0000
1000
0100
0000
1000
0000
0010
0100
0010
0000
1000
0100
1000
0000
,
0001
0000
0000
0001
0100
0000
0001
0000
1000
0100
1000
0000
0010
0100
0010
0000
,
1000
0000
0000
1000
0100
0000
1000
0000
0010
0100
0010
0000
1000
0001
1000
0000
,
0100
0010
0100
0010
0001
0010
0001
0010
0100
1000
0100
1000
0010
0100
0001
0010
,
0100
1000
0000
1000
0100
0000
1000
0000
0010
0100
0000
0100
0010
0000
1000
0000
,
0001
0010
0000
0010
0001
0000
1000
0000
0100
0001
0000
0001
0100
0000
1000
0000
,
0010
0100
0000
0010
0100
0000
0001
0000
1000
0100
0000
1000
0100
0000
0010
0000
,
0001
0010
0000
0001
1000
0000
0001
0000
0100
0010
0000
0100
1000
0000
0100
0000
,
0001
1000
0000
0100
0010
0000
0001
0000
1000
0010
0000
1000
0100
0000
1000
0000
,
0001
0010
0000
0100
0010
0000
0001
0000
1000
0010
0000
0100
0001
0000
1000
0000
,
0010
1000
0000
0100
1000
0000
0001
0000
0010
0100
0000
0010
0001
0000
1000
0000
,
0001
0100
0001
0100
0010
1000
0010
1000
0100
0010
0001
0010
0100
1000
0010
0100
,
0002
0000
0000
0000
0203
0000
0000
0000
0310
0000
1000
0100
2000
0000
0000
0000
,
3010
0100
0001
0100
0010
0000
1000
0000
1000
0000
0100
0000
0010
0001
1000
0001
,
0100
0000
0010
1000
0100
0000
1000
0100
0010
0001
1000
0000
0010
0100
0000
0000
,
0001
1000
0100
1000
0010
0100
0001
0010
0100
1000
0000
0000
0010
0100
0001
0100
,
0010
1000
0010
0000
1000
0100
0010
0002
0000
0000
0000
0000
0103
0010
0100
0000
,
0001
0010
1000
0010
0001
0010
1000
0010
0001
0010
1000
0010
0001
0010
1000
0010
,
0001
0000
0001
1000
0000
1000
0100
1000
0010
0100
0001
0000
2000
0000
0000
0000
,
3100
0010
0100
0010
0001
1000
0001
1000
0010
0100
0001
0010
0100
1000
0010
0100
,
0001
0000
0000
1000
0000
0000
0001
0000
0000
0000
0100
0000
0000
0000
0110
0000
,
1000
0000
0000
0001
0000
0000
1000
0000
0000
0000
0110
0000
0000
0000
0001
0000
,
1100
0000
0000
1100
0000
0000
1100
0000
0000
0000
0010
0000
0000
0000
1000
0000
,
0101
0000
0000
0101
0000
0000
0101
0000
0000
0000
1000
0000
0000
0000
0001
0000
,
0110
0000
0000
1001
0000
0000
1010
0000
0000
0000
1000
0000
0000
0000
0001
0000
,
1100
0000
0000
0011
0000
0000
1100
0000
0000
0000
1000
0000
0000
0000
0101
0000
,
1000
0010
0100
0001
0010
0100
1000
0001
,
0000
0020
0000
0000
0000
0000
0000
0000
0000
0000
0000
0000
0000
0000
0000
0000
0000
0000
0000
0000
0000
0000
0000
0000
0000
0000
0000
0000
0000
0000
0000
0000
0000
0000
0000
0000
0100
0000
0000
0000
0000
0000
0000
0000
0000
0000
0000
0000
0000
0000
0000
0000
0000
0000
0000
0000
0000
0000
0000
0000
0000
0000
0000
0000
0000
0000
0000
0000
0000
0000
0000
0000
1030
0000
0000
0000
0000
0000
0000
0000
0000
0000
0000
0000
0000
0000
0000
0000
0000
0000
0000
0000
0000
0000
0000
0000
0000
0000
0000
0000
0000
0000
0000
0000
0000
0000
0000
0000
0000
0000
0000
0000
0000
0000
0000
0000
0000
0000
0000
0000
0000
0000
0000
0000
0000
0000
0000
0000
0000
0000
0000
0000
0000
0000
0000
0000
0000
0000
0000
0000
0000
0000
0000
0000
0000
0000
0000
0000
0000
0000
0000
0000
0000
0000
0000
0000
0000
0000
0000
0000
0000
0000
0000
0000
0000
0000
0000
0000
0000
0000
0000
0000
0000
0000
0000
0000
0000
0000
0000
0000
0000
0000
0000
0000
0000
0000
0000
0000
0000
0000
0000
0000
;
