#TITLE:SORCERESS ELISE;
#SUBTITLE:;
#ARTIST:YAHPP;
#TITLETRANSLIT:;
#SUBTITLETRANSLIT:;
#ARTISTTRANSLIT:;
#CREDIT:;
#BANNER:Sorceress Elise.png;
#BACKGROUND:Sorceress Elise-bg.png;
#LYRICSPATH:;
#CDTITLE:cdtitle.png;
#MUSIC:Sorceress Elise.mp3;
#OFFSET:-1.240;
#SAMPLESTART:16.430;
#SAMPLELENGTH:11.980;
#SELECTABLE:YES;
#BPMS:0.000=158.000,108.000=79.000,111.000=158.000;
#STOPS:;
#BGCHANGES:-0.700=Sorceress Elise.avi=1.000=1=1=0,
99999=-nosongbg-=1.000=0=0=0 // don't automatically add -songbackground-
;

//---------------dance-single - ----------------
#NOTES:
     dance-single:
     :
     Beginner:
     4:
     0.206,0.286,0.068,0.110,0.000:
0000
0000
0000
0000
,
0000
0000
0000
0000
,
0000
0000
0000
0000
,
0000
0000
0000
0000
,
1000
0000
0001
0000
,
0100
0100
0010
0010
,
0100
0000
0001
0000
,
0010
0010
0100
0100
,
0010
0000
0001
0000
,
1000
0000
0001
0000
,
1001
0000
0000
0000
,
0010
0010
0010
0000
,
1000
1000
1000
0000
,
0001
0001
0001
0000
,
1001
0000
0000
0000
,
0100
0100
0100
0000
,
1000
1000
1000
0000
,
0001
0001
0001
0000
,
0110
0000
0000
1000
,
1000
0000
0000
0001
,
0001
0000
0000
0010
,
0010
0000
0010
0000
,
0100
0100
0010
0010
,
0100
0000
0000
0000
,
1001
0000
0000
0000
,
0020
0000
0030
0000
,
2000
0000
3000
0000
,
0002
0000
0000
0103
,
0000
0000
0000
0001
,
0000
0000
0000
1000
,
0000
0000
0000
0100
,
0000
0000
0000
2000
,
0000
0000
3000
0002
,
0000
0000
0003
0200
,
0000
0000
0300
0020
,
0000
0000
0030
1000
,
0000
0001
0000
0100
,
0000
0100
0000
0001
,
0001
0010
0010
0001
,
0001
0010
0010
0001
,
0000
0100
0000
0001
,
0000
1000
0000
0010
,
0010
1000
1000
0010
,
0000
1000
0000
0001
,
0001
1000
1000
0001
,
0001
1000
1000
0001
,
1000
0001
1000
1001
,
0000
0000
0000
0110
,
0000
0000
0000
1000
,
1000
1000
0000
0100
,
0100
0100
0000
1000
,
1000
1000
0000
1001
,
0000
0000
0000
0010
,
0010
0010
0000
0100
,
0100
0100
0000
0001
,
0001
0001
0000
0010
,
0000
0000
0001
0001
,
0000
0000
1000
1000
,
0000
0000
0010
0010
,
0000
1000
0000
0001
,
0001
1000
1000
0001
,
0000
0000
0000
0110
,
0000
0000
0000
2000
,
0000
3000
0000
0200
,
0000
0300
0000
0020
,
0000
0030
0000
0001
,
0000
1000
0000
0200
,
0000
0300
0000
1000
,
0000
0001
0000
0020
,
0000
0030
0000
0001
,
0000
1000
0000
0010
,
0000
0100
0000
0010
,
0000
1000
0000
0001
,
0000
1000
0100
0020
,
0000
0000
0000
0000
,
0030
0000
0000
0000
;

//---------------dance-single - ----------------
#NOTES:
     dance-single:
     :
     Medium:
     11:
     0.540,0.541,0.246,0.314,0.051:
0000
0000
0000
0000
,
0000
0000
0000
0000
,
0000
0000
0000
0000
,
0000
0000
0000
0000
,
0001
0001
1000
0010
0010
1000
0100
0010
,
0002
2003
3020
0230
,
0310
0010
1000
0100
0100
0010
0001
1000
,
0020
0230
0302
2003
,
3100
0000
0000
0010
1001
0000
0000
0100
,
1001
0000
0000
0001
0010
0000
0000
0010
0100
0000
0000
0100
1000
0000
0000
1000
,
0001
0100
0010
0100
0010
0100
0001
0100
,
0020
0000
1000
0000
1030
0100
1000
0010
,
0200
0000
0001
0000
0301
0010
0100
1000
,
0002
0000
0100
0000
0103
0010
0100
0001
,
1000
0100
0010
0100
0010
0100
1000
0010
,
0200
0000
0010
0000
0310
0100
0001
0010
,
0200
0000
1000
0000
1300
0100
0010
0001
,
2000
0000
0010
0000
3010
1000
0100
0010
,
0001
0000
0000
0101
0000
0000
1000
0000
,
0010
0000
0000
1100
0000
0000
0010
0000
,
0001
0000
0000
0101
0000
0000
1000
0000
,
0001
0000
0010
0100
1000
0000
0010
0100
,
0001
0001
1000
1000
0100
0100
0010
0010
,
0002
0000
0000
0000
,
1003
0010
1000
0001
1000
0010
0100
0001
,
2000
0000
0000
0000
0000
0000
3100
1000
,
0002
0000
0000
0000
0000
0000
0103
0010
,
0200
0000
0000
0301
,
1000
1000
0000
0000
0000
0000
0100
0000
,
0010
0010
0000
0000
0000
0000
0001
0000
,
0100
0100
0000
0000
0000
0000
1000
0000
,
0010
0010
0000
0000
0000
0000
1000
0100
,
1000
0010
0000
0000
1000
0000
0001
0100
,
0001
1000
0000
0000
0010
0000
1000
0100
,
0010
0001
0000
0000
1000
0000
0001
1000
,
0010
0100
0000
0000
0001
0000
1000
0100
,
1000
0100
0010
0001
0010
0001
0100
0010
,
0100
0010
1000
0001
1000
0001
0010
0100
,
1000
0010
0100
0001
0100
0010
1000
0100
,
0010
0001
1000
0010
0100
0000
0001
0010
,
0001
0010
0100
1000
0100
1000
0001
0100
,
0010
0100
0001
1000
0100
0010
0100
1000
,
0010
0100
0001
0010
0100
1000
1010
0000
,
0000
0000
0100
0000
0101
0000
0000
0000
0000
0000
1000
0000
1100
0000
0000
0100
,
0010
0000
0000
0010
0001
0000
0000
0001
1000
0000
0000
1000
0010
0000
0000
0010
,
0100
0000
0000
0100
0001
0000
0000
0001
0010
0000
0000
0010
0100
0000
1000
0000
,
0010
0100
0001
0010
0100
1000
2002
0000
,
0000
0000
0000
0000
0000
3003
0010
0100
,
0010
1000
0010
0001
0010
0100
0002
0000
,
0010
0000
0013
0100
1000
0001
0200
0000
,
0010
0000
0310
0100
0001
0010
0200
0000
,
1000
0000
1300
0100
0010
0001
1000
0010
,
0100
0010
0100
0010
1000
0010
0200
0000
,
0001
0000
0301
0100
0010
1000
0002
0000
,
1000
0000
1003
0100
0010
0001
2000
0000
,
0010
0000
3010
1000
0100
0010
0001
0000
,
0000
1001
0000
0000
0100
0010
1000
0000
,
0000
1100
0000
0000
0010
1000
0001
0000
,
0000
0101
0000
0000
1000
0001
0200
0000
,
0000
0310
2000
0000
0000
3100
0010
0001
,
1000
0010
0100
0001
0010
0100
2000
0000
,
0000
0000
0000
0000
0000
0000
3001
0100
,
1000
0100
1000
0100
0010
0100
0002
0000
,
0100
0000
0103
0010
1000
0100
0020
0000
,
0100
0000
0130
0010
0001
1000
0020
0000
,
1000
0000
1030
0100
1000
0010
0100
0110
,
0000
0101
0000
1100
0000
0101
2000
0000
,
0000
0000
0000
0000
0000
0000
3100
1100
,
0000
1001
0000
0110
0000
1001
0020
0000
,
0000
0000
0000
0000
0000
0000
0130
0110
,
0000
0011
0000
1001
0000
0100
1000
1100
,
0000
1001
0000
0101
0000
0010
1000
1010
,
0000
1001
0000
0011
0000
1000
0010
0010
,
0100
0001
2000
0000
3002
0000
0203
0000
,
0000
0000
0000
0000
,
0300
0000
0000
0000
;

//---------------dance-single - ----------------
#NOTES:
     dance-single:
     :
     Hard:
     16:
     0.818,0.954,0.263,0.288,0.628:
0000
0000
0000
0000
,
0000
0000
0000
0000
,
0000
0000
0000
0000
,
0000
0000
0000
0000
,
0001
0001
0010
0100
0100
1000
0010
0100
,
0010
1000
0010
1000
0010
0000
0100
0000
0001
1000
0001
1000
0001
0000
0010
0000
,
0100
0100
1000
0010
0010
0100
0001
0010
,
0100
1000
0100
1000
0100
0000
1000
0000
0001
0100
0001
0100
0001
0000
0100
0000
,
0010
0000
0000
0000
0000
0000
1000
0100
0010
0000
0010
0000
0000
0000
0001
0100
,
0010
0000
1000
0100
0010
0000
0001
0100
0010
0000
1000
0100
0010
0000
0001
0100
,
0010
1000
0100
1000
0010
0100
0001
0010
,
0100
1000
0100
1000
0100
1000
0100
1000
0010
0000
1000
0000
0100
0000
0010
0000
,
0001
1000
0001
1000
0001
1000
0001
1000
0010
0000
0100
0000
0001
0000
0010
0000
,
0001
0100
0001
0100
0001
0100
0001
0100
0010
0000
1000
0100
0010
0001
1000
0010
,
0100
0001
1000
0100
1000
0001
0010
0100
,
1000
0010
1000
0010
1000
0010
1000
0010
0100
0000
0001
0000
0010
0000
0100
0000
,
1000
0001
1000
0001
1000
0001
1000
0001
0100
0000
0010
0000
1000
0000
0100
0000
,
0010
0001
0010
0001
0010
0001
0010
0001
1000
0000
0010
1000
0100
1000
0010
0100
,
0002
0000
0000
1003
0100
1000
0010
0100
,
0020
0000
0000
1030
0100
0010
0001
1000
,
0200
0000
0000
1300
0010
0100
0001
1000
,
0020
0000
1030
0100
0020
0000
0031
0100
,
0101
1000
1100
0001
0011
1000
1010
0001
,
2002
0000
0000
3003
,
0010
1000
0100
0010
0001
0100
0010
1000
,
0002
0000
0000
0000
0000
0000
0000
0000
0000
0003
0010
0000
0100
0000
1000
0000
,
0020
0000
0000
0000
0000
0130
0001
1000
,
0220
0000
0030
0302
,
0013
0200
0000
1300
0001
0000
2000
0000
,
3100
0020
0000
0031
1000
0000
0002
0000
,
0013
0200
0000
1300
0001
0000
2000
0000
,
3100
0020
0000
0031
1000
0000
0020
0100
,
0130
0010
0100
0001
0010
0100
2000
0100
,
3100
1000
0010
0100
0001
0010
0002
0100
,
0103
0001
1000
0100
0010
0001
0200
0010
,
0310
0000
0100
0000
0001
0000
0010
0000
0100
0000
1000
0000
0010
0100
0001
0000
,
0001
0010
0100
0000
0100
1000
0001
0000
0001
0100
0010
0000
0010
0100
1000
0000
,
1000
0100
0001
0000
0001
1000
0010
0000
0010
1000
0100
0000
0100
0000
0010
0001
,
0010
0000
0001
1000
0001
1000
0001
1000
0100
0010
0100
0000
1000
0010
1000
0010
,
1000
0010
1000
0010
1000
0010
1000
0010
1000
0010
1000
0010
1000
0100
0010
0000
,
0010
0001
0100
0000
0100
0001
1000
0000
1000
0010
0100
0000
0100
0001
0010
0000
,
0010
0100
1000
0000
1000
0001
0100
0000
0100
0010
1000
0000
0001
0100
0001
0100
,
0001
0100
0001
0100
0010
1000
0010
1000
0010
1000
0010
1000
0100
0000
0000
0000
,
0000
0000
0010
0001
0100
0000
0100
0000
0000
0000
0010
1000
0100
0000
0010
0001
,
0100
0000
0010
1000
0100
0000
0010
0001
0100
0000
0010
1000
0100
0000
0010
0001
,
0100
0000
0010
1000
0100
0000
0010
0001
0100
0000
0010
1000
0100
0010
0100
0010
,
0100
0010
0100
0010
0100
0010
0100
0010
0100
0010
0100
0010
0002
0000
0000
0000
,
0000
0000
0000
0000
0000
0000
1003
0010
,
0100
0000
0010
0000
1000
0000
0100
0000
0010
0000
0001
0000
0100
0010
0100
0010
,
0100
0010
0100
0010
1000
0000
0100
0000
0010
0000
0001
0000
1000
0001
1000
0001
,
1000
0001
1000
0001
0100
0000
0010
0000
1000
0000
0100
0000
0010
0001
0010
0001
,
0010
0001
0010
0001
1000
0000
0001
0100
0010
1000
0100
0010
0001
0000
0100
0000
,
0010
0000
1000
0000
0100
0000
0010
0000
0001
0000
0100
0000
0001
1000
0001
1000
,
0001
1000
0001
1000
0100
0000
1000
0000
0010
0000
0100
0000
0010
1000
0010
1000
,
0010
1000
0010
1000
0100
0000
1000
0000
0010
0000
0100
0000
0001
0010
0001
0010
,
0001
0010
0001
0010
0100
0000
1000
0010
0100
0001
0010
0100
2000
0000
0000
0000
,
0000
3100
1000
0010
0100
0001
0020
0000
,
0000
0130
0010
0001
0100
0010
2000
0000
,
0000
3001
0010
0100
1000
0010
0200
0000
,
0301
0010
0200
0000
1300
0010
1010
0100
,
0101
1000
1100
0001
0011
1000
2002
0000
,
0000
0000
0000
0000
3003
0000
0010
1000
,
0100
0000
0010
0000
0001
0000
0100
0000
0010
0000
1000
0000
0001
0010
0100
1000
,
0001
0010
0100
1000
0001
0000
0100
0000
0010
0000
1000
0000
0100
1000
0010
0100
,
0001
0010
0100
1000
0010
0000
0100
0000
0001
0000
1000
0000
0010
0100
0010
0100
,
0001
0100
0001
0100
0010
0000
1000
0100
0010
0001
0010
0100
1000
0000
1100
0000
,
0000
1001
0000
0110
0000
1001
0200
0000
,
0000
0000
0000
0000
0000
0000
0310
0110
,
0000
0101
0000
1001
0000
1100
0002
0000
,
0000
0000
0000
0000
0000
0000
0103
0110
,
0000
1010
0000
1100
0000
1001
0100
0101
,
0000
1001
0000
1010
0000
0110
1000
1010
,
0000
0101
0000
1010
0000
1001
0010
0010
,
0100
0000
0100
0000
1000
0100
0010
0001
1000
0010
0100
0001
2000
0000
0000
0000
,
0000
0000
0000
0000
,
3000
0000
0000
0000
;

//---------------dance-single - ----------------
#NOTES:
     dance-single:
     :
     Challenge:
     18:
     1.000,1.000,0.416,0.645,1.000: // measure 1
0000
0000
0000
0000
,  // measure 2
0000
0000
0000
0000
,  // measure 3
0000
0000
0000
0000
,  // measure 4
0000
0000
0000
0000
,  // measure 5
0100
0010
0110
1000
0001
1001
0010
0100
,  // measure 6
1000
0001
0100
0010
1000
0000
0001
0000
0010
0100
1000
0001
0100
0000
0010
0000
,  // measure 7
1000
0001
0101
0100
0010
1010
0100
0001
,  // measure 8
0010
0100
1000
0001
0100
0000
0010
0000
1000
0100
0010
0001
1000
0000
0010
0000
,  // measure 9
1001
0000
0000
0000
0000
0000
1000
0100
0001
0000
0100
0000
0000
0000
1000
0010
,  // measure 10
0001
0000
1000
0100
0001
0000
1000
0010
0001
0000
1000
0100
0001
0000
0100
0010
,  // measure 11
1000
0200
0320
0032
0203
0320
2030
3200
,  // measure 12
0310
0001
0100
0010
1000
0100
0010
0001
1000
0000
0020
0000
0230
0000
0302
0000
,  // measure 13
0013
0100
1000
0010
0100
0001
0010
0100
1000
0000
0020
0000
0230
0000
0302
0000
,  // measure 14
0013
0100
0010
0001
0100
0010
1000
0100
0010
0000
0001
0100
0010
1000
0100
0010
,  // measure 15
0001
0200
0320
2030
3200
0320
0032
0203
,  // measure 16
0310
1000
0100
1000
0010
0100
0001
0010
0100
0000
2000
0000
3020
0000
0230
0000
,  // measure 17
0301
0010
0100
1000
0001
0100
0010
1000
0001
0000
0200
0000
0320
0000
2030
0000
,  // measure 18
3001
0010
0100
0010
0001
1000
0010
0100
0001
0000
1000
0100
0010
0001
1000
0010
,  // measure 19
1010
0000
1000
0000
0100
0000
1100
0000
1000
0000
0010
0100
0001
0000
0100
0000
,  // measure 20
1010
0000
1000
0000
0001
0000
0101
0000
0100
0000
0010
1000
0100
0000
0010
0000
,  // measure 21
1001
0000
1000
0000
0010
0000
0110
0000
0100
0000
0001
0100
0010
0000
1000
0000
,  // measure 22
1100
0010
1000
1001
1001
0100
0010
0110
,  // measure 23
0110
0000
0001
0100
0010
0000
1000
0100
0010
0000
0001
1000
0010
0000
0100
0001
,  // measure 24
2000
0000
0000
0000
0000
0000
3001
0010
0001
0010
0001
0010
0100
1000
0100
1000
0100
1000
0001
0100
0001
0100
0001
0100
,  // measure 25
0010
2000
3200
2300
3020
0230
0302
0023
,  // measure 26
0130
1000
0010
0100
0001
0010
0100
1000
0010
0000
0200
0000
0302
0000
0023
0000
,  // measure 27
0031
1000
0010
0100
0001
0100
0010
1000
0001
0000
0020
0000
0230
0000
1300
0000
,  // measure 28
0220
0000
0000
0000
0000
0000
0000
0000
0000
0000
0330
0000
1000
0100
1000
0100
,  // measure 29
0010
0100
0010
0100
0010
0001
0010
0001
0100
0010
0100
0010
1000
0100
1000
0100
,  // measure 30
0010
0100
0010
0100
0010
0001
0010
0001
0100
0010
0100
0010
1000
0100
1000
0100
,  // measure 31
0010
0100
0010
0100
0010
0001
0010
0001
0100
0010
0100
0010
1000
0100
1000
0100
,  // measure 32
0010
0100
0010
0100
0010
0001
0010
0001
0100
0010
0100
0010
1000
0001
0100
0010
,  // measure 33
1000
0001
0100
0010
1000
0001
1000
0001
0010
0100
0010
0100
1000
0010
0100
0001
,  // measure 34
1000
0010
0100
0001
1000
0010
1000
0010
0100
0001
0100
0001
1000
0100
0001
0100
,  // measure 35
1000
0010
0001
0010
0100
0001
0100
0001
1000
0100
1000
0100
0010
0010
0001
0100
,  // measure 36
0010
0010
1000
0001
0100
0010
0100
0010
1000
0000
0001
0000
0100
0010
1000
0000
,  // measure 37
1000
0100
0010
0000
0010
0001
1000
0000
1000
0010
0100
0000
0100
0010
0001
0000
,  // measure 38
0001
0010
1000
0000
1000
0001
0100
0000
0100
0001
0010
0000
0010
0000
0100
1000
,  // measure 39
0100
0000
1000
0001
1000
0001
1000
0001
0010
0100
0010
0000
0001
0100
1000
0100
,  // measure 40
0001
0100
1000
0100
0001
0100
1000
0100
0001
0100
1000
0100
0001
0010
0100
0000
,  // measure 41
0100
1000
0010
0000
0010
1000
0001
0000
0001
0100
0010
0000
0010
1000
0100
0000
,  // measure 42
0100
0010
0001
0000
0001
1000
0010
0000
0010
0100
0001
0000
1000
0010
0001
0010
,  // measure 43
1000
0010
0001
0010
0100
0001
0100
0010
0100
0001
0100
0010
1001
0000
0000
0000
,  // measure 44
0000
0000
0001
0010
1000
0000
0010
0000
0000
0000
0001
0100
1000
0000
0001
0010
,  // measure 45
1000
0000
0001
0100
1000
0000
0001
0010
1000
0000
0001
0100
1000
0000
0001
0010
,  // measure 46
1000
0000
0001
0100
1000
0000
0001
0010
1000
0000
0001
0100
1000
0100
1000
0100
,  // measure 47
0010
0000
0000
0100
0000
0000
0010
0000
0000
0100
0000
0000
0001
0000
0000
0100
0000
0000
0001
0000
0000
0100
0000
0000
0010
0000
0000
0100
0000
0000
0010
0000
0000
0100
0000
0000
0001
0000
1000
0000
0001
0000
1000
0000
0001
0000
1000
0000
,  // measure 48
0010
0100
0010
0100
0010
0100
0001
0010
0001
0010
0001
0010
0100
1000
0100
1000
0100
1000
0010
0000
0000
2000
0000
0000
,  // measure 49
3200
0000
0320
0000
0032
0000
0203
0000
0320
0000
2030
0000
3001
0100
0010
1000
,  // measure 50
0100
0010
0001
1000
0010
0000
0200
0000
0302
0000
0023
0000
0130
1000
0010
0100
,  // measure 51
0001
1000
0010
0100
0001
0000
0020
0000
0230
0000
2300
0000
3010
1000
0010
1000
,  // measure 52
0100
0010
0001
0100
0010
0000
0100
0001
1000
0100
0010
0001
1000
0000
0020
0000
,  // measure 53
0230
0000
0302
0000
0023
0000
0230
0000
0320
0000
0032
0000
0103
0010
1000
0100
,  // measure 54
0010
0001
0100
0010
1000
0000
0002
0000
0203
0000
0320
0000
1030
0100
0010
0001
,  // measure 55
1000
0010
0100
0001
1000
0000
0020
0000
0230
0000
0302
0000
0013
0100
0010
0001
,  // measure 56
0010
0100
1000
0001
0100
0000
0010
1000
0100
0010
0001
0100
0101
0000
0001
0000
,  // measure 57
0010
0000
0011
0000
0001
0000
0100
0010
1000
0000
0010
0000
0101
0000
0001
0000
,  // measure 58
1000
0000
1010
0000
0010
0000
0100
0001
0010
0000
0100
0000
1001
0000
0001
0000
,  // measure 59
0100
0000
0110
0000
0010
0000
1000
0010
0100
0000
0001
0000
0011
0000
0100
0000
,  // measure 60
0001
0000
1001
0000
1001
0000
0010
0000
0100
0000
0110
0000
0110
0000
1000
0010
,  // measure 61
0100
0000
0001
0010
0100
0000
1000
0001
0100
0000
0010
1000
0002
0000
0000
0000
,  // measure 62
0000
0000
0000
0000
0000
0000
0103
0020
,  // measure 63
0230
0000
0302
0000
0023
0000
0230
0000
2300
0000
3002
0000
0103
0010
1000
0100
,  // measure 64
0010
0001
0100
0010
1000
0100
1000
0100
0010
0001
0100
0010
1000
0001
0010
0100
,  // measure 65
1000
0010
0100
0001
1000
0001
1000
0001
0100
0010
1000
0100
0010
0001
0100
0010
,  // measure 66
1000
0100
0010
0001
0100
0001
0100
0010
1000
0100
0010
0001
1000
0000
1001
0000
,  // measure 67
0000
0000
0000
0110
0000
0000
0000
0000
0000
0101
0000
0000
0000
0000
0000
1100
0000
0000
0001
0100
0001
0100
0001
0100
,  // measure 68
0010
1000
0010
1000
0010
1000
0100
0010
0100
0010
0100
0010
0100
0010
0100
0010
0100
0010
0001
0000
0000
0101
0000
0000
,  // measure 69
0000
0000
0000
1001
0000
0000
0000
0000
0000
1100
0000
0000
0000
0000
0000
1001
0000
0000
1000
0010
1000
0010
1000
0010
,  // measure 70
0100
0001
0100
0001
0100
0001
0010
0100
0010
0100
0010
0100
0010
0100
0010
0100
0010
0100
1000
0000
0000
1100
0000
0000
,  // measure 71
0000
1001
0000
0101
0000
0110
1000
1010
,  // measure 72
0000
1001
0000
0011
0000
0101
0100
1010
,  // measure 73
0000
0101
0000
1001
0000
1100
0010
0010
,  // measure 74
0001
0000
0000
1000
0000
0000
0010
0100
0001
1000
0100
0010
0100
1000
0001
0100
0010
1000
0002
0000
0000
0000
0000
0000
,  // measure 75
0000
0000
0000
0000
,  // measure 76
0003
0000
0000
0000
;

//---------------dance-single - ----------------
#NOTES:
     dance-single:
     :
     Easy:
     6:
     0.364,0.541,0.305,0.246,0.000:
0000
0000
0000
0000
,
0000
0000
0000
0000
,
0000
0000
0000
0000
,
0000
0000
0000
0000
,
1000
0001
0100
0010
,
1000
0100
1000
0000
0100
1000
0100
0000
,
1000
0010
0100
0001
,
1000
0001
1000
0000
0001
1000
0001
0000
,
0110
0000
1001
0000
,
0110
1001
0110
1001
,
0220
0000
0000
0330
,
2000
0001
3001
0100
,
0020
0100
0130
0001
,
0020
0100
0130
0010
,
2002
0000
0000
3003
,
0020
1000
1030
0100
,
2000
0001
3001
0100
,
0020
0100
0130
0001
,
1001
0000
0000
0100
0000
0000
1000
0000
,
1010
0000
0000
0100
0000
0000
0001
0000
,
1001
0000
0000
0010
0000
0000
0100
0000
,
0110
0000
0000
1000
1000
0000
0000
0001
,
0001
1000
0010
0100
,
2002
0000
0000
3003
,
0010
1000
0001
0010
,
0200
0000
0000
0300
,
2000
0000
0000
3000
,
0002
0000
0000
0103
,
0000
0100
0000
0000
0000
0000
0001
0000
,
0000
0001
0000
0000
0000
0000
1000
0000
,
0000
1000
0000
0000
0000
0000
0010
0000
,
0000
0010
0000
0000
0000
0000
1000
0000
,
1000
1000
0000
0000
0000
0000
0001
0000
,
0001
0001
0000
0000
0000
0000
0010
0000
,
0010
0010
0000
0000
0000
0000
0100
0000
,
0100
0100
0000
0000
0000
0000
1001
0000
,
0100
0010
1000
0100
,
0100
0010
0001
0100
,
0010
0000
1000
0000
0001
0000
0100
0010
,
0100
0010
0100
0010
0100
0000
0001
0000
,
0001
0010
0001
1000
,
1000
0010
1000
0100
,
0100
0000
0010
0001
0010
0000
1001
0000
,
0000
0110
0000
1001
,
0110
1001
0110
1001
,
0110
0000
1001
0000
0110
0000
1000
0001
,
1000
0001
1000
0001
1000
0001
2000
0000
,
0000
0000
0000
3001
,
0000
0000
0000
0210
,
0010
0310
0000
1002
,
1000
1003
0000
2010
,
0010
0000
3010
0000
0000
0000
0100
0001
,
0100
0001
0100
0001
0100
0000
1002
0000
,
1000
1003
0000
0210
,
0010
0310
0000
0102
,
0100
0103
0000
1001
,
0000
0100
0000
0000
1000
0000
1010
0000
,
0000
0100
0000
0000
0001
0000
1001
0000
,
0000
0010
0000
0000
0100
0000
0110
0000
,
0000
1000
1000
0000
0000
0001
0001
0000
,
1000
0010
0100
2002
,
0000
0000
3003
0010
,
1000
0100
0010
0002
,
0000
0000
0000
0000
0103
0010
0200
0000
,
0000
0000
0000
0000
0301
1000
0002
0000
,
0000
0000
0000
0000
0000
0000
1003
1000
,
0000
0100
0000
0010
0000
0001
0001
0000
,
0000
0000
0000
0000
0000
0000
0100
0100
,
0000
0001
0000
1000
0000
0010
0010
0000
,
0000
0000
0000
0000
0000
0000
1000
1000
,
0000
0001
0000
0010
0000
0100
0100
0100
,
0000
0010
0000
0001
0000
1000
1000
1000
,
0000
0010
0000
1000
0000
0001
0100
0100
,
0010
0100
0000
0000
0000
0000
2002
0000
,
0000
0000
0000
0000
,
3003
0000
0000
0000
;
