#TITLE:Reality;
#SUBTITLE:;
#ARTIST:SHK;
#TITLETRANSLIT:;
#SUBTITLETRANSLIT:;
#ARTISTTRANSLIT:;
#CREDIT:;
#BANNER:Reality.png;
#BACKGROUND:Reality-bg.png;
#LYRICSPATH:;
#CDTITLE:cdtitle.png;
#MUSIC:Reality.mp3;
#OFFSET:-0.040;
#SAMPLESTART:48.033;
#SAMPLELENGTH:11.980;
#SELECTABLE:YES;
#BPMS:0.000=135.000,76.000=67.500,84.000=135.000;
#STOPS:;
#BGCHANGES:12.000=Reality.avi=1.000=1=0=0,
99999=-nosongbg-=1.000=0=0=0 // don't automatically add -songbackground-
;

//---------------dance-single - ----------------
#NOTES:
     dance-single:
     :
     Beginner:
     1:
     0.119,0.153,0.021,0.000,0.000:
0000
0000
0000
0000
,
0000
0000
0000
0000
,
0000
0000
0000
0000
,
0000
0000
0000
0000
,
0000
0000
0000
0000
,
0000
0000
0000
0000
,
0000
0000
0000
0000
,
0100
0000
0000
0000
,
0001
0000
0000
0000
,
1000
0000
1000
0000
,
0010
0010
0000
0000
,
1001
0000
0100
0000
,
1000
0000
1000
0000
,
0010
0000
1000
0000
,
0001
0000
0001
0000
,
0100
0000
0000
0000
,
0001
0000
0000
0000
,
1000
0000
0000
0000
,
0100
0100
0100
0000
,
0010
0000
0001
0000
,
1000
0000
0010
0000
,
1000
0000
1000
0000
,
0001
0000
0001
0000
,
0100
0000
0100
0000
,
0010
0000
0010
0000
,
1000
0000
0000
0000
,
0001
0000
0000
0000
,
0010
0000
0010
0000
,
0100
0100
0100
0000
,
0100
0000
0000
0000
,
1000
0000
0000
0000
,
0001
0000
0000
0000
,
0100
0100
0000
0000
,
0001
0000
0001
0000
,
0001
0000
0001
0000
,
1000
0000
1000
0000
,
1000
0000
1000
0000
,
0010
0000
0010
0000
,
0010
0000
0010
0000
,
0100
0000
0100
0000
,
0100
0000
0100
0000
,
0001
0001
0000
0000
,
1000
1000
0000
0000
,
0100
0000
0100
0000
,
0010
0010
0010
0000
,
0010
0010
0000
0000
,
0001
0001
0000
0000
,
1000
0000
1000
0000
,
0100
0100
0000
0000
,
1001
0000
0000
0000
;

//---------------dance-single - ----------------
#NOTES:
     dance-single:
     :
     Medium:
     6:
     0.311,0.392,0.177,0.239,0.000:
0000
0000
0000
0000
,
0000
0000
0000
0000
,
0000
0000
0000
0000
,
1001
0000
0000
0100
0000
0000
0000
0000
,
1001
0000
0000
0010
0000
0000
0000
0000
,
1000
0001
0000
0010
0000
0000
0000
0000
,
0001
1000
0010
0100
,
1001
0100
1000
0000
,
1001
0100
0001
0000
,
1000
0100
0000
0010
0000
0000
0001
0000
,
0100
0010
0100
0000
0000
0000
0000
0000
,
0001
0100
0010
0010
,
1000
0000
0100
0010
0001
0000
0000
0000
,
0100
0001
1000
1000
,
0010
0000
1000
0100
0010
0000
0000
0000
,
1001
0010
1000
1000
,
0001
0000
0010
0100
1000
0000
0000
0000
,
0010
0010
1000
0001
,
0100
0000
0001
1000
0100
0000
0000
0000
,
2000
3001
0200
0310
,
0002
0013
2000
3010
,
1001
1001
0110
1001
,
0100
1001
0220
0330
,
0001
0100
0010
1000
,
0001
1000
0001
1000
0200
0000
0300
0000
,
0010
0000
1001
0000
0000
0000
0100
1000
,
0001
1000
0010
0000
,
0100
0100
0010
1000
,
0001
0000
0011
0000
1000
0000
0001
0100
,
0020
1030
0000
0001
,
1000
0100
0010
0000
,
0001
0100
0000
0010
0000
0000
0000
0000
,
1000
0001
1000
0000
0000
0000
0000
0000
,
0020
1000
0100
0130
,
2000
0100
3100
0000
,
1000
0001
1000
0000
0010
0100
0010
0000
,
1000
0100
0010
0000
,
0002
0100
0103
0010
,
0020
0100
0130
0000
,
0110
0001
1000
0010
,
0100
0001
1000
0001
0100
0000
0000
0000
,
0010
1100
0000
2000
,
3001
0000
0100
0020
0000
0000
1030
0000
,
0001
0000
0010
0000
0001
1000
0100
0000
,
0020
0032
2003
3000
,
0020
0000
0130
0002
0000
0003
0000
0000
,
0020
0000
0130
2000
0000
3000
0000
0000
,
0010
1000
0000
0001
0000
0000
0000
0000
,
0100
0001
0100
0000
0000
1010
0000
0000
,
0202
0000
0000
0000
,
0000
0303
0000
0000
;

//---------------dance-single - ----------------
#NOTES:
     dance-single:
     :
     Hard:
     10:
     0.451,0.445,0.375,0.083,0.000:
0000
0000
0000
0000
,
0000
0000
0000
0000
,
0000
0000
0000
0000
,
1010
0000
0000
1001
0000
0000
0000
0000
,
0101
0000
0000
1001
0000
0000
0000
0000
,
1100
1100
0000
0011
0000
0000
0000
1000
,
0010
0100
0001
0010
0100
1000
0001
0000
,
0100
0010
0100
0001
0010
0100
1000
0010
,
1000
0001
0010
0001
0100
0010
1000
0000
,
0001
1000
0010
1000
0001
0010
0100
0000
,
1001
1001
1001
0000
0000
0000
0000
0000
,
0010
0000
1000
0000
0100
0010
0001
0000
,
0100
0010
1000
0000
0002
0000
0003
0000
,
0010
0001
1000
0000
0100
1000
0010
0000
,
0100
0000
0010
1000
0200
0000
0300
0000
,
0010
0001
1000
0001
0100
0001
1000
0000
,
0010
1000
0100
1000
0001
1000
0010
0000
,
0100
0001
1000
0000
0100
0010
0001
0000
,
1100
0000
0001
0100
0010
1000
0001
0000
,
0200
0000
0310
0000
0100
0001
1000
0000
,
0020
0000
1030
0100
0010
0001
0100
0100
,
0010
1100
0010
0101
,
1000
0100
0001
0100
1000
0000
0001
0000
,
0100
1010
0100
0011
,
1000
0010
0001
0010
1000
0000
0001
0000
,
1000
0100
0010
0001
0100
0010
1000
0000
,
0001
1000
0010
0100
0001
0010
0100
0000
,
0010
0001
0100
0010
1000
0001
0100
0000
,
0001
1000
0100
0000
1000
0001
0100
0000
,
1001
0000
0110
1000
0100
0000
1000
0000
,
1001
0000
0110
0001
0010
0000
0001
0000
,
0100
0010
0000
1000
0000
0001
0010
0000
,
1001
1001
1001
0000
0000
0000
0000
0000
,
0010
1000
0100
0000
0010
1000
0100
0000
,
0010
1000
0100
0010
0002
0000
1003
0000
,
0010
0001
0100
0000
0010
0001
0100
0000
,
0010
0001
0100
0010
2000
0000
3001
0000
,
0100
0010
1000
0100
0001
0100
1000
0010
,
0100
0000
0010
1000
0001
0000
0110
0000
,
0001
0010
0001
0000
1000
0010
1000
0000
,
0101
1100
0011
1010
,
0001
1000
0010
0100
0001
0010
0100
0010
,
0001
0100
0010
1000
0100
0010
0001
0000
,
1000
0001
0100
0010
0100
0001
0010
0100
,
1000
0010
1000
0001
0010
0001
0100
0000
,
1010
0000
0101
0000
1000
0000
0011
1000
,
0001
0000
0100
0001
1000
0000
1100
0000
,
0001
0100
0000
0010
0000
1000
0001
0000
,
1001
1001
1001
0000
0000
1010
0000
0000
,
0202
0000
0000
0000
,
0000
0303
0000
0000
;

//---------------dance-single - ----------------
#NOTES:
     dance-single:
     :
     Challenge:
     15:
     0.720,0.706,0.281,0.198,0.651:
0000
0000
0000
0000
,
0000
0000
0000
0000
,
0000
0000
0000
0000
,
1001
0000
0000
0110
0000
0000
0000
0000
,
0101
0000
0000
1010
0000
0000
0000
0000
,
1100
1100
0000
0011
0000
0000
0000
0001
,
1000
0000
0001
0000
0100
0000
0010
0000
1000
0100
0010
0001
1000
0100
0010
0001
,
1000
0000
0010
0100
0010
0000
1000
0000
0100
0000
1000
0000
0010
0000
0100
0000
,
0001
0000
0010
0100
0010
0000
0001
0000
0100
0000
0010
0000
0100
0000
0001
1000
,
0100
1000
0010
1000
0001
0010
0100
1000
,
0101
0000
1100
0000
0101
0000
0000
0000
1000
0000
0000
0001
0000
0000
0010
0000
,
0100
0000
1000
0010
0000
0010
0100
0000
0001
1000
0000
1000
0010
0000
1000
0000
,
0001
0000
0010
0100
0000
0100
0010
0000
0001
1000
0000
1000
0010
0000
0100
0000
,
0001
0000
1000
0100
0000
1000
0010
0000
0100
0001
0000
1000
0100
0000
1000
0000
,
0001
0000
1000
0010
0000
1000
0001
0000
0010
0001
0000
1000
0001
0100
0001
1000
,
0001
0000
0010
0100
0010
0000
0001
0000
1000
0000
0010
0100
0010
0000
1000
0000
,
0001
0000
0010
0100
0010
0000
0001
0000
2000
0000
0000
0000
3100
0000
0000
0000
,
1000
0000
0010
0100
0010
0000
1000
0000
0001
0000
0010
0100
0010
0000
0001
0000
,
1000
0000
0010
0100
0010
0000
1000
0000
0001
0010
0100
1000
0010
0100
0001
1000
,
0001
0000
0000
0000
0010
0000
1000
0000
0001
0000
0000
0000
0010
0000
0001
0000
0100
0000
0000
0000
0010
0000
1000
0001
0200
0000
0000
0000
0310
0000
0000
0000
,
0001
0000
0010
0000
0100
0000
1000
0000
0010
0000
0100
0000
0001
0000
1000
0000
0020
0000
0000
0000
0000
0000
1030
0000
0001
0000
0000
0000
0100
0010
0000
0000
,
1000
0000
1000
0100
0000
0100
0010
0000
0001
0000
0001
0100
0000
0100
0010
0000
,
1000
0000
1000
0010
0000
0010
0100
0000
0001
0000
0010
0000
0100
0000
1000
0000
,
0001
0000
0001
0010
0000
0010
0001
0000
1000
0000
1000
0010
0000
0010
0100
0000
,
0001
0010
0100
0010
0001
0010
0100
1000
0001
1000
0100
0010
0001
0010
0100
1000
,
0001
0000
0100
0010
0100
0000
0002
0000
1000
0000
1003
0000
0100
0000
1000
0000
,
0010
0000
1000
0001
1000
0000
0020
0000
0100
0000
0130
0000
0001
0000
0010
0100
,
1000
0000
0100
0000
0010
0000
0001
0000
0100
0000
0010
0000
0100
0000
0001
1000
,
0100
0000
1000
0000
0010
0000
0100
0000
0001
1000
0000
1000
0001
0000
0100
0000
,
1001
0000
0010
1000
0100
0000
0020
0000
0001
0000
0031
0000
0010
0000
0100
1000
,
0100
0000
0010
0001
1000
0000
0020
0000
0100
0000
0130
0000
0001
0000
1000
0010
,
0100
0001
0010
0100
1000
0001
0100
0010
,
1010
0000
0011
0000
1010
0000
0000
0000
0001
0000
0000
1000
0000
0000
0010
0000
,
1001
0000
0001
0010
0001
0100
0001
1000
0001
0000
1000
0100
1000
0010
1000
0001
,
1000
0000
0010
1000
0100
0010
0001
1000
0010
0000
0100
0000
0001
0000
0000
0000
,
1200
0000
0000
0310
0000
0000
0001
0000
0201
0000
0000
0310
0000
0000
0010
0000
,
1020
0000
0000
0031
0000
0000
0010
0000
1000
0100
0000
0100
0010
0000
0001
0000
,
1001
0000
1000
0100
1000
0010
1000
0001
1000
0000
0001
0010
0001
0100
0001
1000
,
0001
0000
0100
0001
0010
0100
1000
0001
0100
0000
0010
0000
1000
0000
0000
0000
,
0021
0000
0000
0130
0000
0000
1000
0000
1020
0000
0000
0130
0000
0000
0100
0000
,
0201
0000
0000
1300
0000
0000
0100
0000
0001
0010
0100
1000
0001
0010
0100
1000
,
0001
0000
1000
0100
1000
0000
0020
0000
1000
0000
0130
0000
0001
0000
0100
0000
,
0010
0000
1000
0100
1000
0000
0002
0000
1000
0000
0013
0000
0100
0000
0010
0001
,
0010
0100
1000
0010
0100
0001
1000
0010
,
0100
0001
1000
0100
1000
0001
0010
0100
0010
0001
1000
0010
0100
0001
1000
0000
,
0010
0000
1000
0001
1000
0000
0020
0000
1000
0000
0130
0000
0001
0000
1000
0100
,
1000
0000
0001
0100
0001
0000
0020
0000
0100
0000
0031
0000
0010
0000
0100
1000
,
0100
0000
0010
0001
1000
0010
1000
0001
1000
0010
0100
0001
0010
0100
1000
0000
,
0101
1001
1010
0000
1000
0110
0001
0000
,
2200
0000
0000
0000
,
0000
3300
0000
0000
;

//---------------dance-single - ----------------
#NOTES:
     dance-single:
     :
     Easy:
     3:
     0.187,0.209,0.062,0.073,0.000:
0000
0000
0000
0000
,
0000
0000
0000
0000
,
0000
0000
0000
0000
,
1000
0000
0000
1000
0000
0000
0000
0000
,
0001
0000
0000
0001
0000
0000
0000
0000
,
0100
0000
0000
0100
0000
0000
0000
0000
,
0010
0000
0010
0000
,
1000
0100
0100
0000
,
0010
0001
0001
0000
,
1000
0000
0001
0000
,
0100
0100
0100
0000
0000
0000
0000
0000
,
0001
0000
1000
0000
,
0010
1000
0100
0000
,
1000
0000
0001
0000
,
0100
0001
0010
0000
,
0110
0000
0001
0000
,
0010
0001
1000
0000
,
0010
0000
1000
0000
,
0100
1000
0010
0000
,
0200
0300
0002
0003
,
2000
3000
0020
0030
,
1000
0000
0001
0000
,
0100
0010
0100
0000
,
0001
0000
1000
0000
,
0100
0010
0100
0000
,
1001
0000
0010
0000
,
1000
0100
0010
0000
,
0001
0100
0010
0000
,
0100
0000
0001
0000
,
1001
0000
0010
0000
,
1000
0100
0010
0000
,
0001
0000
1000
0000
,
0010
0010
0010
0000
0000
0000
0000
0000
,
0100
0000
0001
0000
,
1000
0000
0100
0000
,
1000
1000
0100
0100
,
0010
0010
0001
0000
,
0100
0000
0001
0000
,
1000
0000
0100
0000
,
0010
0010
0001
0001
,
0100
0100
0100
0000
,
1001
0000
0010
0000
,
1000
0000
0001
0000
,
1000
0000
0100
0000
,
0020
0000
0130
0000
,
0110
0000
0001
0000
,
1000
0000
0010
0000
,
0100
0000
0001
0000
,
1000
1000
1000
0000
0000
0000
0000
0000
,
2002
0000
0000
0000
,
0000
3003
0000
0000
;
