#TITLE:Phantom;
#SUBTITLE:;
#ARTIST:BanYa;
#TITLETRANSLIT:;
#SUBTITLETRANSLIT:;
#ARTISTTRANSLIT:;
#CREDIT:;
#BANNER:Phantom-bn.png;
#BACKGROUND:Phantom-BG.png;
#LYRICSPATH:;
#CDTITLE:cdtitle.png;
#MUSIC:Phantom.mp3;
#OFFSET:-0.107;
#SAMPLESTART:7.142;
#SAMPLELENGTH:18.000;
#SELECTABLE:YES;
#DISPLAYBPM:136:272;
#BPMS:0.000=136.000,48.000=68.000,64.000=136.000,144.000=272.000,240.000=17.000;
#STOPS:;
#BGCHANGES:-0.026=Phantom.avi=1.000=0=0=0,
99999=-nosongbg-=1.000=0=0=0 // don't automatically add -songbackground-
;

//---------------dance-single - ----------------
#NOTES:
     dance-single:
     :
     Beginner:
     3:
     0.149,0.214,0.020,0.000,0.000:
0000
0000
0000
0000
,
0000
0000
0000
0000
,
0000
0000
0000
0000
,
0000
0000
0000
0000
,
1000
1000
1000
0000
,
0100
0000
1000
0000
,
0001
0001
0001
0000
,
0100
0000
0001
0000
,
0010
0010
0010
0000
,
0001
0000
1000
0000
,
0100
0100
0100
0000
,
1000
0000
0001
0000
,
0100
0000
0000
0000
,
0010
0000
1000
1000
,
1000
0000
0000
0100
,
0100
0000
0010
0010
,
0010
0000
0000
0000
,
0001
0001
0001
0001
,
0001
0000
0000
0000
,
1000
1000
1000
1000
,
1000
0000
0000
0000
,
0100
0100
0100
0100
,
0100
0000
0000
0000
,
1000
1000
1000
1000
,
1000
0000
0000
0000
,
0010
0000
1000
0000
,
0001
0000
0000
0000
,
0100
0000
0001
0000
,
1000
1000
1000
0000
,
0100
0100
0100
0000
,
1000
0000
0001
0000
,
0100
0000
0000
0000
,
1001
0000
0000
0000
,
0000
0000
0000
0000
,
0000
0000
0000
0000
,
0000
0000
0000
0000
,
0010
0000
0000
0000
,
1000
0000
0000
0000
,
0001
0000
0000
0000
,
0100
0000
0100
0000
,
0100
0000
0000
0000
,
0001
0000
0000
0000
,
1000
0000
0000
0000
,
0010
0000
0010
0000
,
0010
0000
0000
0000
,
1000
0000
0000
0000
,
0001
0000
0000
0000
,
1000
0000
1000
0000
,
1000
0000
0000
0000
,
0100
0000
0000
0000
,
0010
0000
0000
0000
,
0001
0000
0001
0000
,
0001
0000
1000
0000
,
0100
0000
0000
0000
,
1000
0000
0010
0000
,
0100
0000
0010
0000
,
1000
0000
0100
0000
,
0100
0000
0000
0000
,
1000
0000
0100
0000
,
0010
0000
0001
0000
,
1001
0000
0000
0000
;

//---------------dance-single - ----------------
#NOTES:
     dance-single:
     :
     Medium:
     9:
     0.429,0.491,0.418,0.235,0.020:
0000
0000
0000
0000
,
0000
0000
0000
0000
,
2002
0000
0000
3003
,
0220
0000
0000
0330
,
2000
0000
3100
0010
0001
0000
1000
0000
,
0101
0101
1100
1100
,
0002
0000
0013
0100
1000
0000
0001
0000
,
0110
0110
1001
1001
,
0020
0000
1030
0100
0010
0000
0001
0000
,
1100
0101
0011
1010
,
0200
0000
0301
0010
0100
0000
1000
0000
,
1010
0101
1001
0110
,
2000
0000
0000
0000
0100
0000
0000
0000
3100
0000
0000
0000
1000
0100
0010
0001
,
0200
0000
0010
0000
0301
0001
1000
1000
,
0020
0000
0000
0000
0100
0000
0000
0000
0130
0000
0000
0000
0100
0001
1000
0010
,
0200
0000
0001
0000
0301
0001
1000
1000
,
0010
0000
0100
0001
1000
0000
0100
0000
,
0010
0001
1000
0000
0010
1000
0001
0000
,
0100
0000
0001
0100
0010
0000
1000
0000
,
0100
1000
0001
0000
0100
0001
1000
0000
,
0110
1001
0110
0000
,
1000
0100
0001
0000
1000
0100
0001
0000
,
1100
0101
1100
0000
,
0001
0010
1000
0000
0001
0010
1000
0000
,
0002
0000
2003
0000
3010
0100
0010
0000
,
1100
0101
1001
0110
,
0002
0000
2003
0000
3010
1000
0001
0000
,
0110
0101
1100
0101
,
1000
0100
1000
0100
1000
1000
1000
0000
,
0001
0100
0001
0100
0001
0001
0001
0000
,
0101
1100
0011
1010
,
0200
0000
0000
0000
,
0302
0000
0000
0000
,
2003
0000
0000
0000
,
3200
0000
0000
0000
,
0320
0000
0000
0000
,
0031
1000
0010
0100
,
0001
0100
0010
1000
,
0001
0010
0100
1000
,
1001
0000
0000
0000
,
1000
0010
1000
0001
,
0100
0010
0100
0001
,
0010
0100
1000
0001
,
0101
0000
0000
0000
,
0100
0001
1000
0010
,
0100
0010
1000
0001
,
0010
0100
1000
0010
,
1010
0000
0000
0000
,
1000
0010
0100
0010
,
1000
0100
0010
0001
,
1000
0010
0100
0001
,
0101
0000
0000
0000
,
1000
0100
0001
0100
,
1000
0010
0100
0010
,
1000
0100
0010
0001
,
0100
0010
1000
0100
,
1000
0001
0010
1000
,
0010
0001
1000
0010
,
0100
0001
0100
0010
,
1000
0100
0010
0001
,
2002
0000
0000
3003
0000
0000
0000
0000
0000
0000
0000
0000
0000
0000
0000
0000
;

//---------------dance-single - ----------------
#NOTES:
     dance-single:
     :
     Hard:
     13:
     0.572,0.768,0.235,0.449,0.148:
0000
0000
0000
0000
,
0000
0000
0000
0000
,
2002
0000
3003
0220
,
0000
0000
0000
0330
,
1000
0010
0100
0001
2000
0000
3001
0000
,
0120
0032
2003
3020
,
0130
0001
1000
0010
0200
0000
0301
0000
,
2100
3002
0023
0230
,
1300
0010
0100
0001
2000
0000
3010
0000
,
0102
2003
3020
0230
,
0301
0010
0100
1000
0002
0000
1003
0000
,
0210
2300
3020
0130
,
0002
0000
1000
0000
0100
0000
0010
0000
0100
0000
0013
0000
1000
0100
0010
0001
,
2000
0100
0010
3001
1100
0101
0011
1010
,
0200
0000
0001
0000
0010
0000
1000
0000
0010
0000
0301
0000
0010
1000
0100
0010
,
0002
0100
1000
0013
1100
0101
0011
1001
,
0100
0000
0010
1000
0100
0000
0010
0000
0002
0000
0000
0000
1003
0000
0000
0000
,
1010
1000
0001
0100
0010
1000
0001
0000
,
1000
0000
0100
0010
0001
0000
1000
0000
0020
0000
0000
0000
0130
0000
0000
0000
,
0101
0100
0010
1000
0001
0010
0100
0000
,
1000
0000
0010
1000
0001
0000
0100
0000
0020
0000
0000
0000
1030
0000
0000
0000
,
1100
1000
0010
0100
0001
1000
0010
0000
,
0100
0000
0001
1000
0100
0000
0010
0000
0002
0000
0000
0000
1003
0000
0000
0000
,
0110
0100
0001
0010
0100
1000
0001
0000
,
0100
0000
0001
1000
0001
0000
0010
0000
0001
1000
0001
0000
0100
0010
0000
0000
,
2000
0000
0000
3001
0000
0000
0200
0000
0000
0310
0000
0000
1000
0000
0000
0000
,
0100
0000
1000
0001
1000
0000
0010
0000
1000
0001
1000
0000
0100
0010
0000
0000
,
0002
0000
0000
1003
0000
0000
0200
0000
0000
0310
0000
0000
1001
0000
0000
0000
,
1000
0100
1000
0000
0001
1000
0001
0000
0100
0000
0100
0000
0010
1000
0000
0000
,
0001
0010
0001
0000
1000
0100
1000
0000
0001
0000
0001
0000
1000
0100
0000
0000
,
0010
0000
0001
1000
0001
0000
0100
0000
0001
1000
0001
0000
0100
0010
0000
0000
,
1100
0000
0000
0101
0000
0000
0011
0000
0000
1010
0000
0000
0100
0000
0001
0000
,
2000
0000
3020
0000
,
0230
0000
0302
0000
,
2003
0000
3020
0000
,
0230
0000
0302
0000
,
0013
0000
0001
0000
1000
0100
1000
0000
,
0010
0000
1000
0000
0001
0100
0001
0000
,
1000
0000
0010
0000
0100
0001
0100
0000
,
0010
0000
0000
1000
0000
0000
0001
0000
,
1000
0000
0010
0000
1000
0100
1000
0000
,
0010
0000
0100
0000
0001
1000
0001
0000
,
0010
0000
0100
0000
1000
0100
1000
0000
,
0010
0000
0000
1000
0000
0000
0001
0000
,
0100
0000
0010
0000
1000
0100
0010
0000
,
0001
0000
1000
0000
0010
0100
0001
0000
,
0010
0000
0100
0000
1000
0001
0100
0000
,
0010
0000
0000
1000
0000
0000
0001
0000
,
0010
0000
0100
0000
1000
0001
0100
0000
,
0010
0000
1000
0000
0001
0010
0100
0000
,
1000
0000
0001
0000
1000
0100
0010
0000
,
0001
0000
0000
1000
0000
0000
0010
0000
,
0100
0000
0001
1000
0001
0000
1000
0000
,
0100
0000
1000
0010
1000
0000
0001
0000
,
1000
0000
0010
0100
0010
0000
0100
0000
,
0001
0000
1000
0100
1000
0000
0010
0000
,
0100
0000
0001
1000
0001
0000
0010
0100
,
0010
0000
0001
1000
0001
0000
1000
0100
,
1000
0000
0010
1000
0010
0000
0100
0001
,
1000
0000
0100
1000
0001
0000
0010
0100
,
2000
0000
0000
3000
0000
0000
0000
0000
0000
0000
0000
0000
0000
0000
0000
0000
;

//---------------dance-single - ----------------
#NOTES:
     dance-single:
     :
     Easy:
     6:
     0.328,0.461,0.184,0.551,0.000:
0000
0000
0000
0000
,
0000
0000
0000
0000
,
1000
0000
0000
0000
,
0001
0000
0000
0000
,
0200
0000
0000
0000
0320
0000
0000
0030
0200
0000
0000
0000
0300
0000
0000
0000
,
0002
2003
3002
2003
,
3020
0000
0000
0000
0230
0000
0000
0300
0020
0000
0000
0000
0030
0000
0000
0000
,
2000
3002
2003
3002
,
0203
0000
0000
0000
0320
0000
0000
0030
2000
0000
0000
0000
3000
0000
0000
0000
,
0200
0000
0000
0000
0320
0000
0000
0030
0200
0000
0000
0000
0320
0000
0000
0000
,
0032
0000
0000
0003
2000
0000
0000
3000
0020
0000
0000
0000
0030
0000
0000
0000
,
0200
0302
0203
0302
,
2003
0000
0000
3100
,
0020
0000
0000
0000
0031
0001
0001
0001
,
0020
0000
0000
0130
,
2000
0000
0000
0000
3010
0010
0010
0010
,
0100
0002
2003
3100
,
0110
0110
0110
0110
,
0010
0002
2003
3010
,
1001
1001
1001
1001
,
0100
0002
2003
3100
,
0110
0110
0110
0110
,
1000
0020
0230
0301
,
1001
1001
1001
1001
,
0200
0300
1000
0000
,
0010
1000
0010
0100
,
0002
0003
1000
0000
,
0001
0010
0001
1000
,
0200
0300
0020
0030
,
0100
1000
0010
0100
,
0002
0003
2000
3000
,
2002
0000
0000
3003
,
0200
0000
0000
0300
,
0020
0000
0000
0030
,
0002
0000
0000
0003
,
2000
0000
0000
0000
0000
0000
0000
0000
0000
0000
0000
0000
0000
3000
0000
0000
,
0010
0000
0100
0000
,
0001
0000
1000
0000
,
0100
0000
0010
0000
,
0001
0000
0001
0000
,
0100
0000
0001
0000
,
1000
0000
0010
0000
,
0100
0000
0010
0000
,
1000
0000
1000
0000
,
0100
0000
1000
0000
,
0010
0000
0100
0000
,
0001
0000
1000
0000
,
0100
0000
0100
0000
,
1000
0000
0001
0000
,
0010
0000
0001
0000
,
1000
0000
0010
0000
,
0100
0000
0100
0000
,
0001
0001
0001
0000
,
0100
0000
0001
0000
,
1000
1000
1000
0000
,
0100
0000
0100
0000
,
1000
0000
0010
0000
,
0100
0000
0001
0000
,
0010
0010
0010
0000
,
0100
0000
1000
0000
,
2002
0000
0000
3003
0000
0000
0000
0000
0000
0000
0000
0000
0000
0000
0000
0000
;

//---------------dance-single - ----------------
#NOTES:
     dance-single:
     :
     Challenge:
     18:
     0.868,1.000,0.184,0.357,0.766:
0000
0000
0000
0000
,
0000
0000
0000
0000
,
0001
1000
0001
1000
0001
1000
0001
1000
0001
0000
0000
0000
0200
0000
0000
0000
,
0301
1000
0001
1000
0001
1000
0001
1000
0001
0000
0000
0000
0100
0000
0000
0000
,
0010
0000
1000
0100
0010
0000
0001
1000
0010
0000
0100
0001
1000
0100
0010
0001
,
2000
3020
0230
0302
,
0013
0000
0100
1000
0001
0000
0100
0001
1000
0000
0010
1000
0100
0010
0001
1000
,
0020
2030
3002
0203
,
0301
0000
1000
0100
0010
0000
0001
1000
0010
0000
0100
0001
1000
0100
0010
0001
,
2000
0010
0000
0000
3020
0100
0000
0000
2030
0001
0000
0000
3002
0010
0000
0000
,
0103
0000
0001
0010
0100
0000
1000
0010
0100
0000
0001
0010
0100
0010
0001
1000
,
0020
0100
0000
0000
0230
0001
0000
0000
0302
0010
0000
0000
2003
0001
0000
0000
,
3100
1000
0000
0000
0101
0000
0000
0000
0010
1000
0000
0000
1001
0000
0000
0000
0010
0100
0000
0000
0101
0000
0000
0000
1000
0000
0100
0000
0010
0000
0001
0000
,
1000
0000
0000
0000
0110
0000
0000
0000
0001
1000
0000
0000
1100
0000
0000
0000
0010
1000
0010
0000
1000
0100
1000
0000
0001
1000
0001
0000
0100
0001
0100
0000
,
0020
0000
0000
0000
1000
0000
0000
0000
0100
0000
0000
0000
0001
0000
0000
0000
0100
0000
0000
0000
1030
0000
0000
0000
0100
1000
0010
0100
0001
0010
0100
1000
,
0002
0000
0000
0000
1000
0000
0000
0000
0100
0000
0000
0000
0013
0000
0000
0000
1000
0100
1000
0000
0001
1000
0001
0000
0100
0000
0010
0000
2000
0000
0000
0000
,
3001
1000
0100
1000
0010
0000
0100
0000
0002
0000
0000
0000
1003
0000
0000
0000
,
0010
1000
0010
1000
0100
1000
0100
1000
0001
1000
0001
1000
0010
0000
0000
0000
,
0100
0001
1000
0010
1000
0000
0001
0000
0200
0000
0000
0000
0301
0000
0000
0000
,
0010
0001
0010
0001
1000
0001
1000
0001
0100
0001
0100
0001
1000
0000
0001
0000
,
0010
0100
1000
0010
0100
0000
0001
0000
1000
0100
0010
0001
1000
0000
0010
0000
,
0100
0001
0100
0001
1000
0100
1000
0100
0010
0001
0010
0001
1000
0000
0010
0000
,
0100
0001
1000
0010
0100
0000
0001
0000
0010
0100
1000
0001
0100
0000
0010
0000
,
1000
0100
1000
0100
0010
0001
0010
0001
1000
0010
1000
0010
0100
0001
0100
0001
,
2000
0000
0000
0000
3100
0000
1000
0100
0010
0000
0001
0000
1000
0010
0000
0000
,
0100
0000
0100
0001
0000
0001
1000
0000
1000
0100
0000
0100
0010
0000
0001
0000
,
0200
0000
0000
0000
0310
0100
0001
1000
0010
0000
0100
0000
0001
1000
0000
0000
,
0100
0000
0100
1000
0000
1000
0010
0000
0010
0100
0000
0100
0001
0000
1000
0000
,
0010
1000
0100
1000
0010
0100
0001
0010
0100
1000
0010
0100
0001
1000
0010
0000
,
0100
0001
1000
0010
1000
0100
0010
0001
1000
0010
0100
0001
0010
0001
1000
0000
,
0020
0000
0000
0000
1030
0000
0100
1000
0010
0000
0100
0000
0001
1000
0000
0000
,
0001
0000
0001
0010
0000
0010
0100
0000
0100
1000
0000
1000
0010
0000
0100
0000
,
0002
0100
2003
0100
,
3002
0010
2003
0010
,
3002
0100
2003
0100
,
3002
0010
2003
0010
,
3001
0000
0100
0000
0010
0000
1000
0000
0100
0010
0100
0000
1000
0000
0001
0000
,
0100
0000
0010
0000
1000
0000
0100
0000
0010
0001
0010
0000
0100
0000
0010
0000
,
0001
0000
0100
0000
0010
0000
1000
0000
0100
0010
0100
0000
1000
0000
0010
0000
,
0110
0000
0000
0101
0000
0000
1001
0000
,
0100
0000
1000
0000
0100
0000
0001
0000
0010
0100
0010
0000
0001
0000
1000
0000
,
0100
0000
1000
0000
0010
0000
0100
0000
0001
1000
0001
0000
0100
0000
0010
0000
,
1000
0000
0100
0000
0010
0000
0001
0000
1000
0100
1000
0000
0010
0000
0100
0000
,
0101
0000
0000
1100
0000
0000
1001
0000
,
0100
0000
0010
0000
1000
0000
0100
0000
0010
0001
1000
0000
0010
0000
0100
0000
,
0001
0000
1000
0000
0100
0000
1000
0000
0010
1000
0100
0000
0010
0000
0001
0000
,
1000
0000
0001
0000
0100
0000
0010
0000
1000
0100
0010
0000
0001
0000
0100
0000
,
0101
0000
0000
1001
0000
0000
0110
0000
,
1000
0000
0100
0000
0001
0000
0100
0000
1000
0010
0100
0000
0001
0000
0010
0000
,
1000
0000
0010
0000
0001
0000
0100
0000
0010
1000
0001
0000
0100
0000
0010
0000
,
1000
0000
0100
0000
1000
0000
0010
0000
0100
0001
1000
0000
0010
0000
0100
0000
,
0101
0000
0000
1001
0000
0000
1100
0000
,
0001
0000
0010
0000
1000
0000
0010
0000
0001
0010
1000
0000
0010
0000
0001
0000
,
0010
0000
1000
0000
0010
0000
0001
0000
0010
1000
0010
0000
0001
0000
0010
0000
,
1000
0000
0010
0000
0001
0000
0010
0000
1000
0010
0001
0000
0010
0000
1000
0000
,
0010
0001
0100
0010
1000
0100
0010
0001
,
0100
0000
1000
0000
0100
0000
0001
0000
0100
1000
0100
0000
0001
0000
0100
0000
,
1000
0000
0100
0000
0001
0000
0100
0000
1000
0100
0001
0000
0100
0000
1000
0000
,
0100
0000
0001
0000
0100
0000
1000
0000
0100
0001
0100
0000
1000
0000
0100
0000
,
0001
0010
0100
0010
0001
1000
0100
0010
,
2002
0000
0000
3003
0000
0000
0000
0000
0000
0000
0000
0000
0000
0000
0000
0000
;
