#TITLE:Mission Possible;
#SUBTITLE:-Blowback-;
#ARTIST:Banya Production;
#TITLETRANSLIT:;
#SUBTITLETRANSLIT:;
#ARTISTTRANSLIT:;
#CREDIT:;
#BANNER:Mission Possible -Blowback-bn.png;
#BACKGROUND:Mission Possible -Blowback-bg.png;
#LYRICSPATH:;
#CDTITLE:cdtitle.png;
#MUSIC:Mission Possible -Blowback-.mp3;
#OFFSET:-0.733;
#SAMPLESTART:45.729;
#SAMPLELENGTH:14.980;
#SELECTABLE:YES;
#BPMS:0.000=128.010;
#STOPS:;
#BGCHANGES:5.500=Mission Possible -Blowback-.avi=1.000=1=0=0,
99999=-nosongbg-=1.000=0=0=0 // don't automatically add -songbackground-
;

//---------------dance-single - ----------------
#NOTES:
     dance-single:
     :
     Beginner:
     2:
     0.128,0.170,0.019,0.019,0.000: // measure 1
0000
0000
0000
0000
,  // measure 2
0000
0000
0000
0000
,  // measure 3
0000
0000
0000
0000
,  // measure 4
0000
0000
0000
0000
,  // measure 5
1000
0000
0001
0000
,  // measure 6
0000
0100
0100
0000
,  // measure 7
0001
0000
1000
0000
,  // measure 8
0000
0100
0100
0000
,  // measure 9
1000
0000
0001
0000
,  // measure 10
0000
0010
0010
0000
,  // measure 11
0001
0000
1000
0000
,  // measure 12
0000
0010
0010
0000
,  // measure 13
1000
1000
0000
0000
,  // measure 14
0100
0000
0100
0000
,  // measure 15
0010
0010
0000
0000
,  // measure 16
0001
0000
0001
0000
,  // measure 17
0100
0100
0000
0000
,  // measure 18
0010
0000
0010
0000
,  // measure 19
1000
1000
0000
0000
,  // measure 20
0001
0000
0001
0000
,  // measure 21
0100
0000
0000
0000
,  // measure 22
0001
0000
1000
0000
,  // measure 23
0100
0000
0000
0000
,  // measure 24
1000
0000
0010
0000
,  // measure 25
0100
0000
0000
0000
,  // measure 26
0001
0000
0000
0000
,  // measure 27
1000
0000
0100
0100
,  // measure 28
0100
0000
0000
0000
,  // measure 29
1001
0000
0000
0000
,  // measure 30
0010
0000
0000
0000
,  // measure 31
0001
0000
0100
0100
,  // measure 32
0100
0000
0000
0000
,  // measure 33
0010
0000
0000
0000
,  // measure 34
0000
0000
0000
0000
,  // measure 35
0000
0000
0000
0000
,  // measure 36
2002
0000
3003
0000
,  // measure 37
0010
0010
0000
1000
,  // measure 38
0000
0100
0100
0000
,  // measure 39
0010
0010
0000
0001
,  // measure 40
0000
1000
1000
0000
,  // measure 41
0010
0010
0000
1000
,  // measure 42
0000
0100
0100
0000
,  // measure 43
1000
1000
0000
0001
,  // measure 44
0000
0100
0100
0000
,  // measure 45
0001
0000
1000
0000
,  // measure 46
0100
0100
0100
0000
,  // measure 47
0010
0000
0001
0000
,  // measure 48
0100
0000
0000
0000
,  // measure 49
0001
0001
0001
0000
,  // measure 50
1000
1000
1000
0000
,  // measure 51
0010
0010
0010
0000
,  // measure 52
0100
0000
0000
0000
;

//---------------dance-single - ----------------
#NOTES:
     dance-single:
     :
     Challenge:
     17:
     0.872,1.000,0.200,0.162,1.000:
0000
0000
0000
0000
,
0000
0000
0000
0000
,
0000
0000
0000
0000
,
0010
0000
0100
0010
0000
1000
0010
0000
0001
0010
0100
0001
1000
0100
0010
0001
,
1000
0000
0001
0000
1000
0010
0100
0001
0010
0100
0010
0001
1000
0010
0100
0001
,
0010
0100
0010
0001
1000
0010
1000
0100
0010
0001
0100
0010
1000
0100
0010
0001
,
1000
0000
0001
0000
1000
0010
1000
0001
0010
0100
0010
0001
1000
0010
0100
1000
,
0100
0010
1000
0100
0010
0001
0010
0100
1000
0001
0100
0010
1000
0001
0010
0100
,
1000
0000
0001
0000
0100
0010
0100
0001
0010
1000
0010
0001
1000
0010
0100
1000
,
0100
0010
1000
0100
0010
0001
1000
0010
1000
0001
0010
0100
0010
0001
1000
0010
,
0100
0000
0001
0000
1000
0100
1000
0001
0010
0001
1000
0010
0100
0001
0010
0100
,
0010
0001
1000
0010
1000
0100
0010
0001
0100
0010
1000
0100
0010
0001
0100
0010
,
1000
0000
0001
0000
0100
0000
2001
0000
0000
0000
3010
1000
0100
1000
0001
0100
,
0001
0010
0001
0100
0010
1000
0001
0010
0100
0010
0001
1000
0010
0100
0001
0010
,
0100
0000
0010
0000
0001
0000
1002
0000
0000
0000
1003
0010
0100
0001
0010
0100
,
0010
0001
1000
0010
1000
0100
0010
0001
1000
0010
1000
0100
0010
0001
0100
0010
,
1000
0000
0001
0000
0100
0000
2001
0000
0000
0000
3010
0100
0001
0010
0100
0010
,
0001
0100
1000
0100
0010
1000
0100
0010
0001
0010
0100
1000
0010
0001
0010
0100
,
0001
0000
1000
0000
0010
0000
1002
0000
0000
0000
0103
0010
0100
0001
0010
1000
,
0010
0001
1000
0010
1000
0100
0010
0001
0100
1000
0100
0010
1000
0100
0010
0001
,
1000
0000
1100
0000
0001
0101
0000
1000
1001
0000
0010
0000
1000
0000
0001
0000
,
0010
0000
0110
0000
0001
0011
0000
1000
0001
0100
0000
0100
0001
1000
0000
1000
,
0010
0000
1010
0000
0100
0101
0000
1000
1100
0000
0001
0000
0010
0000
0100
0000
,
1000
0000
0000
0000
0000
0000
1001
0000
0000
0000
0000
0000
0010
0000
0000
1010
0000
0000
0000
0000
0000
1000
0000
0000
0001
0000
0000
0100
0000
0000
0000
0000
0000
0001
0000
0000
0010
0000
0100
0000
0010
0000
0100
0000
0010
0000
0100
0000
,
1000
0010
0002
0000
1000
0000
0010
0000
0010
0000
0000
0000
1003
0000
1000
0000
,
0001
0010
2000
0000
0100
0000
0100
0000
0001
0000
0000
0000
3100
0000
0100
0000
,
1000
0010
0002
0000
1000
0000
1000
0000
0010
0000
0000
0000
1003
0100
0001
1000
,
0200
0000
0000
0000
0010
0000
0010
0000
0310
0000
0000
0000
1000
0001
1000
0000
,
0001
0100
2000
0000
0001
0000
0001
0000
0100
0000
0000
0000
3001
0000
0001
0000
,
1000
0100
0002
0000
0010
0000
0010
0000
1000
0000
0000
0000
0013
0000
0010
0000
,
0001
0100
2000
0000
0001
0000
0001
0000
0100
0000
0000
0000
3001
0010
1000
0001
,
0020
0000
0000
0000
0000
0000
0100
0000
0000
0100
0000
0000
0130
0000
0000
0000
0000
0000
0001
0100
0010
1000
0100
0010
,
0002
0000
0103
0000
,
2000
0000
3100
0000
,
0002
0000
0013
0000
,
1001
0000
0000
0110
0000
0000
1001
0000
0010
1000
0100
0010
0001
0100
0010
1000
,
0001
0000
0100
0000
0101
0010
1000
0100
0010
0001
1000
0100
0010
0001
0100
1000
,
0100
0010
1000
0100
0010
0001
1000
0010
0100
0001
0010
0100
1000
0001
0100
0010
,
0100
0000
0001
0000
1100
0010
0001
1000
0010
0100
0001
0010
1000
0010
0001
1000
,
0100
0010
0001
0100
0010
1000
0001
0010
0100
1000
0001
0100
0010
1000
0001
1000
,
0010
0000
0100
0000
1001
0100
0010
1000
0100
0010
0001
1000
0010
1000
0010
0100
,
0001
0010
0100
0010
0001
0100
1000
0100
0010
1000
0100
0010
0001
1000
0010
0100
,
0001
0000
1000
0000
0110
0001
0010
1000
0010
0001
1000
0100
0010
0001
0100
0010
,
1000
0100
1000
0010
0100
0001
0010
1000
0010
0001
1000
0010
0100
0001
0010
0100
,
1000
0100
1000
0000
0010
0000
0100
0000
0001
0000
1000
0000
0100
0000
1000
0000
0010
0100
0010
0000
1000
0000
0100
0000
0010
0000
0001
0000
1000
0000
0010
0000
,
0100
0001
0100
0000
0010
0000
1000
0000
0100
0000
0010
0000
0001
0000
1000
0000
0100
0010
0100
0000
1000
0000
0001
0000
0100
0000
0010
0000
1000
0000
0100
0000
,
0010
0001
0010
0000
0001
0000
0100
0000
0010
0000
1000
0000
0100
0000
0010
0000
0100
1000
0100
0000
0010
0000
0001
0000
0100
0000
0010
0000
1000
0000
0001
0000
,
0020
0000
0000
0000
,
0031
0000
0010
0000
0100
0000
1000
0000
0001
0100
0001
0100
0001
0000
1000
0000
0100
0010
0100
0010
0100
0000
1000
0000
0001
0000
0100
0000
0010
0000
1000
0000
,
0001
0000
0100
0000
1000
0000
0100
0000
0001
0010
0001
0010
0001
0000
0100
0000
0010
1000
0010
1000
0010
0000
0100
0000
0001
0000
1000
0000
0100
0000
0010
0000
,
0001
0000
0000
0000
0000
0000
0000
0000
0000
0000
0000
0000
0100
0000
0000
0000
0000
0000
0000
0000
0000
0000
0000
0000
0010
0000
0000
0000
0000
0000
0000
0000
0000
0000
0000
0000
1000
0000
0000
0000
0000
0000
0000
0000
0000
0000
0000
0000
0100
0000
0000
0000
0000
0000
0010
0000
0000
0000
0000
0000
0100
0000
0000
0000
0000
0000
0010
0000
0000
0000
0000
0000
0100
0000
0000
0000
0000
0000
0000
0000
0000
0000
0000
0000
1000
0000
0000
0000
0000
0000
0000
0000
0000
0000
0000
0000
0001
0000
0000
0000
0000
0000
0100
0000
0000
0000
0000
0000
0001
0000
0000
0000
0000
0000
0100
0000
0000
0000
0000
0000
0001
0000
0000
0000
0000
0000
0000
0000
0000
0000
0000
0000
1000
0000
0000
0000
0000
0000
0000
0000
0000
0000
0000
0000
0010
0000
0000
0000
0000
0000
0000
0000
0100
0000
0000
0000
0000
0000
0000
0000
0001
0000
0000
0000
0000
0000
0000
0000
0010
0000
0000
0000
0000
0000
0000
0000
0100
0000
0000
0000
0000
0000
0000
0000
1000
0000
0000
0000
0000
0000
0000
0000
,
0002
0000
0000
0000
,
0003
0000
0000
0000
;

//---------------dance-single - ----------------
#NOTES:
     dance-single:
     :
     Hard:
     13:
     0.519,0.519,0.219,0.219,0.290: // measure 1
0000
0000
0000
0000
,  // measure 2
0000
0000
0000
0000
,  // measure 3
0000
0000
0000
0000
,  // measure 4
0010
0000
0000
0010
0000
0000
0010
0000
1000
0000
0000
0000
0001
0000
0000
0000
,  // measure 5
0100
0001
0010
0200
0000
0000
1300
0001
,  // measure 6
0100
0000
1010
0000
0011
1010
0000
1000
,  // measure 7
0100
1000
0010
0200
0000
0000
0301
1000
,  // measure 8
0010
0000
1100
0000
0101
1001
0000
0010
,  // measure 9
1000
0001
0010
0200
0000
0000
1300
0001
,  // measure 10
0010
0000
1100
0000
0101
1001
0000
0001
,  // measure 11
0010
0100
1000
0020
0000
0000
1030
0001
,  // measure 12
0100
0000
1010
0000
0011
1010
0000
1000
,  // measure 13
0001
0100
0001
0000
1000
0000
0200
0000
0000
0000
0310
0000
0100
0000
0010
0000
,  // measure 14
0001
1000
0010
1000
0001
0100
0010
0000
,  // measure 15
1000
0000
0001
0100
0001
0000
2000
0000
0000
0000
3100
0000
1000
0000
0010
0000
,  // measure 16
0100
0001
0100
0010
1000
0100
0010
0000
,  // measure 17
0001
0000
0100
0010
0100
0000
0002
0000
0000
0000
0013
0000
0100
0000
0010
0000
,  // measure 18
0001
0100
0010
1000
0100
1000
0001
0000
,  // measure 19
0100
0000
0001
0010
0001
0000
2000
0000
0000
0000
3010
0000
1000
0000
0100
0000
,  // measure 20
1000
0001
0100
0010
0100
0001
1000
0000
,  // measure 21
0001
0000
0011
0000
0000
1001
0000
0000
1100
0000
0000
0000
0001
0000
0000
0000
,  // measure 22
1000
0000
1010
0000
0000
1001
0000
0000
0001
0100
0000
0000
1000
0100
0000
0000
,  // measure 23
0001
0000
0011
0000
0000
1001
0000
0000
1100
0000
0000
0000
0010
0000
0000
0000
,  // measure 24
1000
0000
1010
0000
0000
1001
0000
0000
1000
0100
0000
0000
0001
0100
0000
0000
,  // measure 25
0010
1000
0002
0000
0100
0000
0000
0000
0100
0000
0000
0000
0103
0000
0000
0000
,  // measure 26
0100
0010
2000
0000
0001
0000
0000
0000
0001
0000
0000
0000
3001
0000
0000
0000
,  // measure 27
0010
1000
0002
0000
0100
0000
0000
0000
0103
0000
0000
0000
1000
0100
0010
0001
,  // measure 28
2000
0000
0000
0000
0001
0000
0000
0000
3001
0000
0000
0000
0100
0010
0100
0010
,  // measure 29
0100
0001
2000
0000
0010
0000
0000
0000
0010
0000
0000
0000
3010
0000
0000
0000
,  // measure 30
0010
0100
0002
0000
1000
0000
0000
0000
1000
0000
0000
0000
1003
0000
0000
0000
,  // measure 31
0100
0001
2000
0000
0010
0000
0000
0000
3010
0000
0000
0000
0001
0010
0100
1000
,  // measure 32
0002
0000
0000
0000
1000
0000
0000
0000
1003
0000
0000
0000
0100
0010
0100
0010
,  // measure 33
0001
0000
0000
0001
0000
0000
0001
0000
0001
0000
0000
0000
0000
0000
0000
0000
,  // measure 34
1000
0000
0000
1000
0000
0000
1000
0000
1000
0000
0000
0000
0000
0000
0000
0000
,  // measure 35
0010
0000
0000
0010
0000
0000
0010
0000
0010
0000
0000
0000
0000
0000
0000
0000
,  // measure 36
0100
0000
0000
0100
0000
0000
0100
0000
0001
0000
1000
0000
0010
0000
0100
0000
,  // measure 37
0001
0010
0100
0010
0001
0000
2000
0000
0000
0000
3010
0000
1000
0000
0001
0000
,  // measure 38
0100
1000
0100
0010
1000
0100
0010
0001
,  // measure 39
1000
0010
0100
0010
1000
0000
0002
0000
0000
0000
0013
0000
0100
0000
0010
0000
,  // measure 40
0001
1000
0010
0100
0001
0010
0100
0010
,  // measure 41
0001
0100
0010
1000
0001
0000
2000
0000
0000
0000
3100
0000
1000
0000
0010
0000
,  // measure 42
0100
0001
0010
1000
0010
0001
1000
0010
,  // measure 43
0100
0001
0100
0010
1000
0000
0002
0000
0000
0000
0013
0000
0100
0000
0010
0000
,  // measure 44
0001
0100
0010
0100
0001
0010
0100
1000
,  // measure 45
0001
0100
0000
0000
0001
1000
0000
0000
0100
1000
0000
0000
0010
1000
0000
0000
,  // measure 46
0001
0010
0000
0000
0100
1000
0000
0000
0010
0100
0000
0000
0001
0010
0000
0000
,  // measure 47
0100
1000
0000
0000
0010
0100
0000
0000
1000
0100
0000
0000
0001
1000
0000
0000
,  // measure 48
0220
0000
0000
0330
,  // measure 49
0001
0000
1000
0000
0010
0100
0001
0100
0010
0000
1000
0000
0100
0000
0010
0000
,  // measure 50
0001
0000
0100
0000
0010
1000
0100
1000
0010
0000
0100
0000
0001
0000
0010
0000
,  // measure 51
0100
0000
1000
0000
0001
0100
0010
0100
0001
1000
0100
0010
0001
0100
0010
1000
,  // measure 52
0200
0000
0000
0000
,  // measure 53
0300
0000
0000
0000
;

//---------------dance-single - ----------------
#NOTES:
     dance-single:
     :
     Medium:
     7:
     0.334,0.346,0.247,0.295,0.000: // measure 1
0000
0000
0000
0000
,  // measure 2
0000
0000
0000
0000
,  // measure 3
0000
0000
0000
0000
,  // measure 4
1001
0000
0001
0100
,  // measure 5
1000
0100
0002
0000
0103
0000
0010
0000
,  // measure 6
0100
0101
1100
0000
,  // measure 7
0001
0010
2000
0000
3100
0000
0010
0000
,  // measure 8
1000
0101
1100
0000
,  // measure 9
0010
1000
0200
0000
0310
0000
0001
0000
,  // measure 10
1000
0101
1100
0000
,  // measure 11
0001
0100
0020
0000
1030
0000
0001
0000
,  // measure 12
0010
1100
0011
0000
,  // measure 13
1000
0100
0002
2000
0000
0000
0000
0000
,  // measure 14
3003
0010
0010
0000
,  // measure 15
0001
0100
2000
0002
0000
0000
0000
0000
,  // measure 16
3003
0010
0010
0000
,  // measure 17
1000
0010
0002
2000
0000
0000
0000
0000
,  // measure 18
3003
0010
0010
0000
,  // measure 19
0001
0010
2000
0002
0000
0000
0000
0000
,  // measure 20
3003
0110
0110
0000
,  // measure 21
1000
0000
0101
0000
1000
0000
0010
1000
,  // measure 22
0001
0000
0010
0000
0100
1000
0001
0000
,  // measure 23
0100
0000
1010
0000
0001
0000
0100
0001
,  // measure 24
1000
1100
0011
1001
,  // measure 25
0010
1000
0100
1000
0020
0000
0130
0000
,  // measure 26
0001
0000
1000
0100
0020
0000
0030
0000
,  // measure 27
0001
2000
3002
2003
,  // measure 28
3010
0000
0100
0001
0020
0000
0030
0000
,  // measure 29
0001
0100
0001
1000
0002
0000
0103
0000
,  // measure 30
0010
0000
1000
0100
0020
0000
0030
0000
,  // measure 31
0001
2000
3020
0230
,  // measure 32
0301
0000
1000
0100
0020
0000
0030
0000
,  // measure 33
2002
0000
0000
3003
,  // measure 34
0020
0000
0000
0030
,  // measure 35
0200
0000
0000
0300
,  // measure 36
0001
1000
1100
0101
,  // measure 37
1000
0010
0100
0000
0001
0000
1000
0000
,  // measure 38
0001
0000
0010
0000
0010
0010
0000
0000
,  // measure 39
0001
1000
0010
0000
0100
0000
0001
0000
,  // measure 40
0010
0000
0100
0000
1000
1000
0000
0000
,  // measure 41
0010
1000
0100
0000
1000
0000
0001
0000
,  // measure 42
0100
0000
0010
0000
1000
1000
0000
0000
,  // measure 43
0001
0010
0100
0000
1000
0010
0100
0000
,  // measure 44
0001
1100
0101
0000
,  // measure 45
1000
0100
1000
0000
0001
1000
0001
0000
,  // measure 46
0100
0001
1000
0000
0010
0000
1001
0000
,  // measure 47
0010
1000
0010
0000
0100
0000
0001
1000
,  // measure 48
0002
0000
0000
0000
,  // measure 49
0013
0100
0010
0000
0110
0000
0000
0000
,  // measure 50
0001
1000
0001
0000
1001
0000
0000
0000
,  // measure 51
1000
0010
1000
0000
1010
0000
0001
0000
,  // measure 52
0220
0000
0000
0000
,  // measure 53
0330
0000
0000
0000
;

//---------------dance-single - ----------------
#NOTES:
     dance-single:
     :
     Easy:
     4:
     0.206,0.247,0.019,0.095,0.000: // measure 1
0000
0000
0000
0000
,  // measure 2
0000
0000
0000
0000
,  // measure 3
0000
0000
0000
0000
,  // measure 4
0000
0000
0000
0000
,  // measure 5
0100
0010
0200
0000
0000
0000
0300
0000
,  // measure 6
0000
0001
1000
0000
,  // measure 7
0100
0010
0200
0000
0000
0000
0300
0000
,  // measure 8
0000
1000
0001
0000
,  // measure 9
0010
0100
0020
0000
0000
0000
0030
0000
,  // measure 10
0000
0001
1000
0000
,  // measure 11
0010
0100
0020
0000
0000
0000
0030
0000
,  // measure 12
0000
1000
0001
0000
,  // measure 13
1000
0100
0100
1000
,  // measure 14
0010
0000
0100
0000
0100
0100
0000
0000
,  // measure 15
0001
0010
0100
0100
,  // measure 16
0010
0000
0001
0000
0100
0100
0000
0000
,  // measure 17
0001
1000
0010
0100
,  // measure 18
0010
0000
1000
0000
0001
0001
0000
0000
,  // measure 19
0010
0001
1000
0100
,  // measure 20
0010
0000
0100
0000
1000
1000
0000
0000
,  // measure 21
1001
0000
0010
0000
,  // measure 22
1000
0000
0100
0100
,  // measure 23
0110
0000
0001
0000
,  // measure 24
1000
0000
0010
0010
,  // measure 25
0100
0001
1000
1000
,  // measure 26
0001
0010
0100
0000
,  // measure 27
0010
0001
1000
0001
,  // measure 28
0100
0010
0010
0000
,  // measure 29
0100
0001
1000
1000
,  // measure 30
0010
1000
0100
0000
,  // measure 31
0010
0100
0010
0100
,  // measure 32
1000
0001
0100
0000
,  // measure 33
0002
0000
0000
0003
,  // measure 34
2000
0000
0000
3000
,  // measure 35
0002
0000
0000
0003
,  // measure 36
2000
0000
0000
3000
,  // measure 37
0010
0100
0010
0000
0000
0000
0000
0000
,  // measure 38
0000
1000
0001
0000
,  // measure 39
0010
0100
0010
0000
0000
0000
0000
0000
,  // measure 40
0000
0001
1000
0000
,  // measure 41
0100
0010
0100
0000
0000
0000
0000
0000
,  // measure 42
0000
1000
0001
0000
,  // measure 43
0100
0010
0100
0000
0000
0000
0000
0000
,  // measure 44
0000
0001
1000
0000
,  // measure 45
0100
1000
0010
0100
,  // measure 46
0001
0010
0100
1000
,  // measure 47
0001
0100
0010
1000
,  // measure 48
0002
0000
0000
0003
,  // measure 49
0010
0010
0010
0000
0010
0000
0000
0000
,  // measure 50
0001
0001
0001
0000
0001
0000
0000
0000
,  // measure 51
1000
1000
1000
0000
1000
0000
0000
0000
,  // measure 52
0200
0000
0000
0000
,  // measure 53
0300
0000
0000
0000
;
