#TITLE:Love is a Danger Zone;
#SUBTITLE:;
#ARTIST:BanYa;
#TITLETRANSLIT:;
#SUBTITLETRANSLIT:;
#ARTISTTRANSLIT:;
#CREDIT:;
#BANNER:Love is a Danger Zone-bn.png;
#BACKGROUND:Love is a Danger Zone-bg.png;
#LYRICSPATH:;
#CDTITLE:cdtitle.png;
#MUSIC:Love is a Danger Zone.mp3;
#OFFSET:-0.087;
#SAMPLESTART:13.728;
#SAMPLELENGTH:17.920;
#SELECTABLE:YES;
#BPMS:0.000=140.000;
#STOPS:;
#BGCHANGES:0.000=Love is a Danger Zone.avi=1.000=1=0=0,
232.000=Love is a Danger Zone-bg.png=1.000=0=0=1,
99999=-nosongbg-=1.000=0=0=0 // don't automatically add -songbackground-
;

//---------------dance-single - ----------------
#NOTES:
     dance-single:
     :
     Beginner:
     1:
     0.119,0.166,0.040,0.000,0.000: // measure 1
0000
0000
0000
0000
,  // measure 2
0000
0000
0000
0000
,  // measure 3
0000
0000
0000
0000
,  // measure 4
0000
0000
0000
0000
,  // measure 5
1001
0000
0000
0000
,  // measure 6
0000
0000
0000
0000
,  // measure 7
0000
0000
0000
0000
,  // measure 8
0000
0000
0000
0000
,  // measure 9
0100
0000
0100
0000
,  // measure 10
1000
0000
1000
0000
,  // measure 11
0001
0001
0000
0000
,  // measure 12
0100
0000
0000
0000
,  // measure 13
0001
0000
0001
0000
,  // measure 14
1000
0000
1000
0000
,  // measure 15
0010
0010
0000
0000
,  // measure 16
1000
0000
0000
0000
,  // measure 17
0001
0000
0000
0000
,  // measure 18
1000
0000
0000
0000
,  // measure 19
0010
0000
0000
0000
,  // measure 20
1000
0000
0100
0000
,  // measure 21
0100
0000
0000
0000
,  // measure 22
1000
0000
0000
0000
,  // measure 23
0001
0000
0000
0000
,  // measure 24
0100
0100
0100
0000
,  // measure 25
0001
0000
0001
0000
,  // measure 26
1000
0000
1000
0000
,  // measure 27
0010
0000
0000
0000
,  // measure 28
1000
0000
0000
0000
,  // measure 29
0100
0000
0100
0000
,  // measure 30
0010
0000
0010
0000
,  // measure 31
0001
0000
0000
0000
,  // measure 32
1000
0000
0000
0000
,  // measure 33
0110
0000
0000
0000
,  // measure 34
1000
1000
0000
0000
,  // measure 35
0001
0001
0000
0000
,  // measure 36
0100
0000
0000
0000
,  // measure 37
1001
0000
0000
0000
,  // measure 38
0010
0010
0000
0000
,  // measure 39
0010
0010
0000
0000
,  // measure 40
1000
0000
0000
0000
,  // measure 41
0100
0000
0100
0000
,  // measure 42
0100
0100
0100
0000
,  // measure 43
0100
0000
0000
0000
,  // measure 44
1000
0000
0000
0000
,  // measure 45
0001
0000
0001
0000
,  // measure 46
0001
0001
0001
0000
,  // measure 47
0001
0000
0000
0000
,  // measure 48
1000
0000
0000
0000
,  // measure 49
1001
0000
0000
0000
,  // measure 50
0100
0000
0100
0000
,  // measure 51
0100
0000
0000
0000
,  // measure 52
1000
1000
1000
1000
,  // measure 53
1000
0000
0000
0000
,  // measure 54
0001
0000
0001
0000
,  // measure 55
0001
0000
0000
0000
,  // measure 56
0010
0010
0010
0010
;

//---------------dance-single - ----------------
#NOTES:
     dance-single:
     :
     Medium:
     8:
     0.376,0.402,0.198,0.337,0.000: // measure 1
0000
0000
0000
0000
,  // measure 2
0000
0000
0000
0000
,  // measure 3
2000
0000
0000
0000
,  // measure 4
3002
0000
0000
0003
,  // measure 5
0220
0000
0000
0300
,  // measure 6
2000
0000
0000
3030
,  // measure 7
0001
1000
0100
0010
,  // measure 8
0001
1000
0010
0100
,  // measure 9
0001
1000
0001
0000
0100
0000
0010
0000
,  // measure 10
2100
3001
2100
3001
,  // measure 11
0100
2002
3003
0000
,  // measure 12
1000
0100
0010
0001
0000
0000
0000
0000
,  // measure 13
0100
0001
0100
0000
0010
0000
1000
0000
,  // measure 14
0102
1003
0102
1003
,  // measure 15
0010
2002
3003
0000
,  // measure 16
0001
0100
0010
1000
0000
0000
0000
0000
,  // measure 17
0100
1000
0001
0000
1000
0000
0010
0000
,  // measure 18
0200
0310
0200
0310
,  // measure 19
1000
0001
0010
0000
0001
0000
1000
0000
,  // measure 20
0200
0300
1001
1100
,  // measure 21
0010
1000
0001
0000
0100
0000
0010
0000
,  // measure 22
2000
3001
2000
3001
,  // measure 23
0010
0100
0010
0000
0001
0000
1000
0000
,  // measure 24
1010
0000
0101
0000
0010
0001
0100
0000
,  // measure 25
0020
0000
1030
0001
,  // measure 26
0200
0000
0000
0000
0301
0010
0100
0000
,  // measure 27
1000
1000
0001
1000
,  // measure 28
0010
0010
0200
0300
,  // measure 29
0001
0100
0010
0000
0100
0000
0001
0000
,  // measure 30
1000
1000
0100
0000
,  // measure 31
1000
0001
0100
0000
0010
0000
1000
0000
,  // measure 32
0200
2300
3002
0003
,  // measure 33
0110
0000
0001
1000
0000
0100
0000
0010
,  // measure 34
0002
1003
0020
0130
,  // measure 35
0001
1000
0100
0000
0000
0000
0000
0000
,  // measure 36
1000
0100
0010
0001
0000
0000
0000
0000
,  // measure 37
0100
0000
0010
1000
0000
0001
0000
0001
,  // measure 38
0020
0130
2000
3001
,  // measure 39
0100
0001
1000
0000
0000
0000
0000
0000
,  // measure 40
1000
0010
0100
0001
0000
0000
0000
0000
,  // measure 41
1000
1000
0010
0000
0001
0001
0010
0000
,  // measure 42
1000
1000
1000
0000
0001
0000
0001
0000
,  // measure 43
0110
1001
0100
0010
,  // measure 44
1000
0100
1000
0100
1000
0000
0000
0000
,  // measure 45
0001
0001
0100
0000
1000
1000
0100
0000
,  // measure 46
0010
0100
0010
0100
0010
0000
0000
0000
,  // measure 47
1001
0110
1000
0001
,  // measure 48
0200
0010
0310
0000
,  // measure 49
0001
0000
1000
0200
0000
0000
0000
0000
,  // measure 50
0310
0000
0001
0000
1000
0001
0100
0000
,  // measure 51
0010
0000
1000
0002
0000
0000
0000
0000
,  // measure 52
0103
1001
0100
1001
,  // measure 53
0010
0000
1000
0200
0000
0000
0000
0000
,  // measure 54
0310
0000
0001
0000
1000
0001
0100
0000
,  // measure 55
0010
0000
1000
0002
0000
0000
0000
0000
,  // measure 56
0103
1010
0100
0011
,  // measure 57
0000
0000
1000
0100
0010
0002
0000
0000
,  // measure 58
0000
0000
0000
0000
,  // measure 59
0003
0000
0000
0000
;

//---------------dance-single - ----------------
#NOTES:
     dance-single:
     :
     Hard:
     11:
     0.532,0.488,0.109,0.099,0.069: // measure 1
0000
0000
0000
0000
,  // measure 2
0000
0000
0000
0000
,  // measure 3
2001
0100
0100
3100
,  // measure 4
0002
0100
0100
0103
,  // measure 5
2000
0010
0010
3010
,  // measure 6
0002
0010
0010
0013
,  // measure 7
1000
0100
0010
0001
0100
0010
1000
0001
,  // measure 8
0010
0010
0100
0100
1000
0010
0100
0000
,  // measure 9
1001
0100
1000
0010
0100
0001
1000
0000
,  // measure 10
0011
1000
0100
0000
0011
1000
0100
0000
,  // measure 11
0001
0100
1000
0000
0000
0000
0000
0000
,  // measure 12
0010
0100
0001
1000
0001
0000
0000
0000
,  // measure 13
1001
0010
0001
0100
0010
1000
0001
0000
,  // measure 14
1100
0001
0010
0000
1100
0001
0010
0000
,  // measure 15
1000
0010
0001
0000
0000
0000
0000
0000
,  // measure 16
0100
0001
1000
0010
0100
0100
0001
0000
,  // measure 17
1000
0100
1000
0010
0100
0001
1000
0000
,  // measure 18
0001
0010
0001
1000
0010
0100
0001
0000
,  // measure 19
0010
0100
0010
0001
1000
0100
0010
0000
,  // measure 20
0001
1000
0100
0000
1010
0000
0101
0000
,  // measure 21
1000
0001
0100
1000
0100
0001
1000
0000
,  // measure 22
0001
0010
1000
0010
0100
0100
0100
0000
,  // measure 23
1000
0100
0010
0000
0002
0000
1003
0000
,  // measure 24
0010
0010
0100
0100
0001
1000
0110
0000
,  // measure 25
1000
0100
1000
0010
1000
0100
1000
0010
,  // measure 26
0100
0001
1000
0001
0100
0001
1000
0001
,  // measure 27
0010
1000
0010
0001
0010
0100
0010
0001
,  // measure 28
0100
1000
0100
0001
0100
0010
2000
0000
,  // measure 29
3001
0000
0110
0000
0001
0010
0100
0000
,  // measure 30
1000
0001
0100
1000
0100
0001
1000
0000
,  // measure 31
0010
1000
0100
1000
0010
0000
0100
0000
,  // measure 32
0001
0001
1000
1000
0010
0010
0100
0000
,  // measure 33
0001
0000
0000
0001
1000
0000
0100
0000
0000
0000
1000
0000
0000
0000
0001
0000
,  // measure 34
0100
0010
0100
0000
0000
0000
0001
0000
0000
0000
1000
0000
0000
0000
0100
0000
,  // measure 35
0010
0000
0000
0010
0001
0000
0000
0000
0000
0000
0100
0000
0000
0000
0010
0000
,  // measure 36
1000
1000
0001
0001
0100
0000
0000
0000
,  // measure 37
0010
0000
0000
0010
1000
0000
0100
0000
0000
0000
1000
0000
0000
0000
0001
0000
,  // measure 38
0100
0010
0100
0000
0000
0000
0001
0000
0000
0000
1000
0000
0000
0000
0100
0000
,  // measure 39
0010
0000
0000
0010
0001
0000
0000
0000
0000
0000
1000
0000
0000
0000
0001
0000
,  // measure 40
0100
0100
0010
0010
1000
0001
0010
0000
,  // measure 41
0100
0100
1000
0010
0100
0100
0001
1000
,  // measure 42
0100
0100
0100
0100
0100
0100
0100
0100
,  // measure 43
2000
0000
3001
0000
0100
0010
1000
0000
,  // measure 44
0001
0100
0000
0000
1000
0100
0000
0000
0001
0100
0000
0000
1000
0100
0000
0000
,  // measure 45
0001
0100
0010
1000
0100
0010
0001
0100
,  // measure 46
0010
0010
0010
0010
0010
0010
0010
0010
,  // measure 47
0200
0000
0301
0000
1000
0100
0001
0000
,  // measure 48
1000
0010
0000
0000
0100
0001
0000
0000
1000
0010
0000
0000
0100
0001
0000
0000
,  // measure 49
1000
0100
0001
0100
1000
0010
0100
0001
,  // measure 50
1000
1000
0010
1000
0001
0001
0010
0001
,  // measure 51
0100
0010
0100
0001
0010
1000
0010
0001
,  // measure 52
0100
0010
0100
0010
0100
0010
0100
0010
,  // measure 53
1000
0010
0001
1000
0100
0001
0010
0100
,  // measure 54
1000
1000
0100
1000
0001
0001
0100
0010
,  // measure 55
1000
0001
0010
0001
0100
0010
1000
0001
,  // measure 56
0010
0100
0010
0100
0010
0100
0010
0100
,  // measure 57
0000
0000
1000
0100
0002
2000
0000
0000
,  // measure 58
0000
0000
0000
0000
,  // measure 59
3003
0000
0000
0000
;

//---------------dance-single - ----------------
#NOTES:
     dance-single:
     :
     Challenge:
     16:
     0.879,0.948,0.337,0.297,0.743:
0000
0000
0000
0000
,
0000
0000
0000
0000
,
1002
0100
0100
0103
,
2001
0100
0100
3100
,
1002
0010
0010
0013
,
2001
0010
0010
3010
,
0001
0100
0001
0100
0010
1000
0010
1000
0001
1000
0001
1000
0100
0010
0100
0010
,
0001
0001
0010
0100
1000
1000
0010
0100
0001
0001
1000
0010
0100
0100
0010
1000
,
0001
0000
0100
1000
0100
0000
0001
0000
0010
0000
0100
0000
1000
0000
0001
0000
,
0010
1000
0010
0000
0001
0000
1000
0000
0010
0001
0010
0000
1000
0000
0001
0000
,
0010
0000
0100
1000
0100
0000
1000
0000
0010
0000
0100
0000
0001
0000
1000
0000
,
0010
0001
1000
0100
0001
1000
0100
0000
,
0010
0000
0001
1000
0001
0000
1000
0000
0010
0000
0100
0000
0001
0000
0010
0000
,
1000
0001
1000
0000
0010
0000
0100
0000
1000
0001
1000
0000
0010
0000
0100
0000
,
0001
0000
1000
0100
1000
0000
0010
0000
0100
0000
0001
0000
0010
0000
0100
0000
,
1000
0100
1000
0100
0010
0001
0010
0001
1000
1000
0010
0100
0001
0001
0010
0100
,
2000
0000
0100
0000
0010
0000
0010
0000
0001
0000
3100
0000
0010
0000
1000
0001
,
0200
0000
0010
0000
0001
0000
0010
0000
0010
0000
0301
0000
0010
0000
0001
0010
,
0002
0000
0100
0000
0100
0000
0010
0000
0010
0000
1000
0000
0103
0000
0010
1000
,
0010
1000
0100
0010
0110
0000
1001
0000
,
2000
0000
3200
0000
0302
0000
2003
0000
3020
0000
0032
0000
0203
0000
0310
1000
,
0020
0000
0230
0000
0302
0000
2003
0000
3020
0000
0230
0000
0302
0000
1003
0100
,
0020
0000
0032
0000
0203
0000
2300
0000
3002
0000
0023
0000
2030
0000
3001
0010
,
0100
0100
1000
1000
1010
1010
0101
0000
,
1000
0100
0001
0100
1000
0000
1000
0000
0010
0000
0100
0000
0001
0000
1000
0000
,
0001
0010
1000
0010
0001
0000
0001
0000
0100
0000
0010
0000
1000
0000
0001
0000
,
1000
0100
1000
0100
0010
0000
0001
0000
1000
0001
1000
0001
0100
0000
0010
0000
,
0100
0001
0100
0001
1000
0000
0010
0000
1010
0000
0000
0000
1001
0000
0000
0000
,
0010
0001
0100
0001
1000
0000
0010
0000
0100
0000
0001
0000
0010
0000
0100
0000
,
1000
0100
0010
0001
1000
0000
0010
0000
0100
0000
0001
0000
1000
0000
0010
0000
,
0100
0001
0100
0010
1000
0000
0001
0000
0010
0000
0100
0000
1000
0000
0001
0000
,
0100
0001
0100
0001
1000
0010
1000
0010
1000
1000
0001
0100
0010
0010
0100
0000
,
0001
0000
1000
0100
0010
0000
0001
0000
1000
0000
0010
0000
0100
0000
0001
0000
,
0010
1000
0010
0000
0001
0000
1000
0000
0010
0001
0010
0000
1000
0000
0001
0000
,
0010
0000
0000
0010
0100
0000
1100
0000
0000
0000
0101
0000
0000
0000
1001
0000
,
0010
1000
0100
1000
0010
0100
0001
0010
1000
0010
0001
1000
0010
0100
0001
0001
,
1000
0000
0100
0000
1000
0010
0100
0001
0010
0100
0010
0001
1000
0010
0100
0001
,
1000
0100
1000
0010
0100
0001
0010
1000
0010
0001
1000
0010
0100
0001
1000
0100
,
0010
0000
0001
0001
1000
0100
1000
0010
0100
0001
0010
0100
0010
0001
1000
0010
,
0100
0001
0010
1000
0010
0001
1000
0010
0100
0001
0010
0100
1000
0010
0100
0001
,
1000
0000
0100
0010
0001
0000
1000
0000
1000
0000
0100
0010
0001
0000
1000
0000
,
1100
0101
0011
1010
1100
0101
0011
1001
,
0010
0000
1000
0001
0100
0000
0010
0000
0100
0000
0001
0000
1000
0000
0010
0000
,
0100
0001
0000
0000
1000
0100
0000
0000
0001
0010
0000
0000
1000
0100
0000
0000
,
0001
0000
0010
0100
1000
0000
0001
0000
0001
0000
0010
0100
1000
0000
0001
0000
,
0011
1100
0101
0110
1010
0101
1100
1001
,
0010
0000
1000
0001
0100
0000
0010
0000
1000
0000
0001
0000
0010
0000
0100
0000
,
1000
0001
1000
0001
0100
0010
0100
0010
1000
1000
0010
0100
0001
0001
0010
0100
,
1000
0010
0100
0001
1000
0010
0100
0000
0001
0000
1000
0000
0100
0000
0010
0000
,
0001
1000
0001
0000
0100
0000
0010
0000
1000
0001
1000
0000
0100
0000
1000
0000
,
0001
0010
0100
1000
0010
0100
0001
0000
1000
0001
1000
0000
0010
0000
0100
0000
,
0001
0001
0010
0100
1000
1000
0010
1000
0001
0001
0100
0010
0100
0100
0001
0000
,
1000
0100
0010
0001
1000
0000
0010
0000
0100
0000
0001
0000
0010
0000
0100
0000
,
1000
0010
1000
0000
0001
0000
0010
0000
0100
0010
0100
0000
0010
0000
0001
0000
,
1000
0001
0100
0010
1000
0000
0001
0000
0100
0000
0010
0000
1000
0000
0001
0000
,
0010
0010
0001
1000
0010
0010
0100
0001
1000
1000
0100
1000
0010
0010
0100
0001
,
0000
0000
1100
0101
0011
2020
0000
0000
,
0000
0000
0000
0000
,
3030
0000
0000
0000
;

//---------------dance-single - ----------------
#NOTES:
     dance-single:
     :
     Easy:
     4:
     0.236,0.287,0.079,0.188,0.000: // measure 1
0000
0000
0000
0000
,  // measure 2
0000
0000
0000
0000
,  // measure 3
1000
0000
0000
0000
,  // measure 4
1001
0000
1001
0000
,  // measure 5
1001
0000
0000
0000
,  // measure 6
0100
0000
0000
0000
,  // measure 7
0002
0000
0000
0000
,  // measure 8
2003
0000
0000
0000
,  // measure 9
3010
0100
0010
0010
,  // measure 10
1000
0000
1000
0000
,  // measure 11
0100
0010
0000
0000
,  // measure 12
0001
0001
0001
0000
,  // measure 13
0100
0001
1000
0010
,  // measure 14
0100
0000
0001
0000
,  // measure 15
1000
0100
0000
0000
,  // measure 16
1000
0100
1000
0000
,  // measure 17
0020
0000
1030
0100
,  // measure 18
2000
0000
3010
1000
,  // measure 19
0002
0000
0103
0001
,  // measure 20
2000
0000
3010
0000
,  // measure 21
0200
0000
0310
0010
,  // measure 22
2000
0000
3100
0100
,  // measure 23
0020
0000
0031
0001
,  // measure 24
1000
0001
0100
0000
,  // measure 25
0020
0000
1030
0000
,  // measure 26
0002
0000
0013
0000
,  // measure 27
0200
0000
1300
0000
,  // measure 28
0010
1000
0001
0000
,  // measure 29
2000
0000
3100
0000
,  // measure 30
0020
0000
0031
0000
,  // measure 31
0200
0000
0310
0000
,  // measure 32
0100
0001
1000
0000
,  // measure 33
0100
0100
0100
0000
,  // measure 34
1000
0100
1000
0100
,  // measure 35
1000
0000
0000
0000
,  // measure 36
0010
1000
0000
0000
,  // measure 37
0001
0001
0001
0000
,  // measure 38
0010
0001
0010
0001
,  // measure 39
0010
0000
0000
0000
,  // measure 40
0001
0100
0100
0000
,  // measure 41
0001
0001
1000
1000
,  // measure 42
0001
1000
0001
1000
,  // measure 43
1001
1001
0000
0000
,  // measure 44
0200
0000
0300
0000
,  // measure 45
1000
1000
0001
0001
,  // measure 46
1000
0001
1000
0001
,  // measure 47
1001
1001
0000
0000
,  // measure 48
0020
0000
0030
0000
,  // measure 49
0100
0100
0001
0001
,  // measure 50
1000
0000
1000
0000
,  // measure 51
0010
0010
1000
0000
,  // measure 52
0100
0010
0001
0000
,  // measure 53
1000
1000
0001
0001
,  // measure 54
0100
0010
0100
0010
,  // measure 55
1000
0000
0001
0000
,  // measure 56
0010
0100
0010
0001
,  // measure 57
0000
2002
0000
0000
,  // measure 58
0000
0000
0000
0000
,  // measure 59
3003
0000
0000
0000
;
