#TITLE:Love is a Danger Zone 2;
#SUBTITLE:;
#ARTIST:BanYa;
#TITLETRANSLIT:;
#SUBTITLETRANSLIT:;
#ARTISTTRANSLIT:;
#CREDIT:;
#BANNER:Love is a Danger Zone 2-banner.png;
#BACKGROUND:Love is a Danger Zone 2-bg.png;
#LYRICSPATH:;
#CDTITLE:cdtitle.png;
#MUSIC:Love is a Danger Zone 2.mp3;
#OFFSET:-0.850;
#SAMPLESTART:12.638;
#SAMPLELENGTH:17.960;
#SELECTABLE:YES;
#BPMS:0.000=162.000;
#STOPS:;
#BGCHANGES:0.000=Love is a Danger Zone 2.avi=1.000=0=0=0,
99999=-nosongbg-=1.000=0=0=0 // don't automatically add -songbackground-
;

//---------------dance-single - ----------------
#NOTES:
     dance-single:
     :
     Beginner:
     3:
     0.149,0.194,0.068,0.000,0.000: // measure 1
0000
0000
0000
0000
,  // measure 2
0000
0000
0000
0000
,  // measure 3
0000
0000
0000
0000
,  // measure 4
0000
0000
0000
0000
,  // measure 5
0100
0000
0000
0000
,  // measure 6
0001
0000
0000
0000
,  // measure 7
1000
0000
0000
0000
,  // measure 8
0010
0000
0000
0000
,  // measure 9
1001
0000
0000
0000
,  // measure 10
0100
0000
0100
0000
,  // measure 11
0100
0000
0000
0000
,  // measure 12
1000
0000
0001
0001
,  // measure 13
0001
0000
0000
0000
,  // measure 14
0010
0000
0010
0000
,  // measure 15
0010
0000
0000
0000
,  // measure 16
0001
0000
1000
1000
,  // measure 17
1000
0000
0000
0000
,  // measure 18
0000
0000
0000
0000
,  // measure 19
1001
0000
0010
0000
,  // measure 20
1000
0000
1000
0000
,  // measure 21
0010
0000
1000
0000
,  // measure 22
0001
0000
0100
0100
,  // measure 23
0100
0000
0001
0000
,  // measure 24
1000
0000
0001
0000
,  // measure 25
0010
0000
0001
0000
,  // measure 26
0100
0000
0010
0010
,  // measure 27
0010
0000
0000
0000
,  // measure 28
0100
0000
0000
0000
,  // measure 29
0001
0000
0001
0000
,  // measure 30
1000
0000
1000
0000
,  // measure 31
0100
0000
0000
0000
,  // measure 32
0010
0000
0000
0000
,  // measure 33
0001
0000
0000
0000
,  // measure 34
0100
0000
0100
0000
,  // measure 35
1001
0000
0000
0000
,  // measure 36
0010
0000
0010
0000
,  // measure 37
1001
0000
0000
0000
,  // measure 38
0100
0000
0100
0000
,  // measure 39
1001
0000
0000
0000
,  // measure 40
0000
0000
0000
0000
,  // measure 41
1000
0000
0100
0000
,  // measure 42
0010
0000
0001
0000
,  // measure 43
0100
0000
0100
0000
,  // measure 44
0001
0000
1000
0000
,  // measure 45
0010
0000
0010
0000
,  // measure 46
1000
0000
0100
0000
,  // measure 47
0010
0000
0000
0000
,  // measure 48
0001
0000
0000
0000
,  // measure 49
0100
0000
0100
0000
,  // measure 50
0010
0000
0010
0000
,  // measure 51
1001
0000
0100
0000
,  // measure 52
0000
0000
0000
0000
,  // measure 53
1000
0000
0000
0000
,  // measure 54
0001
0000
0001
0000
,  // measure 55
0001
0000
0000
0000
,  // measure 56
0100
0100
0000
0000
,  // measure 57
0001
0000
0000
0000
,  // measure 58
0010
0000
0010
0000
,  // measure 59
0100
0000
0100
0000
,  // measure 60
0100
0000
0100
0000
,  // measure 61
0100
0000
1000
0000
,  // measure 62
0001
0000
0000
0000
,  // measure 63
0010
0000
0010
0000
,  // measure 64
0010
0000
0010
0000
,  // measure 65
0001
0000
0010
0000
,  // measure 66
0100
0000
1000
0000
,  // measure 67
0110
0000
0000
0000
;

//---------------dance-single - ----------------
#NOTES:
     dance-single:
     :
     Medium:
     10:
     0.564,0.557,0.440,0.391,0.000: // measure 1
0000
0000
0000
0000
,  // measure 2
0000
0000
0000
0000
,  // measure 3
0000
0000
0000
0000
,  // measure 4
0000
0000
0000
0000
,  // measure 5
2000
3100
1000
0010
,  // measure 6
0200
0310
1000
0100
,  // measure 7
0020
0031
1000
0001
,  // measure 8
0100
0010
1000
0000
0100
0010
0001
0000
,  // measure 9
1000
0100
1000
0100
0010
0001
1000
0000
,  // measure 10
0102
1003
2100
3001
,  // measure 11
0100
0010
2000
0000
3001
0000
0010
0000
,  // measure 12
0001
0100
0010
1000
1100
0000
0101
0000
,  // measure 13
0001
0010
0001
0010
0100
1000
0001
0000
,  // measure 14
2010
3001
0012
1003
,  // measure 15
0010
0100
0002
0000
1003
0000
0100
0000
,  // measure 16
1000
0010
0100
0001
0011
0000
1010
0000
,  // measure 17
0202
0000
0000
0000
,  // measure 18
0000
0000
0000
0303
,  // measure 19
0010
0010
0010
0000
1000
0100
1000
0010
,  // measure 20
0100
0001
1000
0101
,  // measure 21
1000
1000
1000
0000
0100
1000
0010
1000
,  // measure 22
0001
0010
0001
0110
,  // measure 23
0001
0001
0001
0000
0010
0001
0100
0001
,  // measure 24
1000
0010
0100
1010
,  // measure 25
0100
0100
0100
0000
0010
0100
0001
1000
,  // measure 26
0010
0100
0001
1100
,  // measure 27
0001
1000
0000
1010
0000
1001
0000
0100
,  // measure 28
0001
0010
0000
0110
0000
0011
0000
0010
,  // measure 29
0001
1000
0000
1010
0000
1001
0000
0100
,  // measure 30
0001
1000
0000
1000
0200
0000
0320
0000
,  // measure 31
0031
1000
0000
1010
0000
1001
0000
0010
,  // measure 32
0001
0100
0000
0110
0000
0101
0000
1000
,  // measure 33
0100
0010
0000
0110
0000
0011
0000
1000
,  // measure 34
0001
0100
0010
0000
1000
0001
0100
0000
,  // measure 35
2002
0000
3003
0000
0010
1000
0100
1000
,  // measure 36
0002
0000
1003
0000
0010
0100
0001
0000
,  // measure 37
2002
0000
3003
0000
0100
0001
0010
0001
,  // measure 38
2000
0000
3001
0000
0100
0010
1000
0000
,  // measure 39
0200
0000
0000
0000
,  // measure 40
0320
0000
0000
0000
,  // measure 41
0032
0000
2003
0000
,  // measure 42
3020
2030
3002
0203
,  // measure 43
0310
0000
1000
0100
1000
0010
1000
0100
,  // measure 44
1000
0010
1000
0001
1000
0100
1000
0010
,  // measure 45
1000
0000
0001
0100
0001
0010
0001
1000
,  // measure 46
0001
0100
0001
0010
0001
1000
0001
0000
,  // measure 47
0200
0000
0000
0000
0301
1000
0100
0000
,  // measure 48
2002
0000
0000
3003
,  // measure 49
0001
0010
0100
1000
0001
0010
0100
1000
,  // measure 50
0001
0100
0010
1000
0001
0100
0010
1000
,  // measure 51
0001
0010
0001
0010
0100
1000
0001
0000
,  // measure 52
2010
3001
0012
1003
,  // measure 53
0010
0100
0002
0000
1003
0000
0100
0000
,  // measure 54
1000
0010
0100
0001
0011
0000
1010
0000
,  // measure 55
1000
0100
1000
0100
0010
0001
1000
0000
,  // measure 56
0102
1003
2100
3001
,  // measure 57
0100
0010
2000
0000
3001
0000
0010
0000
,  // measure 58
0001
0100
0010
1000
1100
0000
0101
0000
,  // measure 59
1000
1000
0010
1000
0001
0001
0010
0001
,  // measure 60
1000
1000
0010
1000
0001
0001
0010
0000
,  // measure 61
0001
1000
0200
0000
0010
0000
0310
0000
,  // measure 62
0011
1100
0101
1010
,  // measure 63
1000
1000
0100
1000
0001
0001
0100
0001
,  // measure 64
1000
1000
0100
1000
0001
0001
0100
0000
,  // measure 65
0010
1000
0200
0000
0010
0000
0310
0000
,  // measure 66
0011
1100
0101
1010
,  // measure 67
2002
0000
0000
0000
,  // measure 68
3003
0000
0000
0000
;

//---------------dance-single - ----------------
#NOTES:
     dance-single:
     :
     Hard:
     14:
     0.694,0.753,0.117,0.362,0.264:
0000
0000
0000
0000
,
0000
0000
0000
0000
,
0000
0000
0000
0000
,
0000
0000
0000
0000
,
0020
0000
0130
0020
0000
0031
0020
0000
,
0230
0000
0301
0200
0000
0310
0200
0000
,
0320
0000
1030
0020
0000
0031
0020
0000
,
0130
0000
0001
0000
0010
0000
0100
0000
1000
0000
0001
0000
0100
0010
0100
0010
,
1000
0000
0100
0000
0010
0000
0001
0000
0100
0000
0010
0000
1000
0100
0010
0000
,
0001
0100
0001
0000
2000
0000
0000
0000
3100
1000
0100
0000
0020
0000
0000
0000
,
0031
0000
1000
0100
0010
0000
0001
0000
0100
0000
0010
0000
1000
0000
0100
0000
,
0010
0001
1000
0010
0101
0000
1100
0000
,
0001
0000
0100
0000
1000
0000
0100
0000
0010
0000
1000
0000
0001
0010
0100
0000
,
1000
0100
1000
0000
0020
0000
0000
0000
0130
0001
0100
0000
0002
0000
0000
0000
,
1003
0000
0100
1000
0100
0000
1000
0000
0010
0000
0100
0000
0001
0000
0010
0000
,
0100
1000
0010
0100
1001
0000
0110
0000
,
2002
0000
0000
0000
,
0000
0000
0000
3003
,
0010
0000
0010
0000
1000
0000
0010
0000
0001
0000
0010
0100
0010
0000
0100
0000
,
0001
0000
1000
0000
0100
0000
1000
0000
0001
0000
0100
0010
1000
0000
0000
0000
,
0100
0000
0100
0000
0001
0000
0100
0000
1000
0000
0100
0010
0100
0000
0010
0000
,
0001
0000
0100
0000
0010
0000
0100
0000
0001
0000
1000
0100
0010
0000
0000
0000
,
0001
0000
0001
0000
1000
0100
1000
0000
0001
0100
0001
0000
1000
0000
0010
0000
,
0100
0000
0001
0000
1000
0010
1000
0000
0001
1000
0001
0000
0200
0000
0000
0000
,
0310
0000
0100
0000
0001
0100
0001
0000
1000
0100
1000
0000
0001
0000
0010
0000
,
0100
0000
1000
0000
0010
0100
0010
0000
1000
0100
1000
0000
0002
0000
0000
0000
,
1003
0010
0001
0010
0100
0001
0010
0100
,
0010
0001
0100
1000
0001
0010
1000
0100
,
0001
1000
0010
0001
0100
0010
0100
0001
,
0010
0000
1000
0000
0010
0000
0001
0000
1000
0100
1000
0000
0001
0100
0001
0000
,
1000
0010
0100
1000
0100
0010
1000
0001
,
0010
1000
0010
0001
0100
1000
0100
0010
,
0001
1000
0001
0010
1000
0100
0010
0001
,
1000
0000
0010
0100
0010
0100
0010
0000
1000
0100
1000
0000
0001
0100
0001
0000
,
2010
0000
0000
0000
0000
0000
3001
0000
0000
1000
0000
0000
0010
0000
1000
0000
,
0001
0010
0100
0010
0001
1000
0010
0000
,
1002
0000
0000
0000
0000
0000
0103
0000
0000
0010
0000
0000
0100
0000
0001
0000
,
0010
0100
1000
0010
1000
0001
0010
0000
,
0002
0000
0000
0000
,
2003
0000
0000
0000
,
3020
0000
0230
0000
,
0302
0000
2003
0000
3100
0010
0001
1000
,
0010
0100
1000
0100
0010
1000
0100
0010
,
0001
0000
1000
0000
0010
0000
1000
0000
0001
0100
0001
0100
0001
0100
0001
0100
,
0001
0000
1000
0100
1000
0001
0100
0010
,
0100
0000
0001
0000
0010
0000
1000
0000
0010
0001
0010
0001
0010
0000
0000
0000
,
2000
0000
0000
0000
3001
1000
0100
1000
,
0002
0100
0010
0103
,
1000
0100
0010
0001
1000
0100
0010
0001
,
0100
0010
1000
0001
0100
0010
1000
0001
,
0200
0000
1000
0000
0010
0000
0301
0010
,
2000
0000
0010
0000
0001
0000
3010
0001
,
0200
0000
0010
0000
1000
0000
0310
1000
,
0001
0100
0001
0100
1001
0000
1100
0000
,
0020
0000
0001
0000
0100
0000
1030
0100
,
0002
0000
0100
0000
1000
0000
0103
1000
,
0020
0000
0100
0000
0001
0000
0130
0001
,
1000
0010
1000
0010
0101
0000
1100
0000
,
0001
0000
0100
0010
1000
0000
0001
0000
0001
0000
0100
0010
1000
0000
0001
0000
,
0001
0000
0100
0010
1000
0000
0100
0000
0010
0000
0001
0000
2000
0000
0000
0000
,
3001
1000
0100
0010
0001
1000
0010
0100
,
0001
1000
0001
1000
0001
1000
0001
1000
0001
1000
0001
1000
0001
0000
0000
0000
,
1000
0000
0010
0100
0001
0000
1000
0000
1000
0000
0010
0100
0001
0000
1000
0000
,
1000
0000
0010
0100
0001
0000
0010
0000
0100
0000
1000
0000
0002
0000
0000
0000
,
1003
0001
0010
0100
1000
0001
0100
0010
,
1000
0001
1000
0001
1000
0001
1000
0001
1000
0001
1000
0001
1000
0000
0000
0000
,
0202
0000
0000
0000
,
0303
0000
0000
0000
;

//---------------dance-single - ----------------
#NOTES:
     dance-single:
     :
     Challenge:
     17:
     0.982,1.000,0.117,0.127,1.000:
0000
0000
0000
0000
,
0000
0000
0000
0000
,
0000
0000
0000
0000
,
0000
0000
0000
0000
,
1000
0000
0100
1000
0100
0000
1000
0100
1000
0000
0100
1000
0100
0000
0000
0000
,
1000
0000
0001
1000
0001
0000
1000
0001
1000
0000
0001
1000
0001
1000
0001
1000
,
0010
0000
0100
0010
0100
0000
0010
0100
0010
0000
0100
0010
0100
0000
0000
0000
,
0001
0000
0001
1000
0100
0000
1000
0000
0001
0000
0100
0000
0010
1000
0100
0010
,
0001
0000
0100
1000
0100
0000
0010
0000
1000
0000
0100
0000
0010
0000
0001
0000
,
1000
0010
0001
0000
0010
0000
1000
0000
0001
0010
1000
0000
0010
0000
0001
0000
,
1000
0000
0010
0100
0001
0000
1000
0000
0100
0000
0010
0000
0001
0000
0100
0000
,
0010
1000
0100
1000
0010
0100
0001
0010
0100
0000
0000
0000
1001
0000
0000
0000
,
1000
0000
0010
0001
0010
0000
0100
0000
0001
0000
0010
0000
0100
0000
1000
0000
,
0001
0100
1000
0000
0100
0000
0001
0000
1000
0100
0001
0000
0100
0000
1000
0000
,
0001
0000
0100
0010
1000
0000
0001
0000
0010
0000
0100
0000
1000
0000
0010
0000
,
0100
0001
1000
0100
1000
0010
0100
0001
0010
1000
0010
0001
1000
0010
0100
0001
,
0020
0000
0000
0000
,
0000
0000
0000
0000
,
0130
0000
0100
0000
1000
0010
0100
0010
1000
0100
0010
0001
0100
0000
0010
0000
,
1000
0000
1000
0000
0100
0010
0001
0100
0010
0000
1000
0001
0200
0000
0000
0000
,
0310
0000
0010
0000
1000
0001
0010
0001
0100
0010
1000
0100
0010
0000
0001
0000
,
0100
0000
0100
0000
0010
1000
0010
0100
0001
0000
0100
0010
1001
0000
0000
0000
,
0110
0000
0010
0000
0001
0100
0010
1000
0100
0010
0001
1000
0010
0000
0100
0000
,
0002
0000
0100
0000
1003
0010
1000
0001
0010
0100
1000
0001
0200
0000
0010
0000
,
0301
0000
0001
0000
1000
0010
0100
0010
1000
0100
0010
0001
2000
0000
0010
0000
,
3100
0000
0100
0000
0010
0001
0100
0010
1000
0100
0010
0001
1100
0000
0000
0000
,
0010
0000
0100
0000
0001
1000
0001
0000
0100
0000
0010
0000
1000
0100
1000
0000
,
0010
0000
0100
0000
0001
1000
0001
0000
0100
0000
0010
0000
1000
0100
1000
0000
,
0001
0000
0100
0000
0010
1000
0010
0000
0100
0000
0001
0000
1000
0100
1000
0000
,
0010
0000
0100
0000
0001
0100
0001
0000
1000
0100
0010
0000
0001
0010
0100
0000
,
1000
0000
0001
0000
0100
0010
0100
0000
0001
0000
1000
0000
0010
1000
0010
0000
,
0100
0000
0001
0000
1000
0100
1000
0000
0010
0000
0100
0000
0001
0010
0001
0000
,
0100
0000
0001
0000
1000
0010
1000
0000
0001
0000
0100
0000
0010
1000
0010
0000
,
0100
0000
0001
0010
0100
1000
0001
0000
0100
0010
1000
0000
0001
0000
0100
0000
,
1001
0010
0100
0000
0000
0000
0001
0010
0000
0001
0010
0000
0001
0100
0010
1000
,
0100
0010
0001
0000
1000
0000
0100
0010
0000
0100
0010
0000
0110
0000
1001
0000
,
1010
0100
0001
0000
0000
0000
1000
0100
0000
1000
0100
0000
1000
0010
0100
0001
,
0010
0100
1000
0000
0001
0000
0010
0100
0000
0010
0100
0000
0110
0000
1001
0000
,
0020
0000
0000
0000
,
0031
0000
1000
0100
1000
0100
1000
0000
0001
0100
0001
0100
0001
0000
0000
0000
,
0010
0001
1000
0001
1000
0001
1000
0001
0010
0001
1000
0001
1000
0001
1000
0001
,
0020
0000
0000
0000
0230
0000
0000
0000
1300
0010
0100
0001
0010
0100
1000
0001
,
1000
0010
0100
0001
0010
0100
1000
0100
1000
0001
0100
0010
1000
0001
0010
0001
,
0100
0010
1000
0001
0100
1000
0100
0001
0010
0100
1000
0010
1000
0001
0010
0100
,
1000
0000
0001
0100
0010
1000
0100
0010
0001
0100
0010
0100
0001
0010
0100
1000
,
0001
0100
1000
0100
0001
0010
1000
0010
0001
0100
0010
1000
0100
0001
0100
0010
,
0002
0000
0000
0000
0000
0000
0000
0000
0013
0000
0100
0010
0001
0100
0010
1000
,
0200
0000
0000
0000
,
1300
0100
0010
0001
1000
0100
0010
0001
1000
0100
0010
0001
1000
0100
0010
0001
,
1000
0010
0100
0001
1000
0010
0100
0001
1000
0010
0100
0001
1000
0010
0100
0001
,
1000
0000
0010
0001
0010
0000
0100
0000
0001
0000
0010
0000
0100
0000
1000
0000
,
0001
0100
1000
0000
0100
0000
0001
0000
1000
0100
0001
0000
0100
0000
1000
0000
,
0001
0000
0100
0010
1000
0000
0001
0000
0010
0000
0100
0000
1000
0000
0010
0000
,
0100
0001
0010
0001
0100
0010
1000
0100
0010
0000
0000
0000
1001
0000
0000
0000
,
0001
0000
0100
1000
0100
0000
0010
0000
1000
0000
0100
0000
0010
0000
0001
0000
,
1000
0010
0001
0000
0010
0000
1000
0000
0001
0010
1000
0000
0010
0000
0001
0000
,
1000
0000
0010
0100
0001
0000
1000
0000
0100
0000
0010
0000
0001
0000
0100
0000
,
0010
1000
0001
0010
0001
0100
0010
1000
0100
0001
0100
1000
0001
0100
0010
1000
,
0100
0010
0100
0010
0001
1000
0010
0100
0001
0010
0001
0010
0100
1000
0010
0100
,
0001
1000
0001
1000
0010
0100
0001
1000
0100
0010
0100
0010
0001
0100
0010
1000
,
0001
0010
0100
0010
0001
0100
1000
0100
0010
1000
0100
0010
0001
1000
0010
0100
,
0002
0100
0010
1003
,
0010
0100
0010
0100
1000
0001
0100
0010
1000
0100
1000
0100
0010
0001
0100
0010
,
1000
0001
1000
0001
0100
0010
1000
0001
0010
0100
0010
0100
1000
0010
0100
0001
,
1000
0100
0010
0100
1000
0010
0001
0010
0100
0001
0010
0100
1000
0001
0100
0010
,
1000
0000
0100
1000
0010
0000
0100
0000
0001
0000
1000
0000
0100
1000
0010
0100
,
2002
0000
0000
0000
,
3003
0000
0000
0000
;

//---------------dance-single - ----------------
#NOTES:
     dance-single:
     :
     Easy:
     6:
     0.278,0.327,0.098,0.332,0.000: // measure 1
0000
0000
0000
0000
,  // measure 2
0000
0000
0000
0000
,  // measure 3
0000
0000
0000
0000
,  // measure 4
0000
0000
0000
0000
,  // measure 5
2000
0000
3100
0000
,  // measure 6
0002
0000
0103
0000
,  // measure 7
2000
0000
3010
0000
,  // measure 8
0002
0000
0013
0000
,  // measure 9
1001
0100
1000
0010
,  // measure 10
0200
0300
0020
0030
,  // measure 11
1000
0002
0003
0000
,  // measure 12
0010
0001
0100
0000
,  // measure 13
1001
0010
0001
0100
,  // measure 14
0020
0030
0200
0300
,  // measure 15
0001
2000
3000
0000
,  // measure 16
0100
1000
0010
0000
,  // measure 17
2002
0000
0000
0000
,  // measure 18
0000
0000
0000
3003
,  // measure 19
0010
0000
1000
0000
,  // measure 20
0001
0100
0010
0000
,  // measure 21
1000
0000
0001
0000
,  // measure 22
0010
0100
1000
0000
,  // measure 23
0110
0000
1000
0000
,  // measure 24
0010
1000
0100
0000
,  // measure 25
1000
0000
0001
0000
,  // measure 26
0100
0001
0010
0000
,  // measure 27
0100
0100
1000
1000
,  // measure 28
0010
0010
0100
0100
,  // measure 29
0001
0001
0010
0010
,  // measure 30
0100
0100
2000
3000
,  // measure 31
0010
0010
1000
1000
,  // measure 32
0100
0100
0010
0010
,  // measure 33
0001
0001
1000
1000
,  // measure 34
0001
0001
0200
0300
,  // measure 35
2002
3003
0000
0000
,  // measure 36
0010
0000
0100
0000
,  // measure 37
2002
3003
0000
0000
,  // measure 38
0100
0000
0010
0000
,  // measure 39
2002
0000
0000
3003
,  // measure 40
0020
0000
0000
0030
,  // measure 41
2000
0000
3200
0000
,  // measure 42
0320
0000
0032
0000
,  // measure 43
0103
0000
0010
0000
,  // measure 44
0100
0100
0001
0001
,  // measure 45
1000
0000
0010
0000
,  // measure 46
1000
0100
0010
0000
,  // measure 47
0002
0003
1000
0000
,  // measure 48
0200
0000
0000
0000
,  // measure 49
0310
0010
0010
0010
,  // measure 50
0100
0100
0100
0100
,  // measure 51
1001
0000
0200
0000
,  // measure 52
0000
0000
0000
0300
,  // measure 53
2000
0000
0000
0000
,  // measure 54
3010
0000
1000
1000
,  // measure 55
0001
0000
0100
0100
,  // measure 56
0010
0000
1000
0000
,  // measure 57
0002
0000
0000
0000
,  // measure 58
0013
0000
0100
0000
,  // measure 59
1000
1000
0001
0001
,  // measure 60
1000
1000
0001
0001
,  // measure 61
0100
0000
0010
0000
,  // measure 62
2002
0000
0000
3003
,  // measure 63
0001
0001
1000
1000
,  // measure 64
0001
0001
1000
1000
,  // measure 65
0010
0000
0100
0000
,  // measure 66
1000
0100
0010
0001
,  // measure 67
2002
0000
0000
0000
,  // measure 68
3003
0000
0000
0000
;
